<?xml version="1.0" standalone="no"?>
<!DOCTYPE svg PUBLIC "-//W3C//DTD SVG 1.1//EN" "http://www.w3.org/Graphics/SVG/1.1/DTD/svg11.dtd" >
<svg xmlns="http://www.w3.org/2000/svg" xmlns:xlink="http://www.w3.org/1999/xlink" version="1.1">
<metadata>
Created by FontForge 20170731 at Thu Oct 21 15:48:39 2021
 By Aleksey,,,
Copyright 2020 The Kaisei Project Authors (https://github.com/Font-Kai/Kaisei)
</metadata>
<defs>
<font id="KaiseiOpti-Regular" horiz-adv-x="1000" vert-adv-y="1000" >
  <font-face 
    font-family="Kaisei Opti"
    font-weight="400"
    font-stretch="normal"
    units-per-em="1000"
    panose-1="0 0 0 0 0 0 0 0 0 0"
    ascent="880"
    descent="-120"
    x-height="537"
    cap-height="735"
    bbox="-89 -209 1053 933"
    underline-thickness="50"
    underline-position="-175"
    unicode-range="U+000D-2F920"
  />
<missing-glyph 
d="M498 578q0 6 -5 10t-11 4q-15 0 -15 -14t15 -14q6 0 11 4t5 10zM634 183q0 -13 -13 -13q-19 0 -34.5 8t-30.5 18q-5 -18 -5 -33q0 -37 21 -64q1 -6 -7 -6q-13 0 -24 8.5t-27 8.5q-13 0 -30.5 -11t-16.5 -27q-3 -5 -5 -7.5t-9 -2.5q-4 0 -6 6t-2 9q0 13 12.5 21.5
t29.5 19.5t29.5 30t12.5 52q0 15 -2 22t-6.5 13t-10.5 17q-14 26 -20.5 55.5t-6.5 58.5q0 16 2.5 31t2.5 31q0 20 -15 30h-4q-22 1 -37 -15.5t-24.5 -41.5t-13.5 -50t-4 -42q0 -45 18 -95t50 -82v-2.5v-3.5l-1 -2q-5 -4 -11.5 -5t-13.5 -1q-11 0 -22 1.5t-22 3.5
q-2 2 -4 4.5t-2 6.5q0 2 0.5 5.5t3.5 3.5q8 0 22.5 -4t23.5 -6q2 4 2 6q0 6 -5 11t-8 9q-15 21 -24 47t-14 51h-4q-8 1 -16 -3.5t-17 -4.5t-14 6l1 6q17 12 26 28.5t15 35.5q7 19 11.5 38t11.5 38q8 19 18.5 35t22.5 32q6 9 15 21t13 22t4 21q0 16 -11 24t-26 10.5t-27 2.5
q-10 0 -19.5 -0.5t-19.5 -0.5l-1 2q3 5 9.5 9.5t12.5 4.5q9 0 17.5 -2t17.5 -2q17 0 24 7.5l14 15t24 7.5q24 0 41.5 -15t17.5 -40q0 -17 -6 -33t-6 -33q0 -16 11 -28.5t17 -26.5q11 -25 16.5 -52t5.5 -54q0 -8 -1 -16t-1 -16q0 -26 12.5 -51t31.5 -43q4 -4 7 -8.5t3 -10.5z
" />
    <glyph glyph-name=".notdef" 
d="M498 578q0 6 -5 10t-11 4q-15 0 -15 -14t15 -14q6 0 11 4t5 10zM634 183q0 -13 -13 -13q-19 0 -34.5 8t-30.5 18q-5 -18 -5 -33q0 -37 21 -64q1 -6 -7 -6q-13 0 -24 8.5t-27 8.5q-13 0 -30.5 -11t-16.5 -27q-3 -5 -5 -7.5t-9 -2.5q-4 0 -6 6t-2 9q0 13 12.5 21.5
t29.5 19.5t29.5 30t12.5 52q0 15 -2 22t-6.5 13t-10.5 17q-14 26 -20.5 55.5t-6.5 58.5q0 16 2.5 31t2.5 31q0 20 -15 30h-4q-22 1 -37 -15.5t-24.5 -41.5t-13.5 -50t-4 -42q0 -45 18 -95t50 -82v-2.5v-3.5l-1 -2q-5 -4 -11.5 -5t-13.5 -1q-11 0 -22 1.5t-22 3.5
q-2 2 -4 4.5t-2 6.5q0 2 0.5 5.5t3.5 3.5q8 0 22.5 -4t23.5 -6q2 4 2 6q0 6 -5 11t-8 9q-15 21 -24 47t-14 51h-4q-8 1 -16 -3.5t-17 -4.5t-14 6l1 6q17 12 26 28.5t15 35.5q7 19 11.5 38t11.5 38q8 19 18.5 35t22.5 32q6 9 15 21t13 22t4 21q0 16 -11 24t-26 10.5t-27 2.5
q-10 0 -19.5 -0.5t-19.5 -0.5l-1 2q3 5 9.5 9.5t12.5 4.5q9 0 17.5 -2t17.5 -2q17 0 24 7.5l14 15t24 7.5q24 0 41.5 -15t17.5 -40q0 -17 -6 -33t-6 -33q0 -16 11 -28.5t17 -26.5q11 -25 16.5 -52t5.5 -54q0 -8 -1 -16t-1 -16q0 -26 12.5 -51t31.5 -43q4 -4 7 -8.5t3 -10.5z
" />
    <glyph glyph-name=".null" horiz-adv-x="0" vert-adv-y="0" 
 />
    <glyph glyph-name="nonmarkingreturn" horiz-adv-x="333" 
 />
    <glyph glyph-name="CR" unicode="&#xd;" horiz-adv-x="600" 
 />
    <glyph glyph-name="space" unicode=" " horiz-adv-x="250" 
 />
    <glyph glyph-name="exclam" unicode="!" horiz-adv-x="400" 
d="M271 73q0 -29 -21 -49t-50 -20q-28 0 -49.5 20t-21.5 49t21.5 48t49.5 19q29 0 50 -19t21 -48zM258 687q0 -19 -3 -38.5t-5 -39.5q-10 -99 -18.5 -198t-18.5 -198h-26q-7 98 -17.5 196.5t-19.5 196.5q-2 20 -5 40.5t-3 40.5q0 27 16.5 39.5t41.5 12.5t41.5 -13t16.5 -39z
" />
    <glyph glyph-name="quotedbl" unicode="&#x22;" horiz-adv-x="390" 
d="M165 722q0 -22 -5 -54t-8 -55q-4 -30 -8 -61.5t-12 -60.5q-1 -4 -4 -12.5t-9 -8.5t-9 8.5t-4 12.5q-7 30 -12 63t-8 64q-2 22 -7 52.5t-5 51.5q0 20 14 29t32 9q17 0 31 -10t14 -28zM316 722q0 -25 -4 -51.5t-8 -52.5q-4 -28 -8.5 -64t-11.5 -63q-1 -5 -4 -11.5t-8 -9.5
q-8 0 -10.5 7t-4.5 14q-6 31 -10.5 63.5t-8.5 63.5q-1 17 -3 33.5t-5 32.5q-1 10 -3 19t-2 19q0 21 14 29.5t33 8.5q18 0 31 -9.5t13 -28.5z" />
    <glyph glyph-name="numbersign" unicode="#" horiz-adv-x="780" 
d="M501 497h-183l-32 -183h183zM697 560l-13 -63h-132l-32 -183h135l-13 -64h-134l-45 -256h-52l46 256h-183l-47 -256h-50l49 256h-143l13 64h141l31 183h-143l13 63h142l35 200h51l-35 -200h181l36 200h50l-34 -200h133z" />
    <glyph glyph-name="dollar" unicode="$" horiz-adv-x="700" 
d="M492 177q0 42 -19 70t-48.5 48.5t-61.5 38.5v-306q59 20 94 51t35 98zM327 720q-57 -12 -90.5 -40t-33.5 -91q0 -36 19.5 -63t48 -47t56.5 -37v278zM593 192q0 -50 -19.5 -84.5t-53 -57t-74.5 -34.5t-83 -17v-75h-36v73q-30 1 -58 4.5t-56 13.5q-21 8 -40.5 18.5
t-42.5 14.5q-5 35 -14 76.5t-9 75.5q0 15 18 15q13 0 17.5 -6.5t6.5 -17.5q2 -13 4.5 -25t6.5 -25q19 -61 62.5 -84.5t104.5 -28.5v324q-38 19 -77 37q-31 15 -62.5 39t-52 56t-20.5 70q0 61 30.5 100.5t79 60.5t102.5 25v68h36v-69q28 -1 52.5 -8t49.5 -19q15 -7 35 -10
t36 -5q1 -15 3 -37.5t5 -45t6 -36.5q3 -7 3 -16q0 -15 -8 -19.5t-21 -4.5q-8 0 -11.5 2t-5.5 9q-3 14 -5 28t-6 27q-13 46 -50.5 76t-82.5 40v-294q40 -18 80.5 -37.5t74.5 -45.5t54.5 -62.5t20.5 -88.5z" />
    <glyph glyph-name="percent" unicode="%" horiz-adv-x="886" 
d="M328 539q0 26 -1.5 56t-10 57.5t-28 45t-54.5 17.5t-54 -17.5t-27.5 -45t-10 -57.5t-1.5 -56q0 -22 3.5 -50.5t13.5 -54.5t28 -43t48 -17q35 0 54.5 16t28 41t10 53.5t1.5 54.5zM743 184q0 26 -1.5 56t-10 57.5t-28 45t-54.5 17.5t-54 -17.5t-27.5 -45t-10 -57.5
t-1.5 -56q0 -22 3.5 -50.5t13.5 -54.5t28 -43t48 -17q35 0 54.5 16t28 41t10 53.5t1.5 54.5zM409 539q0 -33 -14 -66.5t-39 -61t-56 -44.5t-66 -17q-48 0 -87 28.5t-62 72t-23 88.5q0 33 13.5 67.5t37.5 64.5t55 48.5t66 18.5q53 0 92 -29.5t61 -75t22 -94.5zM764 719
l-624 -740l-28 21l625 739zM824 184q0 -33 -14 -66.5t-39 -61t-56 -44.5t-66 -17q-48 0 -87 28t-62 71.5t-23 89.5q0 33 13.5 67.5t37.5 64.5t55 48.5t66 18.5q53 0 92 -29.5t61 -75t22 -94.5z" />
    <glyph glyph-name="ampersand" unicode="&#x26;" horiz-adv-x="758" 
d="M458 76q-48 32 -93 82.5t-80 108.5t-56 111q-27 -36 -48 -80.5t-21 -90.5t18 -85t52.5 -62.5t83.5 -23.5q41 0 75.5 7.5t68.5 32.5zM396 638q0 20 -14 42.5t-36 22.5q-30 0 -49 -17.5t-28 -43.5t-9 -52q0 -32 9 -63.5t22 -60.5q24 21 48.5 48t40.5 59t16 65zM771 42
q-5 -19 -21.5 -31t-37 -18t-38.5 -6q-47 0 -98 19t-86 51q-51 -36 -102.5 -50.5t-113.5 -14.5q-55 0 -104 21.5t-79.5 63t-30.5 100.5q0 49 21 92.5t55 79.5t72 63q-14 34 -23 69.5t-9 72.5q0 52 26.5 92t69.5 63.5t93 23.5q31 0 58 -13.5t44 -37.5t17 -57q0 -37 -17.5 -66
t-45 -52t-59 -41t-58.5 -35q22 -52 53.5 -106.5t70.5 -104.5t80 -89q20 35 28 72t8 77q0 14 -5.5 36.5t-17 40.5t-29.5 18q-4 0 -8 -0.5t-9 -0.5h-0.5t-0.5 1q0 8 1 21t11 13q26 0 61 2t68.5 9.5t53.5 23.5q11 8 20 18.5t18 20.5q4 5 8 8.5t7 7.5q8 1 10 -4.5t2 -10.5
q0 -3 -6.5 -20t-14 -34t-10.5 -22q-4 -6 -6 -10t-10 -6q-3 -1 -12.5 -0.5t-14.5 0.5q-34 0 -69 -3t-70 -5q21 -6 44.5 -20.5t40 -34.5t16.5 -45q0 -55 -17 -101t-60 -84q22 -18 52 -33.5t62 -25t60 -9.5q25 0 52 11z" />
    <glyph glyph-name="quotesingle" unicode="'" horiz-adv-x="280" 
d="M184 724q0 -24 -4.5 -54.5t-8.5 -54.5q-4 -28 -7.5 -61t-10.5 -61q-1 -4 -3.5 -12.5t-9.5 -8.5q-6 0 -9 8.5t-4 12.5q-7 28 -11.5 63.5t-7.5 63.5q-2 22 -7 53t-5 51t13.5 29t31.5 9q17 0 30 -10.5t13 -27.5z" />
    <glyph glyph-name="parenleft" unicode="(" horiz-adv-x="450" 
d="M390 -112q-130 76 -191 199.5t-61 271.5q0 154 60.5 281.5t191.5 211.5l10 -22q-69 -52 -109.5 -129.5t-58 -165t-17.5 -170.5q0 -60 10 -124.5t32 -126t58 -114t88 -90.5z" />
    <glyph glyph-name="parenright" unicode=")" horiz-adv-x="450" 
d="M305 359q0 -148 -60.5 -271.5t-190.5 -199.5l-10 23q51 37 86 90t57 114.5t31.5 126t9.5 123.5q0 83 -17.5 170.5t-58 165t-109.5 129.5l10 22q131 -84 191.5 -211.5t60.5 -281.5z" />
    <glyph glyph-name="asterisk" unicode="*" horiz-adv-x="450" 
d="M391 503q0 -13 -9 -21t-22 -8q-12 0 -23 9q-28 23 -54.5 47t-54.5 46q4 -25 9 -50l10 -50q2 -10 5 -21.5t4 -22.5v-5v-5q0 -12 -9 -21.5t-21 -9.5q-14 0 -22.5 10t-8.5 23q0 9 3.5 18.5t4.5 18.5q5 29 10 57.5t7 56.5q-31 -22 -57 -48t-55 -49q-9 -7 -18 -7
q-12 0 -21.5 8t-9.5 21q0 10 5 19t15 12q35 11 70 22.5t68 29.5q-23 11 -47 20.5t-48 16.5q-11 5 -23 8t-23 7q-8 3 -12.5 11.5t-4.5 16.5q0 14 9 21.5t22 7.5t20 -7q14 -11 26.5 -24t25.5 -25q14 -12 28.5 -23t30.5 -22q-4 37 -12 73t-15 73q0 2 -0.5 3.5t-0.5 2.5
q0 12 9.5 21.5t21.5 9.5q13 0 22 -10.5t9 -22.5q0 -1 -0.5 -1.5t-0.5 -1.5q-9 -36 -15 -73.5t-11 -73.5q30 22 56.5 47t54.5 48q10 8 20 8q12 0 21 -8t9 -21q0 -21 -17 -29q-4 0 -23.5 -7.5t-44 -17.5t-45 -18t-26.5 -11q24 -11 49.5 -20.5t50.5 -17.5q10 -3 20.5 -6
t19.5 -7q18 -9 18 -28z" />
    <glyph glyph-name="plus" unicode="+" horiz-adv-x="750" 
d="M674 338h-274v-269h-50v269h-273v49h273v262h50v-262h274v-49z" />
    <glyph glyph-name="comma" unicode="," horiz-adv-x="350" 
d="M247 51q0 -28 -12 -63.5t-30.5 -67.5t-39.5 -52l-18 6q17 28 29 71t12 76v4q-18 -15 -40 -15q-17 0 -31 18.5t-14 34.5q0 33 19 56t53 23q41 0 56.5 -27.5t15.5 -63.5z" />
    <glyph glyph-name="hyphen" unicode="-" horiz-adv-x="400" 
d="M332 292h-263v59h263v-59z" />
    <glyph glyph-name="period" unicode="." horiz-adv-x="350" 
d="M245 73q0 -28 -21 -47t-49 -19t-49 19t-21 47q0 29 21 48t49 19t49 -19t21 -48z" />
    <glyph glyph-name="slash" unicode="/" horiz-adv-x="500" 
d="M448 789l-359 -856l-37 18l358 856z" />
    <glyph glyph-name="zero" unicode="0" horiz-adv-x="590" 
d="M435 362q0 29 -1.5 71.5t-7.5 89.5t-21 88t-41 66.5t-68 25.5q-38 0 -64 -26.5t-42 -69t-24.5 -90t-11.5 -91t-3 -70.5t2.5 -67.5t9.5 -85t22.5 -83.5t40.5 -63.5t63 -24.5q40 0 66 24.5t42 64t24.5 85t11 87t2.5 69.5zM539 375q0 -46 -8.5 -97t-26.5 -100t-47.5 -89
t-71.5 -63.5t-98 -23.5q-67 0 -112.5 33.5t-72.5 86.5t-39 113.5t-12 114.5q0 46 8 98.5t26 102.5t47.5 91t72 65.5t99.5 24.5q54 0 93.5 -23t67 -61t43.5 -85t23.5 -95.5t7.5 -92.5z" />
    <glyph glyph-name="one" unicode="1" horiz-adv-x="590" 
d="M485 15q0 -16 -15 -16q-7 0 -15 1t-16 1q-9 0 -18.5 0.5t-19.5 0.5q-22 1 -44.5 0.5t-44.5 -0.5h-59t-59 -1q-7 -1 -17.5 -1h-16.5q-12 0 -12 15q0 5 1.5 9.5t7.5 4.5t11.5 -0.5t11.5 -0.5q10 0 29.5 0.5t36.5 6t17 19.5q0 81 1 162.5t1 162.5v138v139q0 13 -13 13
q-6 0 -24.5 -7t-41.5 -16t-41.5 -16t-23.5 -7q-9 0 -12.5 8t-3.5 15q0 6 6 10.5t11 5.5q28 7 53 16.5t52 18.5q21 7 44 15.5t43 16.5q4 2 14 5t20.5 6t12.5 3q6 0 9 -1.5t3 -10.5q0 -22 -0.5 -43.5t-1.5 -43.5q-1 -61 -1.5 -129t-1.5 -134v-145v-145q0 -9 0.5 -18.5
t0.5 -18.5q1 -14 16.5 -19.5t34 -5.5h26.5t15 1t14 1q6 0 8 -5.5t2 -10.5z" />
    <glyph glyph-name="two" unicode="2" horiz-adv-x="590" 
d="M540 154q0 -2 -3.5 -10.5t-4.5 -11.5q-4 -10 -7.5 -20t-6.5 -20q-5 -19 -9 -38t-9 -37q-5 -14 -17 -14q-28 0 -66 2t-65 2q-53 0 -98.5 -0.5t-91.5 -1.5q-23 0 -46.5 -1.5t-46.5 -1.5q-5 0 -11 3t-6 10q0 37 17 71q16 31 46.5 69t67.5 77t72.5 74t61.5 60q36 35 62 84.5
t26 100.5q0 38 -9.5 71.5t-33.5 54.5t-68 21q-38 0 -67.5 -12.5t-51.5 -46.5q-14 -22 -17.5 -51.5t-5.5 -55.5q-1 -34 -38 -34q-53 0 -53 50q0 47 24.5 81t63 56t82.5 33t83 11q49 0 94.5 -21t74.5 -59.5t29 -91.5q0 -66 -25 -113t-65.5 -83t-87.5 -66.5t-92 -63.5
q-31 -23 -59.5 -52.5t-53.5 -59.5q-4 -6 -12.5 -18t-8.5 -20t8 -8q60 0 120 2.5t121 3.5q56 1 93.5 17t71.5 62q3 4 7 4q3 0 7 -2.5t4 -5.5z" />
    <glyph glyph-name="three" unicode="3" horiz-adv-x="590" 
d="M535 245q0 -64 -24 -110.5t-65.5 -76.5t-94 -44.5t-109.5 -14.5q-32 0 -66.5 6t-64 22t-46.5 46q-14 23 -14 51q0 23 13.5 34.5t35.5 11.5q30 0 33 -27q4 -28 15.5 -54.5t33 -43.5t53.5 -17q104 0 148.5 51.5t44.5 152.5q0 67 -35.5 110.5t-104.5 43.5q-13 0 -28 -1.5
t-28 -4.5q-7 -1 -15 -4.5t-16 -3.5q-7 0 -8.5 6t-1.5 11q0 7 2 15t11 8q3 0 6.5 -0.5t7.5 -0.5q20 0 40.5 0.5t39.5 5.5q56 16 79.5 52.5t23.5 93.5q0 39 -10.5 71t-35.5 51t-69 19q-66 0 -99.5 -40.5t-33.5 -103.5q0 -22 -24 -22q-23 0 -38.5 12t-15.5 37q0 11 8.5 31
t15.5 29q38 49 96.5 68t117.5 19q46 0 89 -18t71 -52.5t28 -85.5q0 -37 -20.5 -71t-47.5 -57q-21 -19 -47 -30t-52 -18q19 -1 46.5 -4t44.5 -10q47 -16 78.5 -53.5t31.5 -89.5z" />
    <glyph glyph-name="four" unicode="4" horiz-adv-x="590" 
d="M340 522q0 25 -0.5 50t-0.5 50l-257 -371h257q0 68 0.5 136t0.5 135zM568 284q0 -2 -2.5 -11.5t-3.5 -13.5q-3 -11 -6.5 -24t-5.5 -24q-1 -7 -6 -7.5t-11 -0.5h-98q0 -28 0.5 -56t0.5 -57v-36q0 -15 11.5 -20t26.5 -5.5t24 -0.5q7 0 14.5 1t14.5 1t8 -5.5t1 -10.5
q0 -4 -1.5 -9.5t-6.5 -5.5h-8.5t-9.5 1q-30 2 -60.5 3t-59.5 1q-26 0 -52.5 -1t-52.5 -2q-9 -1 -18 -1.5t-17 -0.5t-10 4.5t-2 11.5q0 5 1.5 9.5t8.5 4.5q5 0 10.5 -0.5t10.5 -0.5h27.5t29 5.5t12.5 20.5v149h-298q-7 0 -12.5 3.5t-5.5 10.5q0 8 4 14l2 4t2 3
q83 120 167.5 241t164.5 243q3 6 7 10q3 5 9 5h53q2 0 6 -0.5t3 -3.5l-4 -11v-471h61q13 0 26.5 4.5t21.5 14.5q2 2 4.5 7.5t3.5 7.5q3 5 7 5q8 0 8 -6z" />
    <glyph glyph-name="five" unicode="5" horiz-adv-x="590" 
d="M539 259q0 -47 -19 -100t-55 -85q-40 -35 -96 -54t-109 -19q-25 0 -60 6.5t-69 20t-57 36t-23 54.5q0 22 15 34.5t36 12.5q18 0 32 -9t15 -29q4 -46 26.5 -71t71.5 -25q69 0 112 32.5t64 98.5q7 23 8.5 47.5t1.5 48.5q0 33 -7.5 71.5t-27.5 65.5q-17 23 -43.5 31t-54.5 8
q-22 0 -48 -7.5t-43 -21.5t-31 -35.5t-16 -44.5q-1 -6 -2 -15t-10 -9q-5 0 -20.5 4.5t-29 11t-13.5 11.5q0 3 1 6l2 6q7 23 11.5 57.5t6.5 73t3 74.5t1 61q0 59 -6 119q31 -4 61.5 -6t61.5 -2h143q26 0 60.5 3t57.5 16q5 3 11.5 6.5t11.5 3.5q3 0 9 -0.5t6 -5.5t-7 -20.5
t-15 -31.5t-11 -21q-4 -7 -10 -9t-14 -2q-13 0 -26.5 0.5t-27.5 1.5q-17 2 -35 1.5t-35 -0.5q-28 0 -56 0.5t-57 0.5h-34.5t-34.5 -1q-1 -63 -4.5 -126.5t-6.5 -126.5q46 32 85.5 47.5t95.5 15.5q38 0 73.5 -11t63.5 -37q32 -30 49.5 -74t17.5 -88z" />
    <glyph glyph-name="six" unicode="6" horiz-adv-x="590" 
d="M437 217q0 34 -4 69.5t-17 66t-38.5 49t-69.5 18.5q-22 0 -50.5 -8t-53.5 -23t-37 -35q-13 -23 -14.5 -49.5t-1.5 -52.5v-22.5t1 -22.5q2 -40 18 -82t47 -70t78 -28q53 0 84 29t44.5 72.5t13.5 88.5zM540 241q0 -78 -34 -132t-92.5 -82t-134.5 -28q-53 0 -98 26.5
t-75.5 70t-42.5 93.5q-6 27 -7.5 54.5t-1.5 55.5q0 35 8.5 73t20.5 70q51 138 151 219.5t240 119.5h1.5h1.5q8 0 8 -7q0 -6 -4 -7q-3 -3 -7 -4.5t-8 -3.5q-22 -9 -44 -19t-42 -21q-21 -12 -40.5 -26.5t-36.5 -31.5q-31 -32 -61 -74.5t-50.5 -90t-25.5 -93.5q35 23 75 38
t83 15q98 0 157 -58.5t59 -156.5z" />
    <glyph glyph-name="seven" unicode="7" horiz-adv-x="590" 
d="M537 700q-29 -30 -54.5 -73t-46.5 -88.5t-36 -85.5q-35 -92 -54 -189t-27 -195q-3 -38 -13 -60.5t-54 -22.5q-27 0 -35.5 19.5t-8.5 41.5q0 42 13 95.5t32.5 110.5t40.5 109.5t38 91.5q27 60 63.5 119t76.5 111q-102 -1 -206 -6q-26 -1 -54 -2.5t-54 -7.5
q-37 -8 -55.5 -38t-29.5 -64q-2 -1 -6 -1q-8 0 -14 3q5 36 8.5 72.5t7.5 72.5q2 6 2.5 8.5t6.5 4.5q8 2 17 2q62 0 124.5 -1t125.5 -1q48 0 96 1t96 3v-30z" />
    <glyph glyph-name="eight" unicode="8" horiz-adv-x="590" 
d="M447 196q0 45 -18.5 75.5t-48.5 51.5t-66 35.5t-71 27.5q-54 -31 -86 -78.5t-32 -111.5q0 -83 40 -125t123 -42q48 0 83.5 22t55.5 60t20 85zM428 580q0 68 -37.5 100.5t-102.5 32.5q-61 0 -95 -33.5t-34 -93.5q0 -47 23 -77t59.5 -49t74.5 -33q47 21 79.5 60.5
t32.5 92.5zM546 230q0 -77 -37.5 -128.5t-98.5 -77t-133 -25.5q-59 0 -112.5 20.5t-87 63.5t-33.5 109q0 55 25.5 92.5t65 65t81.5 49.5q-31 13 -63 34t-54 51t-22 68q0 66 34 107.5t87 60.5t111 19q45 0 90 -16t75 -49t30 -84q0 -46 -18.5 -79t-50.5 -56t-71 -40
q41 -12 83 -37.5t70.5 -62.5t28.5 -85z" />
    <glyph glyph-name="nine" unicode="9" horiz-adv-x="590" 
d="M438 479v22.5t-1 22.5q-2 41 -18 82.5t-47 70t-78 28.5q-53 0 -84 -29t-44.5 -73t-13.5 -89q0 -34 4 -69.5t17 -66t39 -49t69 -18.5q22 0 50.5 8t53.5 23t37 35q14 23 15 49.5t1 52.5zM535 432q0 -34 -8.5 -72.5t-20.5 -70.5q-51 -137 -151 -219t-240 -120h-1.5h-1.5
q-9 0 -9 8q0 5 4 7t8 3q46 20 91 43t80 59q32 32 61.5 75t50.5 90.5t25 92.5q-35 -23 -75 -38t-83 -15q-65 0 -113 26.5t-74.5 75t-26.5 113.5q0 79 33 133t91.5 82t133.5 28q54 0 99 -27t76 -70.5t42 -93.5q6 -27 7.5 -54.5t1.5 -55.5z" />
    <glyph glyph-name="colon" unicode=":" horiz-adv-x="390" 
d="M264 75q0 -28 -21 -46.5t-48 -18.5t-48 18.5t-21 46.5q0 29 20.5 47.5t48.5 18.5t48.5 -18.5t20.5 -47.5zM264 433q0 -28 -20.5 -47t-48.5 -19t-48.5 19t-20.5 47t21 46.5t48 18.5t48 -18.5t21 -46.5z" />
    <glyph glyph-name="semicolon" unicode=";" horiz-adv-x="390" 
d="M267 52q0 -28 -12 -64t-31 -68.5t-39 -52.5l-18 6q17 28 31 70t13 75v4q-4 -7 -12.5 -9.5t-16.5 -2.5q-22 0 -39.5 18.5t-17.5 40.5q0 32 19 51.5t51 19.5q41 0 56.5 -25.5t15.5 -62.5zM264 433q0 -28 -20.5 -47t-48.5 -19t-48.5 19t-20.5 47t21 46.5t48 18.5t48 -18.5
t21 -46.5z" />
    <glyph glyph-name="less" unicode="&#x3c;" horiz-adv-x="780" 
d="M678 56l-590 303l590 300v-59l-507 -241l507 -243v-60z" />
    <glyph glyph-name="equal" unicode="=" horiz-adv-x="750" 
d="M673 262h-595v45h595v-45zM673 419h-595v45h595v-45z" />
    <glyph glyph-name="greater" unicode="&#x3e;" horiz-adv-x="780" 
d="M678 359l-590 -303v60l507 243l-507 241v59z" />
    <glyph glyph-name="question" unicode="?" horiz-adv-x="560" 
d="M352 63q0 -29 -22 -50t-51 -21t-51 21t-22 50q0 30 22 50t51 20t51 -20t22 -50zM496 581q0 -36 -19.5 -71t-46.5 -58q-10 -10 -22 -18l-24 -16q-46 -31 -69.5 -66t-23.5 -93v-55h-38q0 17 -0.5 34.5t-0.5 35.5q0 54 14.5 87t36 56.5t42.5 46t35.5 55t14.5 84.5
q0 56 -26.5 88.5t-85.5 32.5q-35 0 -65.5 -10.5t-49 -34t-18.5 -63.5q0 -14 5.5 -27.5t5.5 -27.5q0 -25 -16.5 -37.5t-39.5 -12.5q-25 0 -33 16.5t-8 38.5q0 17 6 35.5t14 33.5q31 57 85.5 84.5t117.5 27.5q51 0 99 -17.5t79 -54t31 -94.5z" />
    <glyph glyph-name="at" unicode="@" horiz-adv-x="900" 
d="M561 445q0 29 -16 45t-45 16q-37 0 -62.5 -21.5t-41 -55t-22.5 -69.5t-7 -66q0 -27 5.5 -52.5t22 -42.5t49.5 -17q22 0 35.5 9.5t24.5 27.5q9 14 18.5 44t18.5 66t14.5 67.5t5.5 48.5zM825 386q0 -45 -13.5 -89.5t-38.5 -82.5q-52 -83 -152 -83q-38 0 -60 22t-30 56
q-24 -37 -53 -57t-75 -20q-27 0 -49 17.5t-36 39.5q-14 24 -18.5 51.5t-4.5 54.5q0 29 9 61.5t23.5 63t32.5 52.5q25 32 57.5 49t73.5 17q28 0 51.5 -15.5t39.5 -38.5q6 11 12 23t13 23q15 -3 29.5 -5t28.5 -6q-7 -22 -20 -61.5t-26 -84.5t-22 -84t-9 -59q0 -19 12 -39
t33 -20q43 0 71.5 24.5t45.5 62t24 79t7 75.5q0 38 -8.5 78t-28.5 72q-26 43 -67.5 70.5t-90 41t-96.5 13.5q-80 0 -141 -31t-102 -85t-62 -121.5t-21 -141.5q0 -65 20.5 -124t59.5 -105.5t93.5 -73t123.5 -26.5q77 0 146.5 25t133.5 65q2 2 5.5 1t3.5 -4q0 -7 -6.5 -13.5
l-11.5 -11.5q-30 -27 -78.5 -49.5t-100.5 -36t-93 -13.5q-121 0 -215.5 55.5t-141.5 170.5q-13 31 -20.5 66t-7.5 68q0 86 32.5 161t89.5 132t132.5 89t161.5 32q158 0 246 -85t88 -245z" />
    <glyph glyph-name="A" unicode="A" horiz-adv-x="774" 
d="M480 297q-32 90 -64 180.5t-64 180.5q-31 -90 -63 -180t-63 -181h254zM762 15q0 -6 -1.5 -10.5t-7.5 -4.5q-7 0 -34.5 1t-47.5 1h-61.5t-61.5 -2q-16 -1 -32.5 -1.5t-32.5 -0.5q-5 0 -6.5 3.5t-1.5 7.5l1 8q0 3 2 6.5t6 3.5h49q9 0 20.5 4t11.5 15q0 3 -7 23.5t-17 50
t-21 59.5t-19 53.5t-11 30.5h-273q-3 -9 -12 -32.5t-19.5 -53.5t-21 -59t-17 -49.5t-6.5 -25.5q0 -14 15 -18t25 -4h18t13 1q2 0 7.5 0.5t6.5 0.5q6 0 7.5 -7t0.5 -11t-4.5 -4.5t-7.5 -0.5q-29 0 -59 1t-59 1q-22 0 -43 -1t-43 -1q-9 0 -9 10q0 14 14 14q5 0 12 -0.5
t15 -0.5q11 0 22.5 6.5t19.5 23.5q5 9 20 48t37 97.5t46.5 126t48.5 134.5t43.5 124t31.5 94.5t12 44.5q0 2 -3 5.5t-3 4.5q0 4 3 5q10 2 21 3t21 2q13 2 26 3.5t26 2.5l259 -700q4 -10 15.5 -15.5t21.5 -5.5q9 0 18.5 0.5t19.5 0.5q4 0 5 -5t1 -8z" />
    <glyph glyph-name="B" unicode="B" horiz-adv-x="694" 
d="M550 204q0 80 -32.5 124t-117.5 46q-16 0 -32 0.5t-32 0.5q-25 0 -50.5 -1t-51.5 -1v-313q0 -18 10.5 -26t25.5 -9.5t28 -1.5q17 0 34.5 0.5t34.5 1.5q83 5 133 48t50 131zM499 559q0 77 -42 110.5t-116 33.5q-27 0 -53.5 -0.5t-53.5 -2.5v-299q14 0 27 -0.5t26 -0.5
q25 0 55.5 2t59 10t47.5 26q23 23 36.5 55.5t13.5 65.5zM657 220q0 -70 -33 -121.5t-99 -77.5q-35 -14 -76.5 -18.5t-79.5 -4.5h-14.5t-14.5 1q-48 2 -95.5 3.5t-95.5 1.5q-27 0 -53.5 -3.5t-53.5 -3.5q-8 0 -9 6.5t-1 12.5q0 11 9 11q14 0 29.5 0.5t29.5 2.5
q21 3 27.5 16.5t7.5 32.5q2 20 1 39t-1 38q0 37 0.5 74.5t0.5 74.5v109q0 54 -0.5 108t-0.5 108q0 10 -0.5 19.5t-3.5 18.5q-7 20 -24.5 24.5t-35.5 4.5q-7 0 -14.5 -0.5t-15.5 -0.5q-7 0 -8.5 7t-1.5 11t1.5 8.5t6.5 4.5q23 0 45 -1.5t44 -1.5q59 0 116.5 3.5t115.5 7.5
q8 1 15 1h14q56 0 105.5 -14.5t80.5 -50.5t31 -101q0 -41 -21.5 -73.5t-55 -56t-68.5 -37.5v-5q48 -8 93 -28.5t74 -57t29 -92.5z" />
    <glyph glyph-name="C" unicode="C" horiz-adv-x="725" 
d="M704 187q0 -6 -1 -12t-4 -11q-13 -31 -40.5 -60.5t-56.5 -48.5q-45 -30 -95.5 -42t-103.5 -12q-107 0 -184.5 45.5t-118.5 126.5t-41 186q0 78 23 146t67 119.5t108 81t146 29.5q40 0 76.5 -12.5t73.5 -25.5q21 -7 43.5 -11t44.5 -6q1 -22 3 -43.5t5 -43.5
q3 -20 7.5 -40.5t4.5 -41.5q0 -16 -6.5 -26t-24.5 -10q-10 0 -15 11q-4 10 -6.5 21.5t-5.5 21.5q-8 33 -27 69.5t-46 58.5q-12 11 -35.5 22t-48 18t-41.5 7q-30 0 -61 -11t-55 -29q-45 -35 -72 -84.5t-38.5 -105.5t-11.5 -111q0 -60 14 -117.5t44 -103.5t78 -73.5t117 -27.5
q29 0 65 8.5t62 19.5q31 13 57 33.5t47 46.5q2 2 8.5 12t13.5 20t9 12q5 6 11 6q11 0 11 -12z" />
    <glyph glyph-name="D" unicode="D" horiz-adv-x="821" 
d="M664 376q0 42 -8.5 88.5t-26.5 89.5t-48 73q-28 28 -65.5 47.5t-77.5 23.5q-12 2 -24.5 2h-24.5q-39 0 -77.5 -1t-77.5 -2v-615q0 -30 20 -39t45 -9q40 0 82.5 3t83 14.5t74.5 36.5q69 51 97 128.5t28 159.5zM775 391q0 -99 -41.5 -188t-127.5 -142q-35 -21 -80.5 -34.5
t-92.5 -19.5t-88 -6q-36 0 -72.5 2t-73.5 2q-29 0 -59 -0.5t-59 -2.5q-5 -1 -10 -1h-10q-6 0 -7 5t-1 9q0 7 10.5 10t23 5t17.5 5q17 9 22.5 26.5t5.5 35.5q0 55 0.5 109.5t0.5 109.5v92v109v109q0 38 -9 54t-50 16q-7 0 -13.5 -0.5t-13.5 -0.5t-12.5 4.5t-5.5 11.5
q0 16 16 16q23 0 46 -1.5t45 -1.5q74 0 148.5 4.5t148.5 4.5q107 0 183.5 -41t117.5 -117.5t41 -183.5z" />
    <glyph glyph-name="E" unicode="E" horiz-adv-x="674" 
d="M642 171q0 -18 -3 -36.5t-5 -36.5q-3 -20 -4 -40.5t-6 -40.5q-1 -6 -5.5 -11.5t-11.5 -5.5q-107 0 -214 1.5t-214 1.5q-32 0 -64.5 -2.5t-64.5 -2.5q-5 0 -9.5 3.5t-4.5 8.5q0 6 3 11.5t10 5.5q21 0 40 2.5t31.5 14t12.5 37.5v574q0 23 -14 30.5t-34 7.5q-10 0 -19 -0.5
t-18 -0.5q-8 0 -14 4t-6 13q0 8 3 14t13 6q17 0 33.5 -1t32.5 -1q101 0 202 1.5t201 1.5q46 0 91 3q4 -29 10 -58t10 -58q2 -6 3 -11.5t1 -11.5q0 -10 -6.5 -14t-15.5 -4q-8 0 -11.5 3.5t-6.5 11.5q-19 60 -50.5 83t-95.5 23h-208v-301q39 0 78 0.5t79 2.5q41 2 76.5 7.5
t75.5 12.5h1q6 0 6 -5q0 -7 -6 -25t-9 -24q-5 -12 -16 -12q-25 0 -51.5 3.5t-52.5 3.5q-18 1 -36 0.5t-37 -0.5q-7 0 -14.5 0.5t-15.5 0.5q-15 0 -33 -2.5t-31.5 -12t-13.5 -30.5v-240q0 -34 17 -39.5t45 -5.5h80q28 0 62.5 3t67.5 13t54 29q23 21 32.5 46.5t22.5 51.5
q5 9 16 9t11 -12z" />
    <glyph glyph-name="F" unicode="F" horiz-adv-x="610" 
d="M601 590q0 -9 -6.5 -14.5t-14.5 -5.5q-10 0 -13 4.5t-6 12.5q-17 54 -52 80t-93 26h-182v-301q46 1 92 1.5t92 4.5q30 2 59 7l58 10h2q2 0 4.5 -1.5t2.5 -3.5q0 -7 -7 -24.5t-10 -24.5q-5 -12 -15 -12q-7 0 -14.5 0.5t-15.5 1.5q-35 4 -70.5 4.5t-70.5 0.5h-31t-35.5 -3
t-29 -12.5t-11.5 -28.5v-226q0 -11 5.5 -20.5t13.5 -17.5q15 -13 37.5 -15.5t41.5 -2.5q14 0 14 -15q0 -16 -18 -16q-16 0 -33 1.5t-34 1.5q-20 0 -40.5 0.5t-40.5 0.5q-34 0 -67.5 -2.5t-68.5 -2.5q-4 0 -8.5 3.5t-4.5 8.5q0 7 1.5 11.5t9.5 5.5q8 2 17 2.5t17 1.5
q37 8 46.5 29.5t9.5 55.5v535q0 23 -16 30t-37.5 7h-36.5q-19 0 -19 17q0 8 2.5 14t11.5 6q18 0 36.5 -1t36.5 -1h176q50 0 100.5 1.5t100.5 1.5q46 0 92 3q5 -30 13.5 -70t8.5 -69z" />
    <glyph glyph-name="G" unicode="G" horiz-adv-x="781" 
d="M763 308q0 -6 -3 -11t-10 -5h-62v-214q-70 -24 -139 -53q-33 -14 -69.5 -18t-71.5 -4q-30 0 -67 7t-71.5 20t-60.5 30q-76 51 -112.5 132t-36.5 172q0 77 24.5 145t70.5 120t110.5 81.5t144.5 29.5q59 0 113 -16q9 -3 29 -9t40 -11.5t27 -5.5q21 0 29 5.5t12.5 12.5
t13.5 11h8q8 0 9 -9q2 -10 1.5 -21t-0.5 -22q0 -31 1.5 -62t1.5 -63q0 -12 -0.5 -28t-18.5 -16q-6 0 -10.5 1.5t-8.5 6.5q-1 2 -5 11.5t-8 20t-6 14.5q-27 61 -79 102q-27 22 -68.5 35t-76.5 13q-67 0 -114 -32.5t-76 -84.5t-42 -112t-13 -116q0 -59 14 -116t43.5 -103
t77.5 -73.5t115 -27.5q20 0 48 4t56 14t46.5 27t18.5 43v132q0 16 -15.5 20.5t-26.5 4.5q-15 0 -30 -1.5t-30 -1.5q-8 0 -10.5 5t-2.5 12q0 6 2 11.5t10 5.5q16 0 31 -0.5t31 -0.5h71h34t34 1q17 0 33 1.5t32 1.5q6 0 9 -5.5t3 -10.5z" />
    <glyph glyph-name="H" unicode="H" horiz-adv-x="837" 
d="M817 721q0 -7 -2.5 -10.5t-10.5 -3.5q-10 0 -20 0.5t-20 0.5q-11 0 -25 -6t-14 -20v-631q0 -14 14 -20t25 -6t21.5 1t20.5 1q9 0 9 -10v-5.5v-5.5q0 -7 -7 -7q-35 0 -70.5 2t-71.5 2q-20 0 -40.5 -1t-40.5 -2q-13 -1 -25.5 -2t-25.5 -1q-6 0 -6 10q0 4 1 11.5t6 7.5
q11 0 23 -0.5t23 -0.5t26 6t15 20v317h-403v-317q0 -14 14 -20t25 -6t21.5 1t21.5 1q7 0 8 -5q1 -1 1 -5.5v-6.5q0 -3 -2 -9q-4 -2 -6 -2q-35 0 -69.5 2t-69.5 2q-21 0 -41.5 -1t-40.5 -2q-13 -1 -25 -2t-25 -1q-7 0 -5 5q-2 6 -2 7q0 4 1 10.5t7 6.5q11 0 22.5 -0.5
t22.5 -0.5q12 0 26.5 6t14.5 20q0 86 0.5 172t0.5 171q0 71 -0.5 143t-0.5 143q0 14 -14.5 20t-26.5 6q-11 0 -22.5 -0.5t-22.5 -0.5q-7 0 -8 8t-1 12q0 9 8 9q13 0 25 -1t25 -2q20 -1 40.5 -2t41.5 -1q35 0 70.5 2t70.5 2q7 0 7 -6v-11q0 -11 -10 -11q-11 0 -21.5 1
t-21.5 1t-25 -6t-14 -20v-279h403v271q0 20 -11 27t-30 7q-11 0 -23 -0.5t-23 -0.5q-6 0 -6.5 6.5t-0.5 10.5q0 12 8 12q24 0 49.5 -2t50.5 -2h30q36 0 71.5 2t70.5 2q5 0 7 -4t2 -9z" />
    <glyph glyph-name="I" unicode="I" horiz-adv-x="413" 
d="M353 18q0 -4 -1 -10.5t-7 -6.5q-12 0 -23.5 1t-23.5 1q-49 3 -100 3q-22 0 -44 -1l-44 -2q-10 -1 -20.5 -2t-21.5 -1q-8 0 -8 10q0 7 1 13t10 6q10 0 19 -0.5t19 -0.5q12 0 28.5 6t16.5 20v621q0 17 -13 22.5t-30.5 5.5t-32 -0.5t-16.5 4.5q-1 2 -1 9q0 4 1 9.5t6 5.5
q33 0 66.5 -2t66.5 -2h45h32.5t32.5 1q8 1 15.5 1.5t14.5 0.5q11 0 11 -11q0 -6 -1 -11t-9 -5q-12 0 -23.5 0.5t-23.5 0.5t-25.5 -7.5t-13.5 -21.5v-621q0 -13 12 -19t24 -6q13 0 25.5 0.5t25.5 0.5q10 0 10 -12z" />
    <glyph glyph-name="J" unicode="J" horiz-adv-x="456" 
d="M448 719q0 -7 -1.5 -11t-9.5 -4q-15 0 -29.5 0.5t-29.5 0.5q-14 0 -28.5 -7.5t-16.5 -24.5q-1 -7 -0.5 -14.5t0.5 -15.5q0 -133 -0.5 -266t-0.5 -267q0 -77 -21.5 -139.5t-71.5 -99t-136 -36.5q-18 0 -44 1t-51 7t-42 20.5t-17 40.5q0 25 19 39.5t41 14.5q8 0 21.5 -4
t24.5 -11t11 -17q-4 -5 -8 -11t-4 -14q0 -21 17 -29t34 -8q24 0 48 9.5t42.5 27t23.5 42.5q5 31 6 62t1 62v606q0 16 -13 23t-30 8.5t-28 1.5q-10 0 -19.5 -1t-18.5 -1q-14 0 -14 14q0 15 13 15q10 0 20.5 -1t20.5 -1q57 -3 115 -3q41 0 83 2.5t83 2.5q8 0 9 -4.5t1 -9.5z
" />
    <glyph glyph-name="K" unicode="K" horiz-adv-x="722" 
d="M722 16q0 -4 -2 -9t-7 -5q-31 0 -62.5 -0.5t-63.5 -0.5q-16 0 -30.5 1.5t-26.5 12.5q-4 3 -7 7l-6 8q-124 173 -260 341l-35 -29v-289q0 -17 16 -22t36 -4.5t30 0.5q13 0 13 -13t-11 -13q-34 0 -67 2t-67 2q-33 0 -66.5 -1t-66.5 -3q-8 5 -8 14q0 7 1.5 9t8.5 3
q6 1 12 0.5t12 -0.5q9 0 22.5 1t24 6.5t10.5 18.5v628q0 10 -13.5 18t-21.5 8h-22q-7 0 -13 -0.5t-13 -0.5q-10 0 -11 6t-1 13q0 8 7 8q35 0 69.5 -2t68.5 -2q32 0 63.5 2t62.5 2q12 0 12 -14q0 -4 -2.5 -8.5t-7.5 -4.5q-11 0 -22 0.5t-22 0.5t-22.5 -7t-11.5 -19v-152v-78
t-1 -78q100 94 196 193q36 38 70 75.5t65 78.5q7 10 16 10q15 0 30 -0.5t30 -0.5q13 0 25.5 0.5t25.5 0.5q5 0 6.5 -4.5t1.5 -8.5t-2.5 -8.5t-7.5 -4.5q-28 0 -53 -8t-46 -28l-248 -236q75 -96 152.5 -191.5t159.5 -186.5q15 -16 33.5 -20t32.5 -6t14 -12z" />
    <glyph glyph-name="L" unicode="L" horiz-adv-x="670" 
d="M654 226q0 -7 -1 -14.5t-3 -15.5q-7 -44 -11.5 -89.5t-12.5 -89.5q0 -5 -4 -9q-7 -6 -17 -6q-49 0 -98 1t-99 1h-121.5t-121.5 -2q-34 -1 -67 -2.5t-67 -1.5q-12 0 -12 14t14 14q10 0 19.5 -0.5t18.5 -0.5q14 0 28.5 5.5t14.5 21.5v591q0 20 -1 33.5t-9.5 20.5t-31.5 7
q-10 0 -19 -1t-19 -1q-8 0 -10 4.5t-2 11.5q0 6 1.5 10.5t8.5 4.5q33 0 65.5 -1t65.5 -1q38 0 77 1t77 1q7 0 8.5 -4.5t1.5 -9.5q0 -4 -1.5 -9.5t-8.5 -5.5q-13 0 -25.5 0.5t-25.5 0.5q-16 0 -32 -4t-16 -25q0 -35 -0.5 -70t-0.5 -70v-295q0 -44 0.5 -89t0.5 -89
q0 -17 14 -24.5t32 -8.5t30 -1q44 0 88 2t87 9q28 5 53.5 19.5t44.5 36.5q25 29 38 62.5t26 67.5q3 7 7 8t10 1q3 0 4.5 -3.5t1.5 -5.5z" />
    <glyph glyph-name="M" unicode="M" horiz-adv-x="947" 
d="M934 14q0 -13 -12 -13q-37 0 -73 2t-72 2q-17 0 -34 -0.5t-34 -1.5t-33.5 -2.5t-33.5 -1.5q-9 0 -11.5 5.5t-2.5 12.5q0 4 2 8.5t7 4.5q3 1 9 1q7 0 14.5 -0.5t14.5 -0.5q14 0 31.5 3t19.5 22q1 3 0.5 6t-0.5 6v613h-6q-38 -103 -79 -204.5t-82 -202.5q-16 -41 -33 -82
l-34 -82q-7 -18 -13.5 -37t-15.5 -36q-7 -11 -22 -11q-14 0 -21 11q-8 15 -14.5 32t-13.5 33q-15 35 -29 69l-28 68q-46 110 -91.5 219.5t-90.5 218.5q0 -155 0.5 -310.5t0.5 -310.5q0 -20 17.5 -23t32.5 -3q10 0 20 1t20 1q5 0 5 -6q0 -5 -1 -14t-8 -9q-27 0 -54.5 1.5
t-54.5 1.5q-26 0 -52.5 -1.5t-52.5 -1.5q-1 2 -1.5 3.5t-1.5 2.5v9q0 10 4 11t11 1q8 0 15 -0.5t14 -0.5q15 0 32 4t18 23q2 16 1.5 32.5t-0.5 32.5q0 32 -0.5 64.5t-0.5 64.5q0 107 1.5 213t1.5 212q0 19 -18 25t-33 6q-9 0 -18 -1t-18 -1q-6 0 -8 6t-2 10q0 14 11 14
q26 0 53 -1.5t53 -1.5q51 0 102 3l237 -570q55 143 115 283.5t111 284.5q25 -1 49.5 -1.5t49.5 -0.5q30 0 59.5 2.5t59.5 2.5q6 0 7 -6t1 -10t-1 -10t-7 -6q-13 0 -25 1t-24 1t-29.5 -5.5t-17.5 -20.5v-615q0 -23 13.5 -28.5t34.5 -5.5q12 0 24 1t25 1q8 0 9 -6t1 -11z" />
    <glyph glyph-name="N" unicode="N" horiz-adv-x="780" 
d="M765 716q0 -3 -2 -8.5t-7 -5.5q-8 0 -16 0.5t-16 0.5q-27 0 -37.5 -5.5t-12 -18.5t-1.5 -36v-631q0 -9 -7 -9l-45 -1q-4 22 -14.5 44t-24.5 40q-108 142 -216 282.5t-213 283.5v-597q0 -14 10.5 -19.5t24 -6t23.5 -0.5q8 0 15.5 0.5t15.5 0.5q9 0 9 -11q0 -8 -1.5 -14
t-12.5 -6q-9 0 -18.5 1.5t-18.5 2.5q-15 2 -31 1.5t-31 -0.5q-28 0 -54.5 -2.5t-54.5 -2.5q-7 0 -7 9q0 15 3 18t17 3q8 0 15.5 -0.5t14.5 -0.5q16 0 28.5 4t13.5 23q2 48 1 97t-1 97q0 105 1.5 210t1.5 211q0 18 -9.5 25.5t-23.5 8.5t-28 1q-5 0 -11 -0.5t-11 -0.5
q-13 0 -13 10q0 7 1.5 12.5t10.5 5.5q26 0 52 -1.5t52 -1.5q18 0 36.5 0.5t36.5 0.5q37 -50 76 -98l78 -96q68 -83 136 -165.5t136 -165.5v472q0 14 -15 20t-26 6q-13 0 -25 -1t-25 -1q-7 0 -7 10v6.5t1 5.5q0 9 11 9q14 0 29 -1.5t29 -1.5q38 0 75 1t74 4q6 -4 7 -7.5
t1 -10.5z" />
    <glyph glyph-name="O" unicode="O" horiz-adv-x="820" 
d="M655 368q0 58 -12.5 118t-40.5 111t-75 82.5t-116 31.5q-67 0 -114 -33t-76 -85.5t-42.5 -113t-13.5 -116.5q0 -59 12 -118.5t40 -109t75.5 -79.5t118.5 -30t118 31t74.5 81.5t39.5 110.5t12 119zM764 371q0 -111 -40.5 -195.5t-119 -131.5t-193.5 -47
q-112 0 -191.5 45.5t-121.5 128t-42 192.5q0 77 25 145t72 120t112.5 81.5t145.5 29.5q112 0 190.5 -46.5t120.5 -129t42 -192.5z" />
    <glyph glyph-name="P" unicode="P" horiz-adv-x="624" 
d="M506 552q0 80 -49.5 116.5t-123.5 36.5q-20 0 -41 -0.5t-42 -0.5q-10 0 -20 -6t-10 -17v-284q22 -16 54 -19t57 -3q86 0 130.5 46t44.5 131zM616 555q0 -65 -24.5 -106t-65.5 -64t-92.5 -31.5t-105.5 -8.5q-27 0 -54 3t-53 7v-299q0 -15 13 -20t29 -5h26q6 0 12.5 0.5
t12.5 0.5q9 0 9 -8q0 -13 -2 -17.5t-16 -4.5q-34 0 -67 2t-66 2q-34 0 -68.5 -2.5t-68.5 -2.5q-10 0 -10 13q0 6 2 11t10 5q12 0 24 -0.5t24 -0.5t21.5 6t10.5 19q2 18 1.5 36.5t-0.5 36.5v72.5v72.5v175q0 59 -0.5 117.5t-0.5 116.5q0 18 -17.5 21.5t-30.5 3.5
q-9 0 -18 -0.5t-17 -0.5q-7 0 -7.5 6.5t-0.5 10.5t2 7.5t6 3.5q33 0 66 -2t67 -2q52 0 104 2t104 2q42 0 84.5 -9t78 -30t57 -55t21.5 -84z" />
    <glyph glyph-name="Q" unicode="Q" horiz-adv-x="820" 
d="M451 28q-6 12 -18.5 34.5t-28 48t-29 46t-22.5 26.5q-11 8 -20.5 10t-22.5 2q-17 0 -34.5 -12.5t-29.5 -30.5t-15 -35q15 -23 48.5 -44t71 -33.5t64.5 -12.5q9 0 18 0.5t18 0.5zM648 361q0 57 -13 118.5t-42 114t-76.5 85.5t-116.5 33q-52 0 -92 -22.5t-68 -60
t-45.5 -83.5t-25.5 -94t-8 -91q0 -54 9.5 -109t37.5 -102q20 33 52 60.5t73 27.5q38 0 63.5 -16.5t47.5 -45.5q23 -28 42 -58.5t38 -61.5q13 11 26 21t24 23q47 53 60.5 123t13.5 138zM803 -49q0 -3 -4.5 -9t-6.5 -8q-22 -27 -52.5 -43t-65.5 -16q-51 0 -87 16t-64 45
t-57 68q-15 -1 -29.5 -2.5t-29.5 -1.5q-77 0 -142 28t-112.5 78t-73.5 116t-26 142q0 78 25 146.5t72 120.5t112.5 81.5t146.5 29.5q115 0 193 -50t118.5 -136t40.5 -195q0 -70 -26 -136t-74 -118.5t-113 -80.5q35 -43 73 -71.5t96 -28.5q6 0 20.5 3t28 8.5t16.5 10.5l5 5
l4 4t3 2q9 0 9 -8z" />
    <glyph glyph-name="R" unicode="R" horiz-adv-x="707" 
d="M491 555q0 88 -45.5 120.5t-127.5 32.5h-33q-10 0 -24.5 -1.5t-26 -7t-11.5 -19.5v-278q11 -4 25 -5t26 -1q40 0 78.5 7t70 24t50 48t18.5 80zM710 16q0 -7 -14 -11t-33 -5.5t-35.5 -1.5h-22.5q-40 0 -64 8.5t-47 44.5q-49 79 -94.5 160t-90.5 163l-86 -3v-317
q0 -15 12 -20t24 -5q14 0 27 1t26 1q7 0 8.5 -6t1.5 -11q0 -8 -4.5 -10.5t-11.5 -2.5q-44 0 -89 1.5t-89 1.5q-24 0 -47.5 -1.5t-47.5 -1.5q-6 0 -7.5 5.5t-1.5 9.5q0 13 11 13q9 0 17.5 -0.5t16.5 -0.5q15 0 32.5 3.5t19.5 22.5q2 25 1.5 58.5t-0.5 58.5v66.5v66.5
q0 69 0.5 138t0.5 138v50.5t-2 49.5q-2 20 -20.5 22.5t-33.5 2.5q-6 0 -12 -0.5t-12 -0.5q-15 0 -15 17q0 11 10 11q34 0 67.5 -2t67.5 -2q47 0 93 4t92 4q38 0 80.5 -8t79.5 -26t60.5 -49.5t23.5 -79.5q0 -60 -33.5 -103.5t-86.5 -67.5q-19 -9 -39 -13.5t-40 -8.5
q46 -78 96.5 -154t102.5 -150q15 -21 31.5 -33.5t41.5 -17.5q6 -1 20.5 -1t14.5 -8z" />
    <glyph glyph-name="S" unicode="S" horiz-adv-x="594" 
d="M556 188q0 -57 -26 -95t-68.5 -60.5t-92 -32t-96.5 -9.5q-61 0 -115 19q-22 8 -43 17.5t-44 15.5q-4 32 -13.5 70t-9.5 69q0 14 4.5 21.5t20.5 7.5q14 0 18 -6.5t6 -17.5q4 -14 7 -27.5t7 -27.5q20 -60 59.5 -84t101.5 -24q51 0 91.5 14.5t64 47.5t23.5 88q0 43 -29 77.5
t-64 54.5q-8 5 -17 9l-18 8q-31 16 -62.5 32t-63.5 31q-31 16 -63.5 40.5t-55 56.5t-22.5 70q0 64 34 106t87 63t110 21q41 0 73.5 -10t64.5 -20.5t70 -14.5l6 -60t9 -60q1 -4 1.5 -8t0.5 -8q0 -16 -10.5 -20.5t-23.5 -4.5t-14 5l-3 15q-13 80 -55 120.5t-126 40.5
q-62 0 -96.5 -33t-34.5 -96q0 -42 22 -71t58.5 -50.5t80 -40.5t86.5 -39t79.5 -46.5t58.5 -63.5t22 -90z" />
    <glyph glyph-name="T" unicode="T" horiz-adv-x="690" 
d="M682 545q0 -14 -12 -14q-4 0 -7 0.5t-5 4.5q-1 2 -2.5 9.5t-1.5 10.5q-5 30 -14.5 66.5t-29.5 59.5q-10 12 -34 16t-49 4h-39h-36.5t-38 -8t-16.5 -32q0 -151 1.5 -302.5t1.5 -303.5q0 -13 11 -19.5t25 -8.5t23 -2q8 0 14.5 0.5t13.5 0.5q10 0 10 -9v-11.5t-7 -7.5
q-36 0 -71.5 1.5t-71.5 1.5q-48 0 -98 -3q-11 0 -23 -1t-23 -1q-9 0 -9 11q0 12 3 15t14 3q2 0 4.5 -0.5t3.5 -0.5q11 0 28 2t30.5 8.5t13.5 20.5q1 77 1.5 154t0.5 154q0 76 -1 151.5t-1 151.5q0 12 -9.5 22t-20.5 11q-9 2 -18.5 2h-19.5h-89q-36 0 -53.5 -17.5t-24.5 -45
t-13 -56.5q0 -2 -2.5 -13.5t-5 -22t-3.5 -11.5q-4 -5 -12 -5q-11 0 -11 11q0 4 0.5 10.5t1.5 15.5q2 23 3.5 55.5t2.5 60.5q1 10 1 20t1 18q0 14 17 12q73 -7 147.5 -6.5t147.5 0.5h85q41 0 82.5 0.5t83.5 1.5q18 1 37.5 1.5t38.5 0.5q13 0 15 -10q1 -3 2 -21.5t2 -42
t1.5 -44t0.5 -28.5l2 -20t1 -21z" />
    <glyph glyph-name="U" unicode="U" horiz-adv-x="756" 
d="M743 717q0 -10 -5 -12t-13 -2q-7 0 -14 0.5t-14 0.5q-14 0 -27.5 -4.5t-15.5 -21.5q-1 -17 -1 -35v-36q0 -82 1.5 -164.5t1.5 -165.5q0 -85 -25 -148.5t-80.5 -98.5t-147.5 -35q-133 0 -209.5 64.5t-76.5 202.5v398q0 5 0.5 10.5t-0.5 9.5q-1 19 -19.5 23t-33.5 4
q-7 0 -14.5 -0.5t-15.5 -0.5q-3 0 -7 4q-1 4 -1 11q0 11 13 11q11 0 21 -0.5t20 -1.5q23 -1 45 -1.5t44 -0.5q35 0 69.5 2t69.5 2q13 0 13 -12q0 -4 -2 -9.5t-8 -5.5q-13 0 -25 0.5t-25 0.5q-11 0 -25 -6t-16 -19q-3 -16 -2 -34.5t1 -35.5q0 -91 -1 -182t-1 -182
q0 -72 15 -120t56 -72.5t120 -24.5q77 0 122.5 32t65.5 87t20 125q0 101 -0.5 202t-0.5 202q0 14 -15 20t-27 6t-24 -1t-25 -1q-6 0 -6 9q0 8 0.5 14t10.5 6q14 0 29 -1.5t29 -1.5q50 0 99 3q13 0 25.5 1t24.5 1q6 0 6.5 -6t0.5 -10z" />
    <glyph glyph-name="V" unicode="V" horiz-adv-x="754" 
d="M749 726q0 -15 -4.5 -16t-17.5 -1q-4 0 -7.5 0.5t-7.5 0.5q-16 0 -29 -6t-19 -21q-7 -18 -13 -36.5t-12 -37.5q-13 -38 -26.5 -77t-27.5 -77q-40 -115 -82.5 -229.5t-83.5 -229.5h-40q-21 0 -29 19q-6 14 -11.5 29t-10.5 30q-11 31 -22.5 61.5t-23.5 61.5
q-40 106 -80 211t-78 211q-6 16 -13 32.5t-17 29.5q-12 17 -26.5 21t-27 3.5t-20.5 1t-8 11.5q0 7 2 10.5t9 3.5q21 0 42.5 -1t43.5 -1q46 0 91.5 1.5t90.5 1.5q12 0 12 -12q0 -14 -12 -14t-23.5 1.5t-24.5 1.5q-11 0 -24.5 -3t-13.5 -18l3 -8.5t6 -17.5t3 -11
q47 -141 98.5 -281t102.5 -280q47 139 96 277.5t94 277.5l12 37q0 24 -17.5 26.5t-34.5 2.5q-8 0 -16.5 -1.5t-17.5 -1.5q-4 0 -6 3.5t-2 7.5q0 9 5 11q2 0 3 0.5t2 0.5q2 0 4 -0.5t4 -0.5q23 -1 47 -1h47q26 0 51.5 2t50.5 2q9 0 9 -8z" />
    <glyph glyph-name="W" unicode="W" 
d="M980 717q0 -4 -2.5 -10t-7.5 -6q-9 0 -17.5 1t-17.5 1q-15 0 -24 -12t-13.5 -28.5t-7.5 -28.5q-36 -158 -68 -318t-69 -318h-87q-38 137 -82 271t-85 270q-45 -136 -90.5 -271.5t-93.5 -269.5h-78q-11 44 -19.5 88t-18.5 87l-70 333q-8 39 -15.5 79.5t-18.5 78.5
q-8 30 -26.5 34t-44.5 4q-9 0 -10.5 6t-1.5 13q0 12 10 12q11 0 22.5 -1t22.5 -2q38 -1 76 -1h76q17 0 34 1.5t33 1.5q6 0 9 -5t3 -10q0 -13 -12 -13t-24.5 1t-24.5 1q-13 0 -22.5 -5.5t-9.5 -20.5q0 -5 0.5 -10t1.5 -10q9 -47 17 -95.5t17 -95.5q17 -91 34.5 -182
t34.5 -182q37 107 72.5 214t70.5 214q14 43 26 86.5t27 85.5q4 10 8 14.5t15 4.5q18 0 25 -15t11 -33t8 -34q10 -34 19 -67t19 -67q30 -103 63 -205.5t62 -206.5q19 81 35.5 162.5t32.5 163.5q11 52 19.5 104.5t16.5 104.5q2 14 3.5 28t1.5 28t-12.5 17.5t-23.5 3.5
q-13 0 -26 -1t-26 -1q-7 0 -8.5 3.5t-1.5 7.5q0 14 11 14q32 0 64 -1.5t64 -1.5q22 0 43 1.5t43 1.5q5 0 6.5 -5t1.5 -9z" />
    <glyph glyph-name="X" unicode="X" horiz-adv-x="765" 
d="M768 14q0 -8 -5.5 -12t-13.5 -4q-15 0 -30.5 0.5t-30.5 1.5q-28 1 -56.5 0.5t-57.5 -0.5q-16 0 -24 16q-40 81 -85.5 151t-93.5 146q-6 -10 -24.5 -38t-42.5 -64t-46.5 -71t-37 -59.5t-14.5 -28.5q0 -15 13.5 -20t31 -5.5t31 -1t13.5 -8.5q0 -16 -15 -16q-8 0 -16 -0.5
t-16 -0.5q-20 0 -39.5 1.5t-39.5 1.5q-35 0 -70.5 -2t-70.5 -2q-13 0 -13 14q0 13 10 14q5 1 10.5 0.5t10.5 -0.5q25 0 44 4t38 20q17 15 33.5 32t29.5 35q42 53 83.5 107.5t78.5 110.5q-55 83 -107.5 166t-108.5 164q-10 14 -18.5 18.5t-25.5 4.5q-10 0 -21.5 -1t-22.5 -1
q-5 0 -11 2.5t-6 9.5t1 12.5t8 7.5q21 5 54.5 6t56.5 2q14 1 27.5 2t26.5 1q12 0 20 -11q5 -4 7.5 -9t6.5 -10q43 -71 86 -142.5t84 -144.5q9 14 28 42.5t41.5 64t44 70.5t35 62.5t13.5 38.5q0 10 -10.5 11.5t-17.5 1.5q-11 0 -22.5 -1t-23.5 -1q-8 0 -10 3.5t-2 10.5
q0 12 13 12t26 -1t26 -1q28 0 56.5 0.5t56.5 1.5q14 1 27.5 2t27.5 1t14 -14t-15.5 -16t-36 -2.5t-34.5 -9.5q-8 -5 -17.5 -15t-15.5 -18q-45 -67 -92 -132.5t-96 -130.5q35 -52 70.5 -103.5t70.5 -102.5q24 -35 49 -70t52 -68q11 -13 27.5 -16.5t32.5 -3.5q7 0 13.5 1
t13.5 1q8 0 10.5 -5.5t2.5 -11.5z" />
    <glyph glyph-name="Y" unicode="Y" horiz-adv-x="693" 
d="M700 719q0 -9 -5 -11.5t-13 -2.5q-4 0 -8 0.5t-8 0.5q-7 0 -18 -1t-17 -4q-7 -3 -14 -11.5t-12 -16.5q-51 -87 -101 -174.5t-101 -174.5q0 -16 -0.5 -32t-0.5 -32v-178q0 -21 5 -40t32 -19q15 0 29.5 1.5t28.5 1.5q8 0 8 -11q0 -7 -2 -11.5t-11 -4.5q-26 0 -52 1t-52 1
q-45 0 -90 -1.5t-89 -1.5q-14 0 -14 15q0 5 5.5 8t9.5 3q11 0 22 -0.5t22 -0.5q14 0 29 4.5t15 21.5v176q0 44 -8 79t-28 74q-16 34 -36 72.5t-40 75.5t-37.5 67.5t-28.5 48.5q-5 10 -11.5 19t-13.5 18q-16 18 -42 18q-9 0 -18.5 -1t-19.5 -1q-12 0 -12 12q0 8 2.5 11
t11.5 4q10 1 21 2t21 2q17 2 37 4.5t33 3.5q9 2 19.5 3t18.5 1q10 0 15 -4t9 -13q6 -10 11 -19t10 -19q44 -82 85 -166.5t80 -169.5q7 11 22.5 38t36.5 64t43 76.5t41 75.5t30.5 61t11.5 33q0 9 -6 11.5t-14 2.5q-13 0 -25.5 -1t-25.5 -1q-6 0 -8 4.5t-2 9.5q0 9 5 10.5
t12 1.5q26 0 53 -1t53 -1q21 0 42 1t43 1q5 0 8 -4.5t3 -9.5z" />
    <glyph glyph-name="Z" unicode="Z" horiz-adv-x="645" 
d="M616 230q0 -11 -2.5 -22.5t-4.5 -22.5q-3 -23 -5.5 -47t-5.5 -47q-2 -19 -1.5 -39.5t-3.5 -38.5q-2 -10 -7.5 -10.5t-13.5 -0.5q-7 0 -14.5 2t-15.5 2q-7 1 -14 0.5t-14 -0.5q-55 0 -109 0.5t-109 0.5q-61 0 -122.5 -2.5t-123.5 -2.5q-30 0 -30 27q0 11 6 18
q8 14 17.5 27t19.5 26l89 126l140 196t134 200q8 12 17 29t9 32q0 9 -11.5 13t-25 5t-20.5 1h-45.5t-59.5 -1t-58 -3.5t-41 -6.5q-34 -10 -60.5 -41t-39.5 -63q-8 -22 -12 -43q-1 -7 -5 -13t-13 -6q-11 0 -11 10q0 40 3 79.5t3 79.5q0 17 7 25t25 8q13 0 25 -0.5t25 -0.5
h26.5t26.5 1q97 3 193.5 3.5t193.5 0.5q10 0 16 -3.5t6 -14.5q0 -8 -4 -15t-9 -13l-404 -567q-7 -10 -19 -27.5t-12 -29.5t13.5 -17t30 -6t24.5 -1t16.5 0.5t15.5 0.5q43 0 86 1.5t86 5.5q48 6 80 34t52.5 67.5t33.5 79.5q2 6 2 7l4.5 6t7.5 2q12 0 12 -11z" />
    <glyph glyph-name="bracketleft" unicode="[" horiz-adv-x="450" 
d="M426 -102h-248v956h248v-32h-179v-893h179v-31z" />
    <glyph glyph-name="backslash" unicode="\" horiz-adv-x="500" 
d="M460 -68l-49 -28l-371 829l51 28z" />
    <glyph glyph-name="bracketright" unicode="]" horiz-adv-x="450" 
d="M426 -102h-248v31h179v893h-179v32h248v-956z" />
    <glyph glyph-name="asciicircum" unicode="^" horiz-adv-x="560" 
d="M510 474h-72l-159 244l-161 -244h-68l192 275h76z" />
    <glyph glyph-name="underscore" unicode="_" horiz-adv-x="500" 
d="M500 -118h-499v32h499v-32z" />
    <glyph glyph-name="grave" unicode="`" horiz-adv-x="390" 
d="M328 799l-13 -45l-254 50l16 67z" />
    <glyph glyph-name="a" unicode="a" horiz-adv-x="544" 
d="M362 117q-4 45 -4.5 90.5t-1.5 91.5h-14q-31 0 -68.5 -9.5t-71.5 -28.5t-55.5 -47.5t-21.5 -65.5q0 -48 27 -72.5t73 -24.5q22 0 48 10.5t50 25.5t39 30zM537 53q0 -4 -1 -6q-10 -22 -33.5 -33.5t-46.5 -11.5q-42 0 -60.5 24.5t-29.5 60.5q-38 -35 -84 -58.5t-99 -23.5
q-37 0 -69.5 14.5t-52.5 42.5t-20 68q0 42 21.5 72.5t55 52t72 35t72.5 20.5q23 5 47 9t47 8q0 28 -2.5 65t-15.5 61q-13 23 -35 41t-49 18q-46 0 -72 -24t-37 -68q-1 -5 -1.5 -10.5t-1.5 -10.5q-1 -6 -7.5 -10.5t-13.5 -4.5q-19 0 -34.5 9t-15.5 30q0 12 4 21
q13 31 42 51.5t64.5 31.5t66.5 11q54 0 98 -20t70.5 -58.5t26.5 -96.5q0 -65 -0.5 -131t3.5 -132q1 -22 9 -38.5t33 -16.5q13 0 27.5 6.5t18.5 6.5q3 0 3 -5z" />
    <glyph glyph-name="b" unicode="b" horiz-adv-x="610" 
d="M479 282q0 36 -7 73t-23 67.5t-44.5 49.5t-72.5 19q-19 0 -45.5 -10.5t-40.5 -24.5q-19 -18 -29 -39t-11 -48l-1 -168v-56.5v-57.5q0 -7 1.5 -18.5t3.5 -16.5q8 -16 31.5 -20.5t38.5 -4.5q54 0 92 22t61.5 59t34.5 82.5t11 91.5zM579 281q0 -80 -35.5 -144t-98 -100.5
t-144.5 -36.5q-36 0 -72 10t-68 10q-7 0 -15 -1t-16 -1q-17 0 -17 18q0 6 2 14q2 19 2 38t1 38q0 22 0.5 43.5t0.5 43.5q0 120 -1.5 240t-1.5 240q0 14 -9 18t-21 4q-13 0 -27 -1.5t-28 -1.5q-4 0 -8.5 3.5t-4.5 8.5q0 6 6 8.5t10 3.5q35 7 70.5 12t69.5 14q6 2 12.5 4.5
t12.5 2.5q7 0 6.5 -9t-0.5 -14v-279q32 27 74.5 45t84.5 18q71 0 119 -35t72 -91.5t24 -122.5z" />
    <glyph glyph-name="c" unicode="c" horiz-adv-x="540" 
d="M525 124q0 -7 -11 -19.5t-16 -17.5l-18 -18t-20 -17q-31 -22 -74 -37.5t-81 -15.5q-76 0 -133.5 33.5t-90 92t-32.5 133.5q0 74 30 139t95 105q28 17 62.5 27t66.5 10q25 0 48.5 -6t45.5 -16q13 -6 25 -12t26 -6q12 0 19.5 7.5t11.5 7.5q3 0 3 -4q2 -12 1.5 -24t0.5 -23
l2 -44l2 -44v-3q1 -11 -2 -17t-16 -6q-7 0 -9.5 8t-4.5 14q-7 29 -21 62t-38 53q-15 14 -37.5 23t-42.5 9q-48 0 -81.5 -24.5t-53.5 -63t-29.5 -82.5t-9.5 -83t9 -79.5t28.5 -75.5t52 -56t78.5 -21q64 0 107 23.5t83 72.5q4 7 11 7q13 0 13 -12z" />
    <glyph glyph-name="d" unicode="d" horiz-adv-x="606" 
d="M414 367q0 34 -14 64t-40 49t-63 19q-48 0 -78.5 -23t-48 -59.5t-24 -78.5t-6.5 -80q0 -34 6 -73t21.5 -73t43.5 -55.5t71 -21.5q36 0 66 22.5t48 56.5t18 67v186zM600 40q0 -5 -5 -10t-9 -8q-13 -10 -37.5 -17t-41.5 -7q-26 0 -43 15t-27.5 37t-18.5 43
q-22 -35 -60 -62.5t-81 -27.5q-29 0 -59.5 4.5t-56.5 20.5q-57 36 -86.5 97.5t-29.5 126.5q0 78 28 140.5t83.5 99t137.5 36.5q18 0 40 -7t43.5 -17.5t34.5 -21.5v194q0 32 -16.5 36.5t-43.5 4.5q-9 0 -18 -0.5t-18 -0.5q-4 0 -7.5 3t-3.5 7q0 7 5 9q2 2 4.5 2t5.5 1
q21 4 42.5 6.5t43.5 6.5t43 8.5t42 10.5q1 0 3.5 1t3.5 1q5 0 6 -4t1 -8q0 -124 -1 -247t-1 -247v-149q0 -17 4 -35t15.5 -30t32.5 -12q10 0 19 4t19 4q7 0 7 -8z" />
    <glyph glyph-name="e" unicode="e" horiz-adv-x="545" 
d="M408 351q-1 41 -7 78.5t-29 62t-75 24.5q-47 0 -76.5 -25.5t-45.5 -64t-24 -78.5q25 -1 49 -1.5t48 -0.5q40 0 80 1.5t80 3.5zM523 122q0 -5 -2 -6q-3 -10 -14.5 -24t-25.5 -26.5t-23 -18.5q-33 -23 -74.5 -37t-82.5 -14q-34 0 -75.5 11t-70.5 30q-56 37 -82 97t-26 125
q0 74 29 137t93 102q29 17 65 28.5t69 11.5q59 0 104 -24t70.5 -67.5t25.5 -103.5q0 -17 -7.5 -22t-22.5 -5q-20 0 -40 1l-40 2q-28 2 -55.5 2h-55.5h-68t-68 -2q-1 -16 -2 -31t-1 -31q0 -37 9 -76.5t29 -73t51 -54t75 -20.5q45 0 86 14t75 45q9 9 16.5 19.5t16.5 18.5
q5 5 11 5q5 0 8 -4t3 -9z" />
    <glyph glyph-name="f" unicode="f" horiz-adv-x="390" 
d="M409 633q0 -8 -7 -15t-15 -7q-14 0 -19 12q-5 14 -10.5 28t-10.5 28q-8 20 -22.5 32.5t-37.5 12.5q-38 0 -56.5 -26.5t-18.5 -61.5v-68t1 -69q32 0 64 0.5t64 0.5q7 0 10.5 -5.5t3.5 -11.5q0 -7 -3 -12t-11 -5q-20 0 -40 0.5t-40 0.5h-45v-387q0 -22 10 -39.5t35 -17.5
q11 0 21.5 1.5t20.5 1.5q6 0 8.5 -5.5t2.5 -10.5q0 -11 -11 -11q-34 0 -68.5 1.5t-68.5 1.5h-37t-36 -1q-13 -1 -25 -2t-25 -1q-15 0 -15 12q0 11 7 12.5t14 1.5t13.5 -0.5t13.5 -0.5q29 0 37.5 16t8.5 41v388h-57q-7 0 -15.5 -1.5t-14.5 -5.5q-1 -1 -2.5 -3t-3.5 -2
q-8 0 -8 6q0 2 2.5 15.5t3.5 14.5q2 5 5 5.5t7 0.5q7 0 13 -0.5t13 -0.5h55v42v42q0 92 48.5 128.5t134.5 36.5q26 0 50 -10.5t50 -10.5q1 -23 3.5 -46t2.5 -46z" />
    <glyph glyph-name="g" unicode="g" horiz-adv-x="552" 
d="M413 -32q0 40 -22.5 57.5t-54.5 23t-62 8.5l-112 11q-22 -24 -32.5 -47.5t-10.5 -56.5q0 -48 23.5 -69.5t59.5 -27.5t73 -6q36 0 67.5 10t51 33.5t19.5 63.5zM364 368q0 31 -7 66t-27.5 60t-59.5 25q-44 0 -68 -22.5t-32.5 -57t-8.5 -71.5q0 -39 7.5 -73.5t31 -56.5
t70.5 -22q29 0 47.5 15t28.5 38.5t14 49.5t4 49zM542 532q0 -21 -8.5 -28.5t-22 -8t-28.5 -0.5q-22 0 -44.5 0.5t-45.5 1.5q32 -25 47.5 -60t15.5 -75q0 -49 -27.5 -86.5t-70.5 -58.5t-89 -21q-16 0 -31 1.5t-31 2.5q-13 -12 -29.5 -26t-16.5 -34q0 -16 15.5 -23.5
t34.5 -10.5t30 -4l127 -9q34 -3 66.5 -14.5t54.5 -35t22 -63.5q0 -42 -24.5 -70t-63 -45t-79.5 -24t-74 -7q-26 0 -65 2.5t-77 12.5t-63.5 31.5t-25.5 58.5q0 27 13 50.5t32.5 43.5t38.5 35q-11 5 -29.5 15.5t-18.5 24.5q0 17 18.5 38t40.5 40.5t34 30.5q-51 24 -75.5 61.5
t-24.5 93.5q0 52 29.5 89.5t75 58t92.5 20.5q17 0 34 -2.5t33 -7.5q8 -2 17.5 -5.5t17.5 -4.5q7 -1 13.5 -1h13.5q36 0 69 5.5t59 33.5q6 6 10 6q8 0 9 -13.5t1 -18.5z" />
    <glyph glyph-name="h" unicode="h" horiz-adv-x="636" 
d="M626 11q0 -5 -5 -7.5t-10 -2.5q-25 0 -50.5 1.5t-51.5 1.5q-29 0 -58.5 -2t-58.5 -2q-5 0 -6.5 6.5t-1.5 10.5q0 7 7 7q11 0 21.5 -0.5t20.5 -0.5q13 0 20.5 8.5t8.5 20.5q2 25 1.5 50t-0.5 49v59.5v59.5v60t-2 60q-1 13 -2.5 25.5t-5.5 24.5q-10 27 -32.5 41.5
t-51.5 14.5q-34 0 -67 -17.5t-55 -43.5q-24 -28 -35 -49t-13.5 -44t-2.5 -60v-176q0 -11 -0.5 -31t5 -36t22.5 -16q10 0 19 1t19 1q9 0 9 -10q0 -5 -1.5 -9.5t-7.5 -4.5q-34 0 -69.5 1.5t-70.5 1.5q-32 0 -65 -3q-4 0 -7 -0.5t-7 -0.5q-5 0 -7.5 5.5t-2.5 9.5q0 11 11 11
q6 0 12 -0.5t13 -0.5q14 0 29.5 4.5t16.5 22.5q2 33 1.5 66t-0.5 65q0 62 0.5 123t0.5 122q0 64 -1 127.5t-2 127.5q0 11 -4 24.5t-18 13.5t-29 -2t-30 -2q-9 0 -9 8q0 9 9 12q20 5 39.5 8t38.5 7q17 4 40.5 11.5t39.5 7.5q6 0 7 -3.5t1 -8.5v-164t-2 -164q22 23 53.5 46
t67.5 38.5t68 15.5q65 0 102 -19t52 -58.5t15 -102.5q0 -75 -0.5 -149.5t-0.5 -149.5q0 -16 8.5 -22.5t24.5 -6.5q7 0 13.5 1t13.5 1q5 0 9 -4.5t4 -9.5z" />
    <glyph glyph-name="i" unicode="i" horiz-adv-x="344" 
d="M317 15q0 -5 -3 -9.5t-8 -4.5q-28 0 -55.5 1.5t-56.5 1.5h-27q-30 0 -59.5 -1.5t-58.5 -1.5q-4 0 -5.5 5t-1.5 8q0 5 1 7.5t6 3.5q5 2 11.5 1.5t12.5 -0.5q7 0 13 -0.5t13 -0.5q14 0 25.5 6.5t11.5 22.5v400q0 17 -6 26.5t-25 9.5q-14 0 -28.5 -1.5t-28.5 -3.5q-8 0 -8 9
q0 10 8 13q12 4 25.5 5.5t25.5 3.5q28 5 56 11t55 13q3 1 8 1q11 0 11 -12q0 -118 -0.5 -237t-0.5 -238q0 -16 14.5 -22.5t27.5 -6.5q10 0 20.5 1t20.5 1q4 0 5 -5t1 -7zM236 707q0 -25 -18 -42.5t-43 -17.5t-43 17.5t-18 42.5t18 42.5t43 17.5t43 -17.5t18 -42.5z" />
    <glyph glyph-name="j" unicode="j" horiz-adv-x="380" 
d="M271 72q0 -36 -3.5 -82t-21.5 -78q-28 -49 -73.5 -73t-101.5 -24q-24 0 -51 5.5t-46 21.5q-7 7 -14.5 18t-7.5 21q0 23 12.5 34.5t34.5 11.5q11 0 11 -11q0 -24 17 -48t43 -24q44 0 75 25.5t31 71.5v518q0 19 -7 27t-27 8q-13 0 -26.5 -2t-27.5 -2q-2 0 -5 3.5t-3 5.5
q0 5 1.5 9t6.5 5q8 3 27.5 5t29.5 3q29 5 57 11t56 11q2 0 4 0.5t3 0.5q7 0 7 -10zM266 707q0 -25 -17.5 -42.5t-43.5 -17.5q-25 0 -43 17.5t-18 42.5t18 42.5t43 17.5t43 -17.5t18 -42.5z" />
    <glyph glyph-name="k" unicode="k" horiz-adv-x="592" 
d="M591 15q0 -7 -14 -10t-29.5 -4t-21.5 -1q-14 0 -31 0.5t-31 4.5q-13 4 -21.5 14t-14.5 20q-45 69 -89 138t-87 139l-58 -43v-224q0 -24 24 -24q9 0 18 0.5t17 0.5q5 0 10.5 -3t5.5 -9q0 -12 -11 -12q-28 0 -55 0.5t-55 0.5q-19 0 -39.5 -0.5t-40.5 -1.5q-6 0 -12.5 -1
t-13.5 -1q-4 0 -6.5 4.5t-2.5 8.5q0 7 6 9t11 2t11 -0.5t11 -0.5q16 0 25 3.5t9 21.5v644q0 23 -8 31t-32 8q-8 0 -16 -1.5t-16 -1.5q-10 0 -10 10q0 7 8 9q19 5 39.5 7.5t39.5 5.5q9 2 25 5.5t31.5 6.5t21.5 3q5 0 5 -6l-1 -465q51 38 98 80t93 85q17 15 32 30.5t28 32.5
q6 7 17 7q10 0 19.5 -1t19.5 -1q12 0 24.5 1t24.5 1q15 0 15 -16q0 -8 -12 -8q-16 -1 -31 -3t-29 -13q-45 -32 -88 -68t-87 -71q18 -31 38 -60.5t39 -58.5q27 -40 54.5 -79.5t55.5 -78.5q14 -19 35.5 -37.5t45.5 -20.5q6 -1 6 -9z" />
    <glyph glyph-name="l" unicode="l" horiz-adv-x="346" 
d="M315 13q0 -5 -2.5 -9.5t-8.5 -4.5q-31 0 -63 1.5t-64 1.5h-35q-21 0 -42 -1.5t-42 -1.5q-4 0 -5.5 3.5t-1.5 6.5v6t1 6q2 4 11.5 4.5t20 0t13.5 -0.5q14 0 25 6.5t11 22.5q0 77 1 153.5t1 152.5q0 78 -0.5 156.5t-0.5 156.5q0 7 -1 15.5t-6 13.5q-4 5 -8 5.5t-10 0.5
q-18 0 -35.5 -6t-34.5 -6q-11 0 -11 13q0 8 12.5 11t19.5 4q35 8 76 18t74 23q2 0 4 1t3 1q6 0 7.5 -4t1.5 -9q0 -28 -0.5 -55.5t-0.5 -55.5v-280q0 -77 1 -154.5t1 -154.5q0 -16 13.5 -22.5t26.5 -6.5q11 0 21 1t20 1q5 0 6 -5.5t1 -8.5z" />
    <glyph glyph-name="m" unicode="m" horiz-adv-x="920" 
d="M911 13q0 -14 -11 -14q-28 0 -57 2t-58 2t-58.5 -2t-58.5 -2q-4 0 -5.5 5t-1.5 8q0 9 9.5 11t21 1t17.5 -1q14 0 23 7t9 21q0 67 1.5 133t1.5 132v22t-1 22q-1 24 -2.5 49.5t-8.5 48t-24 36.5t-49 14q-23 0 -50.5 -13.5t-52.5 -31.5t-42 -34q2 -14 2 -28.5v-28.5
q0 -29 0.5 -58.5t0.5 -58.5q0 -51 -0.5 -102t-0.5 -102q0 -15 13 -21t26 -6q8 0 16.5 1t15.5 1q5 0 6.5 -5t1.5 -8q0 -5 -3 -9.5t-9 -4.5q-28 0 -56.5 2t-57.5 2q-28 0 -57 -2t-58 -2q-4 0 -6 5t-2 8q0 8 8 11q8 2 19.5 1t19.5 -1q14 0 23.5 6.5t9.5 21.5v255q0 21 -0.5 52
t-4 61.5t-11.5 48.5q-7 18 -23.5 28t-36.5 10q-26 0 -53 -13t-51 -32t-41 -38v-371q0 -15 11 -21.5t24 -6.5q8 0 16 1.5t15 1.5q4 0 5 -5.5t1 -7.5q0 -5 -2.5 -9.5t-8.5 -4.5q-19 0 -38 1.5t-38 1.5q-38 0 -76 -1.5t-76 -1.5q-4 0 -6 5t-2 8q0 12 10 12q11 0 21 -0.5
t20 -0.5q14 0 24 6.5t10 21.5q0 101 -0.5 202.5t-0.5 202.5q0 11 -2 22t-13 15q-7 3 -15 3q-13 0 -26 -3.5t-27 -3.5q-9 0 -9 12q0 8 6 10q5 2 11.5 2.5t12.5 1.5q23 3 46.5 7.5t45.5 9.5q8 2 17 4t18 2q12 0 16.5 -17.5t5 -37.5t0.5 -29q21 18 47 37.5t55 33.5t58 14
q51 0 86 -17t60 -64q22 19 50 38.5t58.5 33t60.5 13.5q66 0 100.5 -19t47 -58.5t12.5 -101.5q0 -78 -1 -156.5t-1 -157.5q0 -15 13.5 -21t26.5 -6q8 0 15.5 1t14.5 1q4 0 5.5 -5t1.5 -8z" />
    <glyph glyph-name="n" unicode="n" horiz-adv-x="632" 
d="M617 15q0 -13 -15 -13q-22 0 -45 1.5t-46 1.5q-34 0 -69.5 -1.5t-70.5 -1.5q-4 0 -5 6.5t-1 10.5q0 8 10 8h16q5 0 10.5 -0.5t10.5 -0.5q29 0 32 29q3 59 2.5 119t-0.5 119v22.5v22.5q-1 23 -3 56.5t-9 54.5q-16 52 -70 52q-49 0 -90 -25t-71 -63q-1 -73 -1 -145v-144
v-69q0 -15 13 -22t26 -7q8 0 15.5 1.5t14.5 1.5q4 0 5 -5t1 -8q0 -4 -2.5 -9t-8.5 -5q-22 0 -43.5 1.5t-43.5 1.5q-34 0 -68 -1.5t-69 -1.5q-5 0 -5.5 6.5t-0.5 10.5q0 8 9 8h14t10 -0.5t10 -0.5q29 0 32 29q1 14 1 28v28v172.5t-1 172.5q0 14 -6 28t-23 14q-13 0 -25 -4
t-25 -4q-7 0 -7 10q0 2 0.5 4.5t1.5 3.5t3 1.5t3 1.5q18 5 37.5 7t37.5 6q17 3 33 8.5t32 5.5q7 0 11 -7q5 -9 8 -25.5t4.5 -33.5t1.5 -28q22 22 52.5 43.5t64 36t65.5 14.5q92 0 124.5 -40.5t32.5 -127.5q0 -78 -0.5 -156t-0.5 -156q0 -19 11.5 -25.5t27.5 -6.5q8 0 16 1.5
t15 1.5q6 0 8.5 -4.5t2.5 -9.5z" />
    <glyph glyph-name="o" unicode="o" horiz-adv-x="620" 
d="M471 264q0 43 -6.5 86.5t-24 80.5t-50.5 59.5t-86 22.5q-50 0 -81.5 -24t-49 -62t-24 -82t-6.5 -83q0 -43 6.5 -86t24.5 -77.5t51.5 -55.5t86.5 -21q52 0 83.5 22t48 58t22 78.5t5.5 83.5zM574 261q0 -75 -35.5 -135t-96 -95t-135.5 -35q-73 0 -132 35.5t-94 95
t-35 132.5q0 75 34 138.5t93.5 102.5t137.5 39q84 0 143 -35.5t89.5 -98t30.5 -144.5z" />
    <glyph glyph-name="p" unicode="p" horiz-adv-x="608" 
d="M467 286q0 34 -4 71.5t-17 70.5t-39 53.5t-71 20.5q-27 0 -57.5 -13.5t-53 -36.5t-25.5 -53q-2 -31 -2 -63v-64q0 -28 0.5 -56.5t1.5 -57.5q3 -51 33 -86.5t85 -35.5q52 0 82 23.5t44.5 61.5t18.5 81.5t4 83.5zM570 285q0 -78 -28 -141t-83.5 -99.5t-138.5 -36.5
q-32 0 -65.5 16.5t-56.5 38.5v-213q0 -14 11.5 -16t21.5 -2q9 0 18 1t18 1q13 0 13 -13q0 -15 -15 -15q-31 0 -62 2t-62 2q-26 0 -51.5 -2t-51.5 -2q-7 0 -8.5 5t-1.5 9q0 14 14 14q8 0 16 -0.5t16 -0.5q7 0 20.5 2t13.5 12q0 104 0.5 209t0.5 209q0 47 -0.5 93t-1.5 92
q-1 22 -8 30.5t-30 8.5q-10 0 -20 -2.5t-20 -2.5q-11 0 -11 10q0 9 9 12q2 1 18 4t38.5 7.5t44.5 8.5t37 7t16 3q8 0 11 -10q2 -6 2.5 -21.5t0.5 -31v-23.5q28 37 71.5 61.5t90.5 24.5q69 0 116.5 -36.5t72 -94t24.5 -120.5z" />
    <glyph glyph-name="q" unicode="q" horiz-adv-x="608" 
d="M428 279v43t-1 42q-3 61 -37.5 103.5t-99.5 42.5q-47 0 -76.5 -24.5t-45.5 -63.5t-22 -81.5t-6 -78.5q0 -34 6.5 -72.5t22.5 -72t43.5 -55t70.5 -21.5q34 0 66.5 14t54 39.5t23.5 62.5q2 31 1.5 61.5t-0.5 60.5zM600 -175q0 -4 -2.5 -9t-7.5 -5q-29 0 -58.5 2t-59.5 2
q-31 0 -62 -2t-63 -2q-5 0 -6 6.5t-1 10.5q0 8 12 8h17q6 0 12 -0.5t12 -0.5q14 0 25 6.5t11 22.5v207q-25 -25 -66.5 -43.5t-78.5 -18.5q-31 0 -64 5.5t-61 22.5q-56 35 -85.5 94t-29.5 124q0 81 30 143.5t88 98t141 35.5q41 0 80.5 -18t63.5 -50q5 9 16.5 25t24.5 29
t22 13q8 0 10 -3t2 -9q0 -21 -1 -41.5t-1 -40.5v-573q0 -16 11.5 -22.5t24.5 -6.5q10 0 19 1.5t19 1.5q5 0 5.5 -5t0.5 -8z" />
    <glyph glyph-name="r" unicode="r" horiz-adv-x="444" 
d="M435 445q0 -10 -7.5 -18.5t-18.5 -8.5q-15 0 -21.5 10t-11 23t-13.5 23t-30 10h-7.5t-7.5 -1q-17 -3 -37 -21t-38.5 -42.5t-30.5 -48.5t-13 -40t-1 -31.5v-30.5q0 -54 0.5 -108t0.5 -107q0 -15 12.5 -21.5t25.5 -6.5q10 0 20 1t20 1q5 0 7 -4.5t2 -8.5q0 -16 -16 -16
q-30 0 -60 1.5t-60 1.5q-31 0 -62.5 -2t-63.5 -2q-4 0 -5.5 6t-1.5 10q0 10 8 11q11 2 23 1t22 -1q15 0 24.5 6.5t10.5 22.5q2 32 2.5 65t0.5 66v97q-1 43 -0.5 85.5t-3.5 84.5q-1 20 -11 28.5t-30 8.5q-8 0 -16.5 -1.5t-17.5 -1.5q-8 0 -8 12q0 7 7 10q10 3 21 4.5t21 2.5
l54 10t54 12q9 -3 13 -11q2 -4 3 -22t1 -41.5v-44v-28.5q22 35 50 70t64 58t81 23q24 0 31 -15t9 -35q2 -11 3.5 -23t1.5 -23z" />
    <glyph glyph-name="s" unicode="s" horiz-adv-x="446" 
d="M414 143q0 -45 -20 -73.5t-52 -43.5t-70 -21t-74 -6q-33 0 -65.5 7t-65.5 10q-7 27 -13.5 54t-14.5 53q-1 3 -4.5 14t-3.5 12q0 8 5 11.5t12 3.5t10 -5q6 -7 10.5 -19t8.5 -21q8 -16 14 -24.5t19 -21.5q39 -41 97 -41q32 0 58.5 7t42.5 26.5t16 56.5q0 32 -20 53.5
t-51.5 38.5t-66.5 33t-66.5 35.5t-51.5 47.5t-20 68q0 49 25.5 80t65.5 46.5t83 15.5q28 0 50.5 -7t47.5 -16q8 -3 16 -4t16 -1h9t8 1q3 -18 5.5 -36.5t4.5 -37.5q1 -7 2.5 -16.5t1.5 -17.5q0 -7 -3 -14.5t-12 -7.5q-7 0 -11.5 1.5t-7.5 8.5q-5 10 -8.5 21.5t-7.5 21.5
q-13 35 -45 56.5t-69 21.5q-47 0 -71 -27.5t-24 -73.5q0 -16 8.5 -31t19.5 -26q21 -20 49.5 -31t54.5 -22q34 -15 70.5 -36t62 -51t25.5 -73z" />
    <glyph glyph-name="t" unicode="t" horiz-adv-x="372" 
d="M364 46q0 -9 -13.5 -18t-32.5 -16t-36.5 -11t-25.5 -4q-52 0 -80.5 13t-40 43t-11.5 81q0 83 0.5 166.5t1.5 166.5h-72q-7 0 -11.5 -3.5t-9.5 -3.5t-5 7q0 4 5.5 16t7.5 16q3 -1 9 -1h78l1 127q23 15 42 33.5t38 37.5q2 2 4 3.5t4 1.5q9 0 9 -7l-6 -195q32 0 63.5 1
t62.5 1q13 0 13 -15q0 -19 -17 -19h-122q0 -76 -0.5 -152.5t-0.5 -153.5v-77q0 -25 21 -34.5t41 -9.5q28 0 55 9q3 2 9 4t9 2q10 0 10 -9z" />
    <glyph glyph-name="u" unicode="u" horiz-adv-x="628" 
d="M618 27q0 -12 -17.5 -18t-38.5 -8t-30 -2q-34 0 -54 27t-30 56q-34 -43 -85 -64t-106 -21q-90 0 -124.5 46.5t-34.5 131.5q0 75 0.5 150.5t1.5 150.5q0 30 -29 30q-8 0 -16 -1t-16 -1q-3 0 -4.5 3.5t-1.5 5.5q0 11 10 12q35 4 70.5 5.5t70.5 5.5q8 -8 8 -20q0 -25 -1 -51
t-1 -52q-1 -61 -1.5 -122.5t-0.5 -123.5q0 -19 1 -40.5t8 -39.5q11 -28 41.5 -39.5t58.5 -11.5q31 0 62.5 11.5t54 34t25.5 56.5q2 17 2.5 34.5t0.5 34.5l-1 272q0 13 -8.5 19t-19.5 6q-10 0 -19.5 -1t-19.5 -1q-9 0 -9 10t9 11q12 2 25 2.5t26 1.5l69 7q7 1 14.5 2t14.5 1
q5 0 7 -5.5t2 -8.5q-3 -217 -3 -433q0 -25 11.5 -41t38.5 -16q8 0 14.5 2t13.5 2q11 0 11 -10z" />
    <glyph glyph-name="v" unicode="v" horiz-adv-x="574" 
d="M584 528q0 -12 -14 -12q-3 0 -6 0.5t-6 0.5q-12 0 -21 -3.5t-14 -14.5q-6 -13 -10.5 -26.5t-9.5 -27.5q-10 -28 -20 -55.5t-20 -55.5q-29 -84 -59.5 -168t-62.5 -168l-91 -2q-22 67 -46 133.5t-48 133.5q-17 49 -33.5 98t-36.5 97q-12 29 -28 35.5t-45 6.5q-10 0 -10 10
t8 11l19.5 2.5t46 6.5t47 6.5t21.5 2.5q7 0 10 -3t6 -9q5 -10 7.5 -21.5t6.5 -22.5q9 -28 17.5 -57t18.5 -58q27 -82 54.5 -163t54.5 -162q6 16 19 53t30 85t34.5 99.5t32.5 98t24 80t9 44.5t-8.5 12.5t-16.5 1.5q-10 0 -19.5 -0.5t-20.5 -0.5q-9 0 -9 10q0 5 4 7.5t8 3.5
h10h9h76q18 0 36 1t36 1q10 0 10 -11z" />
    <glyph glyph-name="w" unicode="w" horiz-adv-x="852" 
d="M853 528q0 -13 -12.5 -12.5t-20.5 0.5q-12 0 -22.5 -3.5t-15.5 -15.5q-4 -11 -7.5 -23t-7.5 -23l-35 -111l-109 -338l-86 -5q-30 103 -60.5 205t-60.5 204q-31 -101 -61.5 -202t-64.5 -202l-89 -5q-21 80 -43.5 160t-42.5 160q-9 38 -19 77t-21 76q-4 14 -10.5 23
t-23.5 9q-7 0 -14.5 -1t-15.5 -1q-10 0 -10 12q0 9 10 12q14 4 32 5t33 3q17 2 34 5t33 3q9 0 13.5 -10.5t7 -23t3.5 -18.5q25 -112 52 -222t51 -222q26 83 49.5 165.5t46.5 164.5q7 25 14.5 49.5t13.5 49.5q3 12 5 25t6 25q5 13 19.5 13h24.5q17 0 19.5 -14.5t6.5 -28.5
q32 -112 63.5 -223.5t63.5 -222.5q23 74 45 147.5t42 148.5q10 35 20 71.5t18 72.5q1 5 1.5 9.5t0.5 8.5q0 9 -13 11t-27 1.5t-19 -0.5q-11 0 -11 11t10 11h173q11 0 11 -11z" />
    <glyph glyph-name="x" unicode="x" horiz-adv-x="572" 
d="M573 10q0 -10 -9 -10h-144q-10 0 -15 7q-5 8 -10 17.5t-10 18.5q-25 47 -55 92.5t-61 89.5q-19 -28 -38 -56.5t-39 -57.5q-15 -22 -30.5 -43t-29.5 -44q-2 -4 -4 -7.5t-4 -7.5q-2 -6 -6 -7l-2 -1h-98q-4 0 -6.5 4.5t-2.5 7.5q0 5 4 6.5t7 1.5q21 0 35.5 4t30.5 17
q23 20 39 42q32 41 64.5 82t60.5 85q-7 12 -23.5 38.5t-37 59.5t-41.5 65t-37.5 55t-23.5 28q-6 5 -13.5 6.5t-15.5 1.5q-10 0 -19 -1t-19 -1t-10 9q0 8 8 11q7 3 22 4.5t31 2.5t25 2l33 5.5t31 3.5q9 0 16 -10q12 -19 23 -38l22 -38q21 -37 42.5 -73.5t43.5 -73.5
q5 8 19 29.5t32 48.5t34.5 53.5t27.5 46t11 23.5q0 9 -9 10.5t-21 0.5t-21 0t-9 9q0 3 2 6.5t5 3.5q20 0 39.5 -0.5t38.5 -0.5q24 0 48 1t48 1q13 0 13 -11q0 -10 -12.5 -10h-19.5q-12 0 -20 -1.5t-17 -9.5q-6 -5 -11 -10t-10 -12q-37 -50 -75 -100.5t-76 -100.5
q40 -60 83 -118.5t87 -114.5q14 -18 31 -24t39 -6q9 0 9 -12z" />
    <glyph glyph-name="y" unicode="y" horiz-adv-x="594" 
d="M602 527q0 -10 -7 -11t-18.5 -1t-23 -5t-20.5 -23q-49 -96 -90 -196t-90 -196q-29 -58 -57.5 -116.5t-63.5 -113.5q-19 -30 -45 -48t-62 -18q-30 0 -54.5 13t-24.5 47q0 22 16.5 37t37.5 15q9 0 18 -3q-6 -12 -6 -23q0 -15 11.5 -23.5t24.5 -8.5q20 0 36.5 11.5
t26.5 27.5q18 27 30.5 60t12.5 65q0 14 -2 28t-6 27q-6 21 -14 41.5t-16 40.5q-13 32 -25.5 63t-26.5 62q-19 45 -37.5 90.5t-40.5 88.5q-3 5 -5.5 10t-6.5 10q-5 8 -12.5 13.5t-18.5 5.5q-7 0 -15 -1t-16 -1q-5 0 -8 4.5t-3 8.5q0 8 9 10q10 3 20.5 4t20.5 2l44 8t44 6
q3 1 6 1h6q10 0 13.5 -6t7.5 -14q23 -50 42 -102.5t38 -104.5q20 -49 38 -99t37 -100q7 13 20.5 43.5t31 70t35.5 82.5t33.5 82t25 67.5t9.5 39.5q0 13 -13 15.5t-29 1.5t-24 -1q-4 0 -7 4t-3 8q0 10 10.5 10.5t16.5 0.5q17 0 35 -0.5t35 -0.5q23 0 45.5 1t44.5 1
q5 0 7 -3.5t2 -7.5z" />
    <glyph glyph-name="z" unicode="z" horiz-adv-x="480" 
d="M474 163q0 -7 -1.5 -15t-3.5 -16q-1 -9 -1.5 -18t-2.5 -18q-2 -17 -3 -45t-5 -42q-3 -8 -9 -8q-62 0 -124 0.5t-124 0.5q-44 0 -88 -1t-88 -1q-4 0 -8.5 3t-4.5 8t5 12q21 29 42.5 57.5t41.5 57.5q54 78 109.5 155.5t104.5 159.5q4 8 7.5 16t3.5 16q0 12 -7 16t-17 6
q-13 2 -26 2.5t-26 0.5q-28 0 -57.5 -1.5t-56.5 -8.5q-17 -4 -31.5 -19t-21.5 -31q-7 -15 -9 -31t-7 -26q-2 -6 -11 -6q-2 0 -6.5 1t-4.5 5q0 33 2 66t2 66q0 13 14 13q20 0 41 -2t42 -2q79 0 157.5 1.5t157.5 1.5q10 0 10 -12q0 -4 -2 -8l-4 -8q-4 -7 -9 -13t-10 -13
q-40 -54 -81 -108t-79 -110q-6 -9 -22 -31.5t-36.5 -51t-39.5 -57t-31.5 -50.5t-12.5 -30q0 -12 11 -15t20 -3h31.5h30.5q29 0 62.5 1t64.5 9.5t51 32.5q9 11 16 25.5t11 27.5q3 11 5.5 22t6.5 21q2 7 12 7q9 0 9 -10z" />
    <glyph glyph-name="braceleft" unicode="{" horiz-adv-x="450" 
d="M336 -85q-36 6 -70.5 24.5t-57 49t-22.5 70.5q0 50 1 100t1 99q0 44 -18 74t-59 46q77 34 77 121q0 50 -1 100.5t-1 100.5q0 40 22.5 70.5t57 50t70.5 24.5v-9q-35 -12 -52 -36.5t-22.5 -56.5t-5.5 -65v-184q0 -23 -15.5 -44t-37 -37t-40.5 -24q-7 -3 -13 -6t-13 -5
q7 -2 13 -5t13 -5q20 -7 41.5 -23t36.5 -37.5t15 -45.5v-181q0 -33 5 -64.5t22.5 -56t52.5 -36.5v-9z" />
    <glyph glyph-name="bar" unicode="|" horiz-adv-x="250" 
d="M155 -82h-60v880h60v-880z" />
    <glyph glyph-name="braceright" unicode="}" horiz-adv-x="450" 
d="M336 378q-40 -16 -58.5 -46t-18.5 -74q0 -49 1 -99t1 -100q0 -40 -22.5 -70.5t-56.5 -49t-71 -24.5v9q36 12 53 36.5t22 56t5 64.5v181q0 24 15 45.5t36.5 37.5t41.5 23q7 2 13 5t13 5q-7 2 -13 5t-13 6q-19 8 -40.5 24t-37 37t-15.5 44v184q0 33 -5.5 65t-22.5 56.5
t-52 36.5v9q37 -5 71 -24.5t56.5 -50t22.5 -70.5q0 -50 -1 -100.5t-1 -100.5q0 -87 77 -121z" />
    <glyph glyph-name="asciitilde" unicode="~" horiz-adv-x="700" 
d="M660 296q-28 -33 -70 -57.5t-86 -24.5t-86 17.5t-82 41t-79 41t-77 17.5q-77 0 -139 -42l-13 18q18 19 45.5 38.5t58 32.5t57.5 13q49 0 91 -17t81 -40t79.5 -40t85.5 -17q33 0 64.5 11t58.5 30z" />
    <glyph glyph-name="uni00A0" unicode="&#xa0;" horiz-adv-x="250" 
 />
    <glyph glyph-name="exclamdown" unicode="&#xa1;" horiz-adv-x="400" 
d="M256 -157q0 -26 -15 -39t-41 -13q-25 0 -40.5 13.5t-15.5 38.5q0 20 3 39t5 38q11 100 19 199t17 199h23q8 -99 18 -197.5t19 -196.5q2 -20 5 -40.5t3 -40.5zM269 464q0 -28 -20 -48.5t-49 -20.5q-28 0 -48.5 20.5t-20.5 48.5q0 29 20.5 49t48.5 20q29 0 49 -20t20 -49z
" />
    <glyph glyph-name="cent" unicode="&#xa2;" horiz-adv-x="700" 
d="M339 618q-51 -17 -82.5 -59.5t-46 -96t-14.5 -103.5q0 -48 14.5 -97.5t46 -87.5t82.5 -52v496zM600 206q0 -3 -2 -7q-5 -9 -17.5 -22t-26 -25t-22.5 -18q-32 -22 -72.5 -34t-78.5 -15v-112h-42v113q-72 7 -125.5 42.5t-83.5 93.5t-30 130q0 75 28 137t81.5 102.5
t129.5 50.5v115h42v-113q17 -2 33 -2.5t32 -6.5q18 -7 38.5 -16.5t39.5 -9.5q13 0 30 5q2 -34 6 -69.5t4 -70.5q0 -20 -20 -20q-7 0 -10 8.5t-4 12.5q-11 43 -27.5 75t-44.5 51.5t-77 21.5v-504q47 2 86.5 13.5t75.5 44.5q15 12 28 28q2 2 4.5 6t5.5 6q2 2 7 2q12 0 12 -13z
" />
    <glyph glyph-name="sterling" unicode="&#xa3;" horiz-adv-x="700" 
d="M202 107q-21 8 -40 8q-16 0 -37.5 -9t-21.5 -29q0 -13 13 -17t23 -4q22 0 39 16t24 35zM644 115v-1t-1 -2q-15 -51 -59 -85.5t-99 -34.5q-45 0 -84.5 13.5t-78.5 34.5q-19 11 -39.5 21.5t-40.5 22.5q-19 -31 -50.5 -58.5t-69.5 -27.5q-27 0 -47 13.5t-20 43.5t18.5 47.5
t45 25t50.5 7.5q11 0 21.5 -1.5t20.5 -3.5q7 24 9.5 49t2.5 50q0 37 -4 73.5t-12 71.5h-135v42h125q-6 30 -10 60.5t-4 61.5q0 57 26.5 101.5t72.5 70t102 25.5q37 0 64.5 -8.5t53.5 -18.5t58 -14q2 -31 6 -62.5t4 -63.5q0 -10 -5.5 -18t-16.5 -8t-18 10q-3 5 -4 13t-3 12
q-10 53 -37.5 86.5t-86.5 33.5q-64 0 -96.5 -43t-32.5 -102q0 -34 4 -68t10 -68h220v-42h-213q4 -20 5.5 -41t1.5 -42q0 -46 -7.5 -89.5t-30.5 -84.5q54 -28 107 -47t115 -19q49 0 84.5 14t67.5 51q2 2 3 3.5t3 1.5q4 0 4 -6z" />
    <glyph glyph-name="currency" unicode="&#xa4;" horiz-adv-x="550" 
d="M461 347q0 51 -24.5 92t-65.5 65t-92 24q-50 0 -91.5 -24t-66 -65t-24.5 -92t24.5 -92.5t66.5 -65.5t92 -24q51 0 92 24.5t65 66t24 91.5zM502 558l-63 -65q27 -35 40.5 -68t13.5 -78q0 -46 -14 -78.5t-40 -70.5l63 -61l-24 -26l-64 64q-33 -22 -63 -35t-71 -13
q-46 0 -79 15.5t-68 42.5l-63 -63l-25 26l65 64q-22 32 -34 63.5t-12 71.5q0 41 11 71t35 63l-66 66l25 24l64 -63q35 29 67.5 43.5t78.5 14.5q41 0 72 -12.5t63 -34.5l64 63z" />
    <glyph glyph-name="yen" unicode="&#xa5;" horiz-adv-x="700" 
d="M669 720q0 -13 -10 -12.5t-19 0.5q-13 0 -24 -3t-19 -12q-6 -6 -10.5 -12.5t-9.5 -13.5q-41 -62 -81 -125.5t-84 -124.5h207v-32h-229v-111h229v-32h-230q0 -47 0.5 -94.5t0.5 -94.5q0 -19 18.5 -23t31.5 -4q10 0 19 1t19 1q8 0 9.5 -5t1.5 -12q0 -12 -15 -12
q-13 0 -25.5 1t-25.5 2q-19 1 -37.5 1h-38.5q-23 0 -47 -0.5t-47 -1.5q-13 -1 -25 -2t-25 -1q-5 0 -5.5 6t-0.5 10v9t7 5q9 0 17.5 -0.5t17.5 -0.5q25 0 36.5 3.5t14.5 15t3 35.5v161h-214v32h214v111h-214v32h201q-37 68 -77 135t-82 131q-13 20 -37 21t-45 1
q-5 0 -6.5 5.5t-1.5 9.5q0 12 9 12q37 0 73.5 1t73.5 -1l3 -1q7 0 11 -6q2 -3 3.5 -6t2.5 -6q38 -79 79 -156.5t84 -154.5q7 11 26 41t42.5 68.5t45 76.5t36 66t14.5 37q0 14 -8.5 16t-19.5 2q-12 0 -24.5 -0.5t-24.5 -0.5q-5 0 -7 4.5t-2 8.5q0 12 11 12q26 0 52.5 -1
t53.5 -1q23 0 47 1.5t47 1.5q8 0 9 -3.5t1 -10.5z" />
    <glyph glyph-name="brokenbar" unicode="&#xa6;" horiz-adv-x="400" 
d="M234 -105h-68v403h68v-403zM234 391h-68v403h68v-403z" />
    <glyph glyph-name="section" unicode="&#xa7;" horiz-adv-x="650" 
d="M452 352q0 39 -24 63t-58 39.5t-63 28.5q-27 -3 -55 -12.5t-47 -29t-19 -52.5q0 -31 18.5 -52.5t46.5 -37t57.5 -26.5t52.5 -20q41 10 66 32t25 67zM525 365q0 -37 -19.5 -62t-49 -41t-60.5 -26q53 -25 88.5 -63t35.5 -100q0 -52 -28 -83.5t-71 -46t-88 -14.5
q-38 0 -74 4.5t-66.5 21t-52.5 51.5q-6 10 -10.5 21.5t-4.5 22.5q0 21 8 38.5t33 17.5q17 0 28 -9.5t14 -24.5q2 -10 3 -19.5t4 -19.5q12 -37 45 -58t71 -21q50 0 85 30.5t35 82.5q0 33 -19.5 57.5t-45.5 41.5q-13 9 -28 17t-30 15q-31 14 -64 27t-61.5 30t-46 44.5
t-17.5 69.5q0 34 17 62.5t45 47.5t61 23q-49 21 -82 55.5t-33 92.5q0 44 23 75.5t60 49t78 17.5t87.5 -13t73.5 -46q11 -13 20.5 -30.5t9.5 -35.5q0 -24 -16 -38.5t-39 -14.5q-9 0 -18 7.5t-12 14.5q-2 6 -2.5 13.5t-1.5 13.5q-5 41 -29.5 70.5t-68.5 29.5q-45 0 -75 -30.5
t-30 -75.5q0 -36 23 -58.5t59 -38.5t77 -31t77 -35t59 -50.5t23 -78.5z" />
    <glyph glyph-name="dieresis" unicode="&#xa8;" horiz-adv-x="500" 
d="M188 708q0 -22 -14.5 -38t-37.5 -16q-22 0 -36.5 16t-14.5 38q0 21 14.5 37.5t36.5 16.5q23 0 37.5 -16.5t14.5 -37.5zM415 708q0 -22 -14.5 -38t-36.5 -16t-37 16t-15 38q0 21 15 37.5t37 16.5t36.5 -16.5t14.5 -37.5z" />
    <glyph glyph-name="copyright" unicode="&#xa9;" horiz-adv-x="740" 
d="M547 255v-0.5v-1.5q-13 -24 -41 -44.5t-60 -33t-60 -12.5q-56 0 -100.5 25.5t-70 70t-25.5 100.5q0 57 23 105t65.5 77t102.5 29q23 0 43 -7t37.5 -14.5t31.5 -7.5q12 0 20 4q2 -25 4.5 -50.5t2.5 -51.5q0 -12 -14 -12q-5 0 -7 5t-3 9q-7 26 -20.5 49.5t-34.5 39
t-51 15.5q-36 0 -61.5 -17t-41 -45t-22.5 -60.5t-7 -62.5q0 -39 12.5 -79.5t41 -68t75.5 -27.5q35 0 61.5 10.5t51.5 33.5q7 7 17 19t17 15q5 0 9 -3.5t4 -8.5zM666 374q0 61 -23 114.5t-64 94.5t-94.5 64t-114.5 23t-114.5 -23.5t-93.5 -65t-63 -95t-23 -114.5t23 -114
t64 -93.5t94.5 -63.5t114.5 -23t114.5 23t93.5 64t63 94.5t23 114.5zM692 374q0 -67 -25 -125.5t-69.5 -103t-102.5 -70t-125 -25.5t-125 25.5t-102.5 70t-69.5 103t-25 125.5q0 66 25 125t69.5 103.5t103 70t124.5 25.5q67 0 125 -25.5t102.5 -70t69.5 -103.5t25 -125z" />
    <glyph glyph-name="ordfeminine" unicode="&#xaa;" horiz-adv-x="390" 
d="M236 502l-2 58l-2 58h-6q-26 0 -55.5 -11.5t-50 -33t-20.5 -51.5q0 -28 15 -45t43 -17q18 0 41.5 14.5t36.5 27.5zM345 458q0 -3 -4 -7.5t-6 -6.5q-7 -7 -17 -10.5t-21 -3.5q-25 0 -37.5 13.5t-20.5 35.5q-22 -20 -49 -33.5t-58 -13.5q-35 0 -62 20t-27 59q0 36 25 59.5
t56 36.5q26 11 54 16.5t55 11.5q-1 20 -1.5 41t-10.5 39q-6 14 -18.5 26t-27.5 12q-26 0 -44 -16.5t-23 -41.5q-1 -3 -1 -7.5t-1 -6.5q-4 -10 -13 -10q-10 0 -21 6t-11 18q0 25 22 40.5t50.5 23t47.5 7.5q50 0 79.5 -28.5t29.5 -78.5v-67v-66q0 -6 0.5 -25t4.5 -36t13 -17
q13 0 21.5 7t10.5 7q5 0 5 -4z" />
    <glyph glyph-name="guillemetleft" unicode="&#xab;" horiz-adv-x="500" 
d="M270 55h-65l-153 190l153 188h65l-163 -188zM446 55h-67l-152 190l152 188h67l-164 -188z" />
    <glyph glyph-name="logicalnot" unicode="&#xac;" horiz-adv-x="580" 
d="M521 128h-65v195h-404v54h469v-249z" />
    <glyph glyph-name="softhyphen" unicode="&#xad;" horiz-adv-x="750" 
d="M674 338h-597v49h597v-49z" />
    <glyph glyph-name="registered" unicode="&#xae;" horiz-adv-x="740" 
d="M448 469q0 47 -25.5 62.5t-67.5 15.5h-12.5t-16.5 -1q-21 -3 -21 -16q0 -35 -1 -68.5t-1 -70.5q10 -3 18.5 -3.5t16.5 -0.5q26 0 51.5 7t42 24.5t16.5 50.5zM563 189q0 -11 -16 -12q-10 -1 -22.5 -1h-17.5q-22 0 -34.5 4.5t-23.5 23.5q-25 42 -49 83.5t-49 85.5h-46v-165
q0 -8 6.5 -11.5t13.5 -3.5q8 -1 15.5 0t11.5 1q5 0 5 -4v-2.5v-2.5q0 -4 -3 -7h-2h-3h-144q-5 0 -5 9q0 6 6 7h4h4h5h5q12 0 20 3t8 12v322q0 8 -5.5 11.5t-12.5 4.5q-6 1 -13 0.5t-12 -0.5q-6 0 -6 9q0 5 2 5q1 1 2 1h1q17 0 35.5 -1t35.5 -1q24 0 49 2.5t49 2.5
q28 0 57.5 -8t49.5 -26.5t20 -51.5q0 -44 -29 -68t-77 -33q26 -43 51.5 -83t53.5 -76q8 -10 18 -16.5t23 -8.5q2 -1 5.5 -1h7.5h1q1 0 2 -1q3 0 3 -3zM666 374q0 61 -23 114.5t-64 94.5t-94.5 64t-114.5 23t-114 -23.5t-93.5 -64.5t-63.5 -95t-23 -115t23.5 -114.5
t64.5 -93.5t94.5 -63t113.5 -23q61 0 114 23t93.5 64t63.5 94.5t23 114.5zM692 374q0 -67 -25 -126t-69.5 -103.5t-102.5 -69.5t-125 -25t-125 25t-102.5 69.5t-69.5 103.5t-25 126t25 125.5t69.5 103t103 70t124.5 25.5t124.5 -25t103 -69.5t69.5 -103.5t25 -126z" />
    <glyph glyph-name="macron" unicode="&#xaf;" horiz-adv-x="500" 
d="M375 673h-250v44h250v-44z" />
    <glyph glyph-name="degree" unicode="&#xb0;" horiz-adv-x="350" 
d="M244 664q0 29 -20.5 49.5t-49.5 20.5t-49.5 -20.5t-20.5 -49.5t20.5 -49.5t49.5 -20.5t49.5 20.5t20.5 49.5zM280 665q0 -43 -30.5 -74t-74.5 -31q-43 0 -74 31t-31 74q0 44 31 74.5t74 30.5q44 0 74.5 -30.5t30.5 -74.5z" />
    <glyph glyph-name="plusminus" unicode="&#xb1;" horiz-adv-x="750" 
d="M663 50h-575v45h575v-45zM663 406h-265v-237h-46v237h-264v45h264v208h46v-208h265v-45z" />
    <glyph glyph-name="twosuperior" unicode="&#xb2;" horiz-adv-x="390" 
d="M343 478q0 -1 -3 -14t-7.5 -29.5t-8.5 -31t-5 -19.5q-1 -1 -1 -3v-2q-14 0 -28 1t-28 1q-38 0 -77 -1.5t-77 -1.5q-16 0 -32.5 -1t-32.5 -1q-2 0 -2.5 3t-0.5 4q0 23 11 45q15 28 43 56.5t59 55.5t54 49q23 21 39.5 48.5t16.5 59.5q0 35 -15.5 62.5t-56.5 27.5
q-42 0 -65.5 -23t-27.5 -64v-7.5t-1 -7.5q-1 -12 -4 -17t-17 -5t-22 9t-8 23q0 27 15.5 47t40 33t51.5 19.5t49 6.5q30 0 59 -12t47.5 -34.5t18.5 -55.5q0 -39 -15.5 -65.5t-40.5 -45.5t-53.5 -35t-55.5 -34q-10 -7 -29.5 -23t-37 -33t-21.5 -28q-2 -4 -2 -11q0 -5 6 -5
q79 0 157 3q20 1 41 4.5t36 19.5q2 3 7.5 12t10.5 17.5t7 8.5q6 0 6 -6z" />
    <glyph glyph-name="threesuperior" unicode="&#xb3;" horiz-adv-x="390" 
d="M347 509q0 -52 -28.5 -83t-71.5 -44t-88 -13q-30 0 -60 9t-47 36q-4 7 -7 14.5t-3 15.5q0 12 8.5 21.5t20.5 9.5q10 0 13.5 -4t4.5 -12q9 -39 27.5 -56t59.5 -17q53 0 81 35.5t28 85.5q0 41 -26.5 65.5t-67.5 24.5q-14 0 -29 -3t-29 -3q-5 0 -6.5 4t-1.5 8q0 8 7 8h35
q44 0 71 23t27 69q0 37 -20.5 62.5t-59.5 25.5q-31 0 -54 -16.5t-31 -47.5q-1 -5 -2 -16t-4 -19.5t-11 -8.5q-13 0 -24.5 9.5t-11.5 24.5q0 11 5 21t12 17q25 28 62.5 38.5t73.5 10.5q30 0 58.5 -10t47 -31t18.5 -56q0 -28 -18 -48.5t-44 -33.5t-49 -21q17 -1 34.5 -2
t33.5 -6q29 -10 47.5 -32.5t18.5 -54.5z" />
    <glyph glyph-name="acute" unicode="&#xb4;" horiz-adv-x="500" 
d="M390 725l-257 -80l-23 42l249 102z" />
    <glyph glyph-name="micro" unicode="&#xb5;" horiz-adv-x="600" 
d="M592 27q0 -12 -15.5 -18.5t-34 -8.5t-27.5 -2q-34 0 -53.5 27t-28.5 55q-33 -43 -81.5 -63.5t-102.5 -20.5q-38 0 -64 13t-48 45q-4 -48 -7 -95.5t-7 -94.5q-1 -6 -2 -14t-8 -10q-4 -1 -16 -1h-15q-8 0 -23 1t-15 14q0 2 5 14.5t6 16.5q6 23 9.5 46t7.5 47
q9 59 15.5 119.5t6.5 119.5v249q0 28 -28 28q-8 0 -16 -1t-16 -1q-3 0 -4.5 4t-1.5 6q0 8 2 9.5t9 2.5q9 2 18.5 2t19.5 1q17 1 33 2l32 2q8 1 17 2t17 1q4 0 6 -8.5t2 -11.5q0 -85 -1 -169.5t-1 -169.5q0 -19 1.5 -40t8.5 -39q11 -29 40 -41t57 -12q31 0 60.5 11.5
t50.5 34.5t24 56q2 16 2 31.5v30.5q0 68 -1 136.5t-1 136.5q0 12 -8.5 18.5t-20.5 6.5q-9 0 -18.5 -1.5t-19.5 -1.5q-4 0 -5.5 3.5t-1.5 7.5q0 6 2 9q1 1 3 1t3 1q12 3 24.5 3t25.5 1q23 2 47.5 6t48.5 4q5 0 7 -5t2 -10v-173q0 -63 -0.5 -125.5t-0.5 -125.5q0 -25 11 -41
t38 -16q7 0 13 1t12 1t6 -7z" />
    <glyph glyph-name="paragraph" unicode="&#xb6;" horiz-adv-x="800" 
d="M636 765h-74v-810h-52v810h-85v-810h-49v491q-52 5 -98.5 22t-75.5 52t-29 95q0 44 20.5 77.5t57.5 56.5q29 19 68.5 31t73.5 12h243v-27z" />
    <glyph glyph-name="periodcentered" unicode="&#xb7;" horiz-adv-x="300" 
d="M229 308q0 -33 -23 -56t-56 -23t-56 23t-23 56t23 56t56 23t56 -23t23 -56z" />
    <glyph glyph-name="cedilla" unicode="&#xb8;" horiz-adv-x="500" 
d="M358 -105q0 -25 -14.5 -40t-36.5 -22.5t-45.5 -9.5t-42.5 -2t-41.5 7t-39.5 15q-6 3 -21 11.5t-15 15.5t6 7q3 0 14 -4t15 -5q39 -12 80 -12q11 0 31 3.5t36.5 11.5t16.5 23q0 13 -11.5 20.5t-26 11t-24.5 3.5q-19 0 -38.5 -5t-38.5 -11q14 27 26 54l24 54l32 -4
q-10 -19 -21 -37l-22 -36q15 2 30 3.5t31 1.5q18 0 40.5 -3.5t39 -15t16.5 -35.5z" />
    <glyph glyph-name="onesuperior" unicode="&#xb9;" horiz-adv-x="390" 
d="M304 383q0 -4 -2 -7.5t-6 -3.5q-25 0 -51 0.5t-52 0.5q-23 0 -46.5 -1t-46.5 -1q-9 0 -9 10q0 6 4.5 8.5t9.5 2.5t10.5 -0.5t10.5 -0.5q12 0 25 7t13 21q0 41 0.5 82.5t0.5 81.5v176q0 7 -6 7q-8 0 -24.5 -6.5t-33.5 -13.5t-27 -7q-4 0 -7 4.5t-3 8.5q0 9 10 13t20.5 6
t20.5 5q24 8 47.5 16t47.5 17l6 2t7 1q3 0 5 -3.5t2 -5.5q0 -49 -1.5 -98.5t-1.5 -99.5v-182q0 -19 9 -24.5t26 -5.5q8 0 16.5 1t16.5 1q5 0 7 -4t2 -8z" />
    <glyph glyph-name="ordmasculine" unicode="&#xba;" horiz-adv-x="390" 
d="M281 597q0 23 -3 48.5t-12 49t-26.5 38t-47.5 14.5q-28 0 -45 -15.5t-26 -39.5t-12.5 -50t-3.5 -47q0 -30 6.5 -64t26 -57.5t58.5 -23.5q29 0 45.5 14.5t25.5 37.5t11.5 48t2.5 47zM346 594q0 -44 -19 -81.5t-53.5 -59.5t-80.5 -22q-45 0 -78.5 22.5t-52 59.5t-18.5 80
q0 44 18 84t52.5 65t81.5 25q52 0 85 -23.5t49 -62.5t16 -87z" />
    <glyph glyph-name="guillemetright" unicode="&#xbb;" horiz-adv-x="500" 
d="M273 245l-152 -190h-67l164 190l-164 188h67zM448 245l-153 -190h-65l163 190l-163 188h65z" />
    <glyph glyph-name="onequarter" unicode="&#xbc;" 
d="M611 84h168q0 58 0.5 115.5t0.5 115.5zM353 376q0 -2 -1.5 -5t-3.5 -3q-25 0 -51 0.5t-52 0.5q-23 0 -46.5 -1t-46.5 -1q-6 0 -6 7t12 7q5 0 10 -0.5t10 -0.5q14 0 27.5 7.5t13.5 23.5q0 41 0.5 82.5t0.5 81.5v176q0 10 -9 10q-11 0 -27.5 -6.5t-32 -13.5t-25.5 -7
q-3 0 -5 4t-2 5q0 9 8 11q10 4 19.5 6t19.5 5q21 6 42 12.5t41 14.5q5 2 12 5.5t13 3.5q3 0 3.5 -3.5t0.5 -5.5q0 -4 -0.5 -7t-0.5 -7q0 -16 0.5 -31.5t0.5 -30.5q0 -31 -1 -61.5t-1 -61.5v-178q0 -20 10 -26.5t28 -6.5q8 0 16.5 0.5t16.5 0.5q6 0 6 -7zM824 767l-637 -874
l-35 25l639 874zM915 104q0 -11 -4 -22t-6 -22h-73v-84q0 -13 9.5 -19.5t21.5 -6.5q8 0 17 1.5t17 1.5q3 0 4 -3.5t1 -5.5q0 -7 -8 -7q-23 0 -46.5 0.5t-46.5 0.5q-21 0 -41.5 -0.5t-41.5 -0.5q-7 0 -7 6q0 7 10.5 7.5t23.5 0.5t23.5 4.5t10.5 19.5v85h-194q-1 3 -1 9
q0 7 5 14q18 25 36.5 50t36.5 50q32 45 63.5 90.5t65.5 88.5q6 8 15.5 10.5t18.5 2.5h3t3 -1q1 -2 1.5 -29.5t0.5 -68t-0.5 -82t-0.5 -72v-38.5h35q19 0 26 5.5t10.5 11t8.5 5.5q3 0 3 -2z" />
    <glyph glyph-name="onehalf" unicode="&#xbd;" 
d="M353 376q0 -2 -1 -5t-4 -3q-25 0 -51 0.5t-52 0.5q-23 0 -46.5 -1t-46.5 -1q-6 0 -6 7t12 7q5 0 10 -0.5t10 -0.5q14 0 27.5 7.5t13.5 23.5q0 41 0.5 82.5t0.5 81.5v176q0 10 -9 10q-11 0 -27.5 -6.5t-32 -13.5t-25.5 -7q-3 0 -5 4t-2 5q0 6 2 8t6 3q10 4 19.5 6t19.5 5
q21 6 43 12.5t42 15.5q5 2 11 5t12 3q3 0 3.5 -3.5t0.5 -5.5q0 -4 -0.5 -7t-0.5 -7q0 -16 0.5 -31.5t0.5 -30.5q0 -31 -1 -61.5t-1 -61.5v-178q0 -20 10 -26.5t28 -6.5q8 0 16.5 0.5t16.5 0.5q6 0 6 -7zM824 767l-637 -874l-35 25l639 874zM911 39q0 -1 -3.5 -13.5t-7.5 -25
t-5 -16.5q-3 -10 -4.5 -20t-4.5 -19l-1 -3v-2q-14 0 -28 1t-28 1q-38 0 -77 -1.5t-77 -1.5q-16 0 -32.5 -1t-32.5 -1q-2 0 -2.5 3t-0.5 4q0 26 18.5 55t46.5 57.5t56 53t46 41.5q23 21 39.5 48.5t16.5 59.5q0 35 -15.5 62.5t-56.5 27.5q-8 0 -22 -3t-22 -6
q-24 -10 -35 -31.5t-13 -46.5v-8t-1 -8q-1 -12 -5 -16.5t-17 -4.5q-14 0 -22 9t-8 23q0 27 15.5 47t40 33t51.5 19.5t49 6.5q30 0 58.5 -11.5t47.5 -34.5t19 -56q0 -39 -15.5 -65.5t-40.5 -45.5t-53.5 -35.5t-55.5 -34.5q-10 -6 -29.5 -22.5t-37 -33.5t-21.5 -28
q-2 -3 -2 -10t6 -7q39 0 78.5 1t78.5 3q20 1 41 4.5t36 19.5q3 3 8 12.5t10 17.5t7 8q7 0 7 -6z" />
    <glyph glyph-name="threequarters" unicode="&#xbe;" 
d="M611 80h168q0 58 0.5 115.5t0.5 115.5zM823 767l-636 -874l-34 25l638 874zM404 509q0 -52 -28.5 -83t-71.5 -44t-88 -13q-30 0 -60 9t-47 36q-4 7 -7 14.5t-3 15.5q0 12 8.5 21.5t20.5 9.5q10 0 13.5 -4t4.5 -12q9 -39 27.5 -56t59.5 -17q53 0 81 35.5t28 85.5
q0 41 -26.5 65.5t-67.5 24.5q-14 0 -29 -3t-29 -3q-5 0 -6.5 4t-1.5 8q0 8 7 8h35q44 0 71 23t27 69q0 37 -20.5 62.5t-59.5 25.5q-31 0 -54 -16.5t-31 -47.5q-1 -5 -2 -16t-4 -19.5t-11 -8.5q-13 0 -24.5 9.5t-11.5 24.5q0 11 5 21t12 17q25 28 62.5 38.5t73.5 10.5
q30 0 58.5 -10t47 -31t18.5 -56q0 -28 -18 -48.5t-44 -33.5t-49 -21q17 -1 34.5 -2t33.5 -6q29 -10 47.5 -32.5t18.5 -54.5zM915 100q0 -11 -3.5 -22t-5.5 -22h-75v-84q0 -14 9.5 -20t21.5 -6q9 0 17.5 1t16.5 1q4 0 5.5 -3t1.5 -5q0 -7 -10 -7q-22 0 -45 0.5t-46 0.5
q-21 0 -42 -0.5t-42 -0.5q-7 0 -7 5q0 9 10.5 8.5t16.5 -0.5q13 0 27 4t14 21v85h-195v1.5v1.5q0 6 1 10.5t5 9.5q19 24 37 49.5t36 50.5q32 45 63.5 90.5t64.5 88.5q6 8 15.5 10.5t17.5 2.5h3.5t3.5 -1v-290h36q9 0 17.5 1.5t14.5 8.5q3 3 2 4q3 2 5.5 5t6.5 3q2 0 2 -2z
" />
    <glyph glyph-name="questiondown" unicode="&#xbf;" horiz-adv-x="560" 
d="M496 -25q0 -17 -6 -35t-14 -34q-31 -57 -85.5 -84t-117.5 -27q-51 0 -99 17t-79 53.5t-31 94.5q0 36 19.5 71.5t46.5 58.5q11 9 22.5 17t23.5 16q47 32 70 66.5t23 92.5v56h38q0 -18 0.5 -35.5t0.5 -34.5q0 -54 -14.5 -87.5t-35.5 -57t-42.5 -46t-36 -55t-14.5 -84.5
q0 -56 27 -88.5t85 -32.5q35 0 65.5 10.5t49 34.5t18.5 64q0 14 -5.5 27.5t-5.5 27.5q0 25 16.5 37t39.5 12q26 0 33.5 -16.5t7.5 -38.5zM354 478q0 -30 -22 -50t-51 -20t-51 20t-22 50q0 29 22 50t51 21t51 -21t22 -50z" />
    <glyph glyph-name="Agrave" unicode="&#xc0;" horiz-adv-x="774" 
d="M480 297q-32 90 -64 180.5t-64 180.5q-31 -90 -63 -180t-63 -181h254zM762 15q0 -13 -9 -15q-20 1 -41 1.5t-41 0.5h-61.5t-61.5 -2q-16 -1 -32.5 -1.5t-32.5 -0.5q-5 0 -6.5 3.5t-1.5 7.5l1 8q0 3 2 6.5t6 3.5h49q9 0 20.5 4t11.5 15q0 3 -7 23.5t-17 50t-21 59.5
t-19 53.5t-11 30.5h-273q-3 -9 -12 -32.5t-19.5 -53.5t-21 -59t-17 -49.5t-6.5 -25.5q0 -14 15 -18t25 -4t19.5 1.5t19.5 0.5q2 1 6 1q6 0 7 -7t1 -11q-1 -4 -4.5 -4.5t-7.5 -0.5q-29 0 -59 0.5t-59 0.5q-22 0 -43 -1t-43 -1q-9 0 -9 10q0 13 9 14t22 -0.5t27.5 3.5t24.5 26
q5 9 20 48t37 97.5t46.5 126t48.5 134.5t43.5 124t31.5 94.5t12 44.5q0 2 -3 5.5t-3 4.5q0 4 3 5q10 2 21 3t21 2q13 2 26 3.5t26 2.5l259 -700q4 -10 15.5 -15.5t21.5 -5.5q9 0 18.5 0.5t19.5 0.5q4 0 5 -5t1 -8zM520 822l-12 -45l-254 50l17 67z" />
    <glyph glyph-name="Aacute" unicode="&#xc1;" horiz-adv-x="774" 
d="M480 297q-32 90 -64 180.5t-64 180.5q-31 -90 -63 -180t-63 -181h254zM762 15q0 -13 -9 -15q-20 1 -41 1.5t-41 0.5h-61.5t-61.5 -2q-16 -1 -32.5 -1.5t-32.5 -0.5q-5 0 -6.5 3.5t-1.5 7.5l1 8q0 3 2 6.5t6 3.5h49q9 0 20.5 4t11.5 15q0 3 -7 23.5t-17 50t-21 59.5
t-19 53.5t-11 30.5h-273q-3 -9 -12 -32.5t-19.5 -53.5t-21 -59t-17 -49.5t-6.5 -25.5q0 -14 15 -18t25 -4t19.5 1.5t19.5 0.5q2 1 6 1q6 0 7 -7t1 -11q-1 -4 -4.5 -4.5t-7.5 -0.5q-29 0 -59 0.5t-59 0.5q-22 0 -43 -1t-43 -1q-9 0 -9 10q0 13 9 14t22 -0.5t27.5 3.5t24.5 26
q5 9 20 48t37 97.5t46.5 126t48.5 134.5t43.5 124t31.5 94.5t12 44.5q0 2 -3 5.5t-3 4.5q0 4 3 5q10 2 21 3t21 2q13 2 26 3.5t26 2.5l259 -700q4 -10 15.5 -15.5t21.5 -5.5q9 0 18.5 0.5t19.5 0.5q4 0 5 -5t1 -8zM520 839l-254 -50l-12 45l249 72z" />
    <glyph glyph-name="Acircumflex" unicode="&#xc2;" horiz-adv-x="774" 
d="M480 297q-32 90 -64 180.5t-64 180.5q-31 -90 -63 -180t-63 -181h254zM762 15q0 -13 -9 -15q-20 1 -41 1.5t-41 0.5h-61.5t-61.5 -2q-16 -1 -32.5 -1.5t-32.5 -0.5q-5 0 -6.5 3.5t-1.5 7.5l1 8q0 3 2 6.5t6 3.5h49q9 0 20.5 4t11.5 15q0 3 -7 23.5t-17 50t-21 59.5
t-19 53.5t-11 30.5h-273q-3 -9 -12 -32.5t-19.5 -53.5t-21 -59t-17 -49.5t-6.5 -25.5q0 -14 15 -18t25 -4t19.5 1.5t19.5 0.5q2 1 6 1q6 0 7 -7t1 -11q-1 -4 -4.5 -4.5t-7.5 -0.5q-29 0 -59 0.5t-59 0.5q-22 0 -43 -1t-43 -1q-9 0 -9 10q0 13 9 14t22 -0.5t27.5 3.5t24.5 26
q5 9 20 48t37 97.5t46.5 126t48.5 134.5t43.5 124t31.5 94.5t12 44.5q0 2 -3 5.5t-3 4.5q0 4 3 5q10 2 21 3t21 2q13 2 26 3.5t26 2.5l259 -700q4 -10 15.5 -15.5t21.5 -5.5q9 0 18.5 0.5t19.5 0.5q4 0 5 -5t1 -8zM555 815l-7 -35l-163 52l-157 -51l-9 36l168 77z" />
    <glyph glyph-name="Atilde" unicode="&#xc3;" horiz-adv-x="774" 
d="M480 297q-32 90 -64 180.5t-64 180.5q-31 -90 -63 -180t-63 -181h254zM762 15q0 -13 -9 -15q-20 1 -41 1.5t-41 0.5h-61.5t-61.5 -2q-16 -1 -32.5 -1.5t-32.5 -0.5q-5 0 -6.5 3.5t-1.5 7.5l1 8q0 3 2 6.5t6 3.5h49q9 0 20.5 4t11.5 15q0 3 -7 23.5t-17 50t-21 59.5
t-19 53.5t-11 30.5h-273q-3 -9 -12 -32.5t-19.5 -53.5t-21 -59t-17 -49.5t-6.5 -25.5q0 -14 15 -18t25 -4t19.5 1.5t19.5 0.5q2 1 6 1q6 0 7 -7t1 -11q-1 -4 -4.5 -4.5t-7.5 -0.5q-29 0 -59 0.5t-59 0.5q-22 0 -43 -1t-43 -1q-9 0 -9 10q0 13 9 14t22 -0.5t27.5 3.5t24.5 26
q5 9 20 48t37 97.5t46.5 126t48.5 134.5t43.5 124t31.5 94.5t12 44.5q0 2 -3 5.5t-3 4.5q0 4 3 5q10 2 21 3t21 2q13 2 26 3.5t26 2.5l259 -700q4 -10 15.5 -15.5t21.5 -5.5q9 0 18.5 0.5t19.5 0.5q4 0 5 -5t1 -8zM542 862q-18 -22 -41 -44.5t-54 -22.5q-24 0 -45 11t-41 22
t-42 11q-21 0 -37 -14t-29 -30l-21 14q13 19 27.5 37.5t33 31t43.5 12.5q24 0 44.5 -10.5t41 -21.5t44.5 -11q17 0 32 11.5t25 24.5z" />
    <glyph glyph-name="Adieresis" unicode="&#xc4;" horiz-adv-x="774" 
d="M480 297q-32 90 -64 180.5t-64 180.5q-31 -90 -63 -180t-63 -181h254zM762 15q0 -13 -9 -15q-20 1 -41 1.5t-41 0.5h-61.5t-61.5 -2q-16 -1 -32.5 -1.5t-32.5 -0.5q-5 0 -6.5 3.5t-1.5 7.5l1 8q0 3 2 6.5t6 3.5h49q9 0 20.5 4t11.5 15q0 3 -7 23.5t-17 50t-21 59.5
t-19 53.5t-11 30.5h-273q-3 -9 -12 -32.5t-19.5 -53.5t-21 -59t-17 -49.5t-6.5 -25.5q0 -14 15 -18t25 -4t19.5 1.5t19.5 0.5q2 1 6 1q6 0 7 -7t1 -11q-1 -4 -4.5 -4.5t-7.5 -0.5q-29 0 -59 0.5t-59 0.5q-22 0 -43 -1t-43 -1q-9 0 -9 10q0 13 9 14t22 -0.5t27.5 3.5t24.5 26
q5 9 20 48t37 97.5t46.5 126t48.5 134.5t43.5 124t31.5 94.5t12 44.5q0 2 -3 5.5t-3 4.5q0 4 3 5q10 2 21 3t21 2q13 2 26 3.5t26 2.5l259 -700q4 -10 15.5 -15.5t21.5 -5.5q9 0 18.5 0.5t19.5 0.5q4 0 5 -5t1 -8zM326 837q0 -22 -15 -38.5t-37 -16.5t-38 16.5t-16 38.5
t16 38t38 16t37 -16.5t15 -37.5zM553 837q0 -22 -15 -38.5t-38 -16.5q-22 0 -37 16.5t-15 38.5t15 38t37 16q23 0 38 -16t15 -38z" />
    <glyph glyph-name="Aring" unicode="&#xc5;" horiz-adv-x="774" 
d="M480 297q-32 90 -64 180.5t-64 180.5q-31 -90 -63 -180t-63 -181h254zM438 851q0 21 -15.5 33.5t-35.5 12.5q-19 0 -34.5 -13t-15.5 -34q0 -20 15.5 -32.5t34.5 -12.5q20 0 35.5 13t15.5 33zM762 15q0 -13 -9 -15q-20 1 -41 1.5t-41 0.5h-61.5t-61.5 -2
q-16 -1 -32.5 -1.5t-32.5 -0.5q-5 0 -6.5 3.5t-1.5 7.5l1 8q0 3 2 6.5t6 3.5h49q9 0 20.5 4t11.5 15q0 3 -7 23.5t-17 50t-21 59.5t-19 53.5t-11 30.5h-273q-3 -9 -12 -32.5t-19.5 -53.5t-21 -59t-17 -49.5t-6.5 -25.5q0 -14 15 -18t25 -4t19.5 1.5t19.5 0.5q2 1 6 1
q6 0 7 -7t1 -11q-1 -4 -4.5 -4.5t-7.5 -0.5q-29 0 -59 0.5t-59 0.5q-22 0 -43 -1t-43 -1q-9 0 -9 10q0 13 9 14t22 -0.5t27.5 3.5t24.5 26q5 9 20 48t37 97.5t46.5 126t48.5 134.5t43.5 124t31.5 94.5t12 44.5q0 2 -3 5.5t-3 4.5q0 4 3 5q10 2 21 3t21 2q13 2 26 3.5t26 2.5
l259 -700q4 -10 15.5 -15.5t21.5 -5.5q9 0 18.5 0.5t19.5 0.5q4 0 5 -5t1 -8zM474 850q0 -34 -26.5 -57t-60.5 -23t-60 23t-26 58q0 36 26.5 59t60.5 23t60 -24t26 -59z" />
    <glyph glyph-name="AE" unicode="&#xc6;" horiz-adv-x="930" 
d="M455 361v302q0 11 -13 15.5t-21 5.5q-37 -81 -74.5 -162t-75.5 -161h184zM869 171q0 -19 -4 -37t-7 -37q-2 -20 -2.5 -41t-5.5 -41q-1 -6 -5 -11t-11 -5q-82 0 -165 1.5t-166 1.5q-33 0 -65.5 -2.5t-65.5 -2.5q-4 0 -8.5 3.5t-4.5 8.5q0 6 2.5 12t9.5 6q21 0 40.5 2
t32 13t12.5 37l-1 247h-201q-5 -11 -19.5 -42t-33 -71t-36.5 -78t-29.5 -64.5t-11.5 -29.5q0 -16 17.5 -18t27.5 -2q11 0 21 1.5t20 1.5q5 0 5.5 -8t0.5 -11q0 -4 -4.5 -4.5t-7.5 -0.5q-30 0 -60.5 0.5t-60.5 0.5q-21 0 -41.5 -1t-41.5 -1q-9 0 -9 9q0 14 8.5 14.5t18.5 0.5
q3 0 6 -0.5t6 -0.5q17 0 28.5 8.5t19.5 21.5q5 8 8.5 17t7.5 17q74 149 146 298.5t142 300.5q-10 -1 -21.5 -1h-22.5q-8 0 -14.5 5.5t-6.5 14.5q0 5 4 11t10 6q26 0 52 -1t51 -1h135q46 0 91.5 1.5t91.5 1.5t91 3q4 -29 9.5 -58t10.5 -58q1 -6 2.5 -11.5t1.5 -11.5
q0 -10 -6.5 -14t-15.5 -4q-10 0 -13 3.5t-5 12.5q-14 40 -31.5 63t-44.5 32.5t-70 9.5h-128v-298q33 0 67 0.5t67 4.5q25 2 49 8t49 10h1q8 0 8 -6q0 -3 -3 -14t-7 -21.5t-6 -13.5q-5 -11 -15 -11q-8 0 -15.5 0.5t-15.5 1.5q-29 3 -58.5 4t-58.5 1q-23 0 -42.5 -7t-19.5 -37
v-236q0 -34 16.5 -39t44.5 -5h78q13 0 27 1t26 8t21.5 16.5l18.5 18.5q21 21 32 47t25 51q3 5 5.5 7t7.5 2t9.5 -2.5t4.5 -8.5z" />
    <glyph glyph-name="Ccedilla" unicode="&#xc7;" horiz-adv-x="725" 
d="M699 187q0 -6 -1 -12t-4 -11q-13 -31 -41 -60.5t-56 -47.5q-45 -30 -95.5 -42.5t-103.5 -12.5q-14 0 -27.5 1t-27.5 3q-10 -15 -19 -30.5t-18 -31.5q15 2 30 3.5t30 1.5q18 0 41 -3.5t39.5 -14.5t16.5 -36q0 -26 -14.5 -41t-36.5 -22.5t-46 -9.5t-43 -2t-41.5 6.5
t-40.5 14.5q-6 4 -21 12.5t-15 16.5t7 8q5 0 15.5 -4.5t14.5 -6.5q19 -6 39.5 -8.5t39.5 -2.5q11 0 31 3.5t36 11.5t16 23q0 13 -11 20t-25.5 10t-24.5 3q-20 0 -40 -4.5t-39 -11.5q13 25 24 50t23 50q-86 19 -143 69.5t-85.5 123t-28.5 156.5q0 78 23 146t67 119.5t108 81
t146 29.5q40 0 76.5 -12.5t73.5 -25.5q21 -7 43.5 -11t44.5 -6q1 -22 3 -43.5t5 -43.5q2 -20 7 -40.5t5 -41.5q0 -16 -6.5 -25.5t-24.5 -9.5q-7 0 -9.5 1.5t-5.5 8.5q-4 10 -6.5 21.5t-5.5 21.5q-8 33 -27 70t-46 59q-12 11 -35.5 22t-48 18t-41.5 7q-30 0 -61.5 -11.5
t-54.5 -29.5q-45 -35 -72 -84t-38.5 -105t-11.5 -111q0 -60 14 -117.5t44 -103.5t78 -73.5t117 -27.5q29 0 64.5 8t62.5 19q31 13 57 34.5t47 46.5q3 3 10 13.5t13.5 20.5t7.5 10q5 5 11 5q11 0 11 -12z" />
    <glyph glyph-name="Egrave" unicode="&#xc8;" horiz-adv-x="674" 
d="M642 171q0 -18 -3 -36.5t-5 -36.5q-3 -20 -4 -40.5t-6 -40.5q-1 -6 -5.5 -11.5t-11.5 -5.5q-107 0 -214 1.5t-214 1.5q-32 0 -64.5 -2.5t-64.5 -2.5q-5 0 -9.5 3.5t-4.5 8.5q0 6 3 11.5t10 5.5q21 0 40 2.5t31.5 14t12.5 37.5v574q0 23 -14 30.5t-34 7.5q-10 0 -19 -0.5
t-18 -0.5q-8 0 -14 4t-6 13q0 8 3 14t13 6q17 0 33.5 -1t32.5 -1q101 0 202 1.5t201 1.5q46 0 91 3q4 -29 10 -58t10 -58q2 -6 3 -11.5t1 -11.5q0 -10 -6.5 -14t-15.5 -4q-8 0 -11.5 3.5t-6.5 11.5q-19 60 -50.5 83t-95.5 23h-208v-301q39 0 78 0.5t79 2.5q41 2 76.5 7.5
t75.5 12.5h1q6 0 6 -5q0 -7 -6 -25t-9 -24q-5 -12 -16 -12q-25 0 -51.5 3.5t-52.5 3.5q-18 1 -36 0.5t-37 -0.5q-7 0 -14.5 0.5t-15.5 0.5q-15 0 -33 -2.5t-31.5 -12t-13.5 -30.5v-240q0 -34 17 -39.5t45 -5.5h80q28 0 62.5 3t67.5 13t54 29q23 21 32.5 46.5t22.5 51.5
q5 9 16 9t11 -12zM470 821l-12 -44l-254 50l17 67z" />
    <glyph glyph-name="Eacute" unicode="&#xc9;" horiz-adv-x="674" 
d="M642 171q0 -18 -3 -36.5t-5 -36.5q-3 -20 -4 -40.5t-6 -40.5q-1 -6 -5.5 -11.5t-11.5 -5.5q-107 0 -214 1.5t-214 1.5q-32 0 -64.5 -2.5t-64.5 -2.5q-5 0 -9.5 3.5t-4.5 8.5q0 6 3 11.5t10 5.5q21 0 40 2.5t31.5 14t12.5 37.5v574q0 23 -14 30.5t-34 7.5q-10 0 -19 -0.5
t-18 -0.5q-8 0 -14 4t-6 13q0 8 3 14t13 6q17 0 33.5 -1t32.5 -1q101 0 202 1.5t201 1.5q46 0 91 3q4 -29 10 -58t10 -58q2 -6 3 -11.5t1 -11.5q0 -10 -6.5 -14t-15.5 -4q-8 0 -11.5 3.5t-6.5 11.5q-19 60 -50.5 83t-95.5 23h-208v-301q39 0 78 0.5t79 2.5q41 2 76.5 7.5
t75.5 12.5h1q6 0 6 -5q0 -7 -6 -25t-9 -24q-5 -12 -16 -12q-25 0 -51.5 3.5t-52.5 3.5q-18 1 -36 0.5t-37 -0.5q-7 0 -14.5 0.5t-15.5 0.5q-15 0 -33 -2.5t-31.5 -12t-13.5 -30.5v-240q0 -34 17 -39.5t45 -5.5h80q28 0 62.5 3t67.5 13t54 29q23 21 32.5 46.5t22.5 51.5
q5 9 16 9t11 -12zM471 841l-254 -50l-15 44l250 73z" />
    <glyph glyph-name="Ecircumflex" unicode="&#xca;" horiz-adv-x="674" 
d="M642 171q0 -18 -3 -36.5t-5 -36.5q-3 -20 -4 -40.5t-6 -40.5q-1 -6 -5.5 -11.5t-11.5 -5.5q-107 0 -214 1.5t-214 1.5q-32 0 -64.5 -2.5t-64.5 -2.5q-5 0 -9.5 3.5t-4.5 8.5q0 6 3 11.5t10 5.5q21 0 40 2.5t31.5 14t12.5 37.5v574q0 23 -14 30.5t-34 7.5q-10 0 -19 -0.5
t-18 -0.5q-8 0 -14 4t-6 13q0 8 3 14t13 6q17 0 33.5 -1t32.5 -1q101 0 202 1.5t201 1.5q46 0 91 3q4 -29 10 -58t10 -58q2 -6 3 -11.5t1 -11.5q0 -10 -6.5 -14t-15.5 -4q-8 0 -11.5 3.5t-6.5 11.5q-19 60 -50.5 83t-95.5 23h-208v-301q39 0 78 0.5t79 2.5q41 2 76.5 7.5
t75.5 12.5h1q6 0 6 -5q0 -7 -6 -25t-9 -24q-5 -12 -16 -12q-25 0 -51.5 3.5t-52.5 3.5q-18 1 -36 0.5t-37 -0.5q-7 0 -14.5 0.5t-15.5 0.5q-15 0 -33 -2.5t-31.5 -12t-13.5 -30.5v-240q0 -34 17 -39.5t45 -5.5h80q28 0 62.5 3t67.5 13t54 29q23 21 32.5 46.5t22.5 51.5
q5 9 16 9t11 -12zM505 815l-7 -35l-163 52l-157 -51l-9 36l168 77z" />
    <glyph glyph-name="Edieresis" unicode="&#xcb;" horiz-adv-x="674" 
d="M642 171q0 -18 -3 -36.5t-5 -36.5q-3 -20 -4 -40.5t-6 -40.5q-1 -6 -5.5 -11.5t-11.5 -5.5q-107 0 -214 1.5t-214 1.5q-32 0 -64.5 -2.5t-64.5 -2.5q-5 0 -9.5 3.5t-4.5 8.5q0 6 3 11.5t10 5.5q21 0 40 2.5t31.5 14t12.5 37.5v574q0 23 -14 30.5t-34 7.5q-10 0 -19 -0.5
t-18 -0.5q-8 0 -14 4t-6 13q0 8 3 14t13 6q17 0 33.5 -1t32.5 -1q101 0 202 1.5t201 1.5q46 0 91 3q4 -29 10 -58t10 -58q2 -6 3 -11.5t1 -11.5q0 -10 -6.5 -14t-15.5 -4q-8 0 -11.5 3.5t-6.5 11.5q-19 60 -50.5 83t-95.5 23h-208v-301q39 0 78 0.5t79 2.5q41 2 76.5 7.5
t75.5 12.5h1q6 0 6 -5q0 -7 -6 -25t-9 -24q-5 -12 -16 -12q-25 0 -51.5 3.5t-52.5 3.5q-18 1 -36 0.5t-37 -0.5q-7 0 -14.5 0.5t-15.5 0.5q-15 0 -33 -2.5t-31.5 -12t-13.5 -30.5v-240q0 -34 17 -39.5t45 -5.5h80q28 0 62.5 3t67.5 13t54 29q23 21 32.5 46.5t22.5 51.5
q5 9 16 9t11 -12zM276 834q0 -22 -15 -38.5t-37 -16.5t-38 16.5t-16 38.5t16 38t38 16t37 -16.5t15 -37.5zM503 834q0 -22 -15 -38.5t-38 -16.5q-22 0 -37 16.5t-15 38.5t15 38t37 16q23 0 38 -16t15 -38z" />
    <glyph glyph-name="Igrave" unicode="&#xcc;" horiz-adv-x="413" 
d="M353 18q0 -4 -1 -10.5t-7 -6.5q-12 0 -23.5 1t-23.5 1q-49 3 -100 3q-22 0 -44 -1l-44 -2q-10 -1 -20.5 -2t-21.5 -1q-8 0 -8 10q0 7 1 13t10 6q10 0 19 -0.5t19 -0.5q12 0 28.5 6t16.5 20v621q0 17 -13 22.5t-30.5 5.5t-32 -0.5t-16.5 4.5q-1 2 -1 9q0 4 1 9.5t6 5.5
q33 0 66.5 -2t66.5 -2h45h32.5t32.5 1q8 1 15.5 1.5t14.5 0.5q11 0 11 -11q0 -6 -1 -11t-9 -5q-12 0 -23.5 0.5t-23.5 0.5t-25.5 -7.5t-13.5 -21.5v-621q0 -13 12 -19t24 -6q13 0 25.5 0.5t25.5 0.5q10 0 10 -12zM340 821l-12 -44l-255 50l17 67z" />
    <glyph glyph-name="Iacute" unicode="&#xcd;" horiz-adv-x="413" 
d="M353 18q0 -4 -1 -10.5t-7 -6.5q-12 0 -23.5 1t-23.5 1q-49 3 -100 3q-22 0 -44 -1l-44 -2q-10 -1 -20.5 -2t-21.5 -1q-8 0 -8 10q0 7 1 13t10 6q10 0 19 -0.5t19 -0.5q12 0 28.5 6t16.5 20v621q0 17 -13 22.5t-30.5 5.5t-32 -0.5t-16.5 4.5q-1 2 -1 9q0 4 1 9.5t6 5.5
q33 0 66.5 -2t66.5 -2h45h32.5t32.5 1q8 1 15.5 1.5t14.5 0.5q11 0 11 -11q0 -6 -1 -11t-9 -5q-12 0 -23.5 0.5t-23.5 0.5t-25.5 -7.5t-13.5 -21.5v-621q0 -13 12 -19t24 -6q13 0 25.5 0.5t25.5 0.5q10 0 10 -12zM337 826l-254 -50l-12 44l249 73z" />
    <glyph glyph-name="Icircumflex" unicode="&#xce;" horiz-adv-x="413" 
d="M353 18q0 -4 -1 -10.5t-7 -6.5q-12 0 -23.5 1t-23.5 1q-49 3 -100 3q-22 0 -44 -1l-44 -2q-10 -1 -20.5 -2t-21.5 -1q-8 0 -8 10q0 7 1 13t10 6q10 0 19 -0.5t19 -0.5q12 0 28.5 6t16.5 20v621q0 17 -13 22.5t-30.5 5.5t-32 -0.5t-16.5 4.5q-1 2 -1 9q0 4 1 9.5t6 5.5
q33 0 66.5 -2t66.5 -2h45h32.5t32.5 1q8 1 15.5 1.5t14.5 0.5q11 0 11 -11q0 -6 -1 -11t-9 -5q-12 0 -23.5 0.5t-23.5 0.5t-25.5 -7.5t-13.5 -21.5v-621q0 -13 12 -19t24 -6q13 0 25.5 0.5t25.5 0.5q10 0 10 -12zM375 818l-7 -35l-163 52l-157 -50l-10 35l169 77z" />
    <glyph glyph-name="Idieresis" unicode="&#xcf;" horiz-adv-x="413" 
d="M353 18q0 -4 -1 -10.5t-7 -6.5q-12 0 -23.5 1t-23.5 1q-49 3 -100 3q-22 0 -44 -1l-44 -2q-10 -1 -20.5 -2t-21.5 -1q-8 0 -8 10q0 7 1 13t10 6q10 0 19 -0.5t19 -0.5q12 0 28.5 6t16.5 20v621q0 17 -13 22.5t-30.5 5.5t-32 -0.5t-16.5 4.5q-1 2 -1 9q0 4 1 9.5t6 5.5
q33 0 66.5 -2t66.5 -2h45h32.5t32.5 1q8 1 15.5 1.5t14.5 0.5q11 0 11 -11q0 -6 -1 -11t-9 -5q-12 0 -23.5 0.5t-23.5 0.5t-25.5 -7.5t-13.5 -21.5v-621q0 -13 12 -19t24 -6q13 0 25.5 0.5t25.5 0.5q10 0 10 -12zM146 836q0 -22 -15.5 -38.5t-37.5 -16.5t-37.5 16.5
t-15.5 38.5q0 21 15.5 37.5t37.5 16.5t37.5 -16t15.5 -38zM373 836q0 -22 -15.5 -38.5t-37.5 -16.5t-37.5 16.5t-15.5 38.5t15.5 38t37.5 16t37.5 -16.5t15.5 -37.5z" />
    <glyph glyph-name="Eth" unicode="&#xd0;" horiz-adv-x="821" 
d="M664 376q0 42 -8.5 88.5t-26.5 89.5t-48 73q-28 28 -65.5 47.5t-77.5 23.5q-12 2 -24.5 2h-24.5q-39 0 -77.5 -1t-77.5 -2v-296h104v-44h-104v-275q0 -30 20 -39t45 -9q40 0 82.5 3t83 14.5t74.5 36.5q69 51 97 128.5t28 159.5zM775 391q0 -99 -41.5 -188t-127.5 -142
q-35 -21 -80.5 -34.5t-92.5 -19.5t-88 -6q-36 0 -72.5 2t-73.5 2q-29 0 -59 -0.5t-59 -2.5q-5 -1 -10 -1h-10q-6 0 -7 5t-1 9q0 7 10.5 10t23 5t17.5 5q17 9 22.5 26.5t5.5 35.5q0 65 0.5 130t0.5 130h-93v44h93v112.5v112.5q0 38 -9 54t-50 16q-7 0 -13.5 -0.5t-13.5 -0.5
t-12.5 4.5t-5.5 11.5q0 16 16 16q23 0 46 -1.5t45 -1.5q74 0 148.5 4.5t148.5 4.5q107 0 183.5 -41t117.5 -117.5t41 -183.5z" />
    <glyph glyph-name="Ntilde" unicode="&#xd1;" horiz-adv-x="780" 
d="M765 717q0 -4 -2 -9t-7 -5q-1 -1 -3 -1q-9 0 -18 1t-18 1q-24 0 -33 -7.5t-10 -21.5t-1 -33v-630q0 -3 -1.5 -6.5t-5.5 -3.5h-45q-4 23 -14.5 44.5t-24.5 38.5q-108 142 -216.5 283t-212.5 284v-597q0 -14 10.5 -20t24 -6.5t23.5 -0.5q8 0 15.5 1t15.5 1q9 0 9 -10
q0 -8 -1.5 -15t-12.5 -7q-9 0 -18 2t-19 2q-16 1 -31.5 1h-30.5q-28 0 -54.5 -2.5t-54.5 -2.5q-7 0 -7 9q0 5 1 13.5t8 8.5q11 0 21 -1t20 -1q16 0 28.5 4t13.5 24q2 48 1 96.5t-1 96.5q0 105 1.5 210.5t1.5 210.5q0 18 -9.5 25.5t-23.5 9t-28 1.5q-5 0 -11 -0.5t-11 -0.5
q-13 0 -13 10q0 7 1.5 12.5t10.5 5.5q26 0 52 -1.5t52 -1.5q18 0 36.5 0.5t36.5 1.5q37 -51 76 -99t78 -97q68 -83 136 -165.5t136 -165.5v472q0 15 -14.5 21t-26.5 6q-13 0 -25 -1t-25 -1q-4 0 -5.5 3.5t-1.5 7.5v5t1 6l1 5q3 5 10 5q14 0 29 -2.5t29 -2.5q38 0 75 2l74 4
q6 -4 7 -7.5t1 -9.5zM543 858q-13 -13 -26.5 -28.5t-29.5 -26.5t-38 -11q-24 0 -45.5 11t-41.5 22t-41 11t-37.5 -14.5t-29.5 -29.5l-21 14q13 18 27.5 37t33.5 31.5t44 12.5q23 0 43 -10.5t40.5 -21t44.5 -10.5q17 0 32.5 10.5t25.5 23.5z" />
    <glyph glyph-name="Ograve" unicode="&#xd2;" horiz-adv-x="820" 
d="M655 368q0 58 -12.5 118t-40.5 111t-75 82.5t-116 31.5q-68 0 -115 -33t-76 -85.5t-42 -113t-13 -116.5q0 -59 12 -118.5t40 -109t75.5 -79.5t118.5 -30t118 31t74.5 81.5t39.5 110.5t12 119zM764 371q0 -111 -40.5 -195.5t-119 -131.5t-193.5 -47q-112 0 -191.5 45.5
t-121.5 128t-42 192.5q0 77 25 145t72 120t112.5 81.5t145.5 29.5q112 0 190.5 -46.5t120.5 -129t42 -192.5zM543 821l-12 -44l-254 50l16 67z" />
    <glyph glyph-name="Oacute" unicode="&#xd3;" horiz-adv-x="820" 
d="M655 368q0 58 -12.5 118t-40.5 111t-75 82.5t-116 31.5q-68 0 -115 -33t-76 -85.5t-42 -113t-13 -116.5q0 -59 12 -118.5t40 -109t75.5 -79.5t118.5 -30t118 31t74.5 81.5t39.5 110.5t12 119zM764 371q0 -111 -40.5 -195.5t-119 -131.5t-193.5 -47q-112 0 -191.5 45.5
t-121.5 128t-42 192.5q0 77 25 145t72 120t112.5 81.5t145.5 29.5q112 0 190.5 -46.5t120.5 -129t42 -192.5zM543 826l-254 -50l-12 44l250 72z" />
    <glyph glyph-name="Ocircumflex" unicode="&#xd4;" horiz-adv-x="820" 
d="M655 368q0 58 -12.5 118t-40.5 111t-75 82.5t-116 31.5q-68 0 -115 -33t-76 -85.5t-42 -113t-13 -116.5q0 -59 12 -118.5t40 -109t75.5 -79.5t118.5 -30t118 31t74.5 81.5t39.5 110.5t12 119zM764 371q0 -111 -40.5 -195.5t-119 -131.5t-193.5 -47q-112 0 -191.5 45.5
t-121.5 128t-42 192.5q0 77 25 145t72 120t112.5 81.5t145.5 29.5q112 0 190.5 -46.5t120.5 -129t42 -192.5zM578 813l-7 -35l-163 52l-157 -51l-9 36l169 77z" />
    <glyph glyph-name="Otilde" unicode="&#xd5;" horiz-adv-x="820" 
d="M655 368q0 58 -12.5 118t-40.5 111t-75 82.5t-116 31.5q-68 0 -115 -33t-76 -85.5t-42 -113t-13 -116.5q0 -59 12 -118.5t40 -109t75.5 -79.5t118.5 -30t118 31t74.5 81.5t39.5 110.5t12 119zM764 371q0 -111 -40.5 -195.5t-119 -131.5t-193.5 -47q-112 0 -191.5 45.5
t-121.5 128t-42 192.5q0 77 25 145t72 120t112.5 81.5t145.5 29.5q112 0 190.5 -46.5t120.5 -129t42 -192.5zM565 860q-13 -13 -26.5 -28.5t-29.5 -26.5t-39 -11q-24 0 -45 11t-41 22t-41 11q-22 0 -38 -14t-29 -30l-21 14q13 18 27.5 37t33 31.5t43.5 12.5q23 0 43.5 -10.5
l41 -21t43.5 -10.5q17 0 33 10.5t25 23.5z" />
    <glyph glyph-name="Odieresis" unicode="&#xd6;" horiz-adv-x="820" 
d="M655 368q0 58 -12.5 118t-40.5 111t-75 82.5t-116 31.5q-68 0 -115 -33t-76 -85.5t-42 -113t-13 -116.5q0 -59 12 -118.5t40 -109t75.5 -79.5t118.5 -30t118 31t74.5 81.5t39.5 110.5t12 119zM764 371q0 -111 -40.5 -195.5t-119 -131.5t-193.5 -47q-112 0 -191.5 45.5
t-121.5 128t-42 192.5q0 77 25 145t72 120t112.5 81.5t145.5 29.5q112 0 190.5 -46.5t120.5 -129t42 -192.5zM350 836q0 -22 -15.5 -38.5t-38.5 -16.5q-22 0 -37 16.5t-15 38.5q0 21 15 37.5t37 16.5q23 0 38.5 -16t15.5 -38zM576 836q0 -22 -15 -38.5t-37 -16.5t-38 16.5
t-16 38.5t16 38t38 16t37 -16.5t15 -37.5z" />
    <glyph glyph-name="multiply" unicode="&#xd7;" horiz-adv-x="750" 
d="M634 140l-33 -34l-224 221l-228 -225l-33 35l228 226l-221 217l33 34l220 -219l219 217l35 -35l-219 -216z" />
    <glyph glyph-name="Oslash" unicode="&#xd8;" horiz-adv-x="820" 
d="M658 366q0 50 -8 98t-27 94l-401 -415q64 -115 195 -115q70 0 116.5 30.5t74 80.5t39 109.5t11.5 117.5zM603 598q-63 107 -186 107q-67 0 -113.5 -32t-75 -84t-41.5 -112t-13 -116q0 -96 31 -183zM768 709l-85 -87q44 -52 63 -118t19 -134q0 -109 -39.5 -193t-117 -131
t-191.5 -47q-69 0 -132 21t-115 67l-90 -91l-28 20l93 98q-42 53 -60 117t-18 130q0 77 25 144t71 118.5t110.5 80.5t143.5 29q65 0 126 -19t111 -62l84 88z" />
    <glyph glyph-name="Ugrave" unicode="&#xd9;" horiz-adv-x="756" 
d="M743 717q0 -10 -5 -12t-13 -2q-7 0 -14 0.5t-14 0.5q-14 0 -27.5 -4.5t-15.5 -21.5q-1 -17 -1 -35v-36q0 -82 1.5 -164.5t1.5 -165.5q0 -85 -25 -148.5t-80.5 -98.5t-147.5 -35q-133 0 -209.5 64.5t-76.5 202.5v398q0 5 0.5 10.5t-0.5 9.5q-1 19 -19.5 23t-33.5 4
q-7 0 -14.5 -0.5t-15.5 -0.5q-3 0 -7 4q-1 4 -1 11q0 11 13 11q11 0 21 -0.5t20 -1.5q23 -1 45 -1.5t44 -0.5q35 0 69.5 2t69.5 2q13 0 13 -12q0 -4 -2 -9.5t-8 -5.5q-13 0 -25 0.5t-25 0.5q-11 0 -25 -6t-16 -19q-3 -16 -2 -34.5t1 -35.5q0 -91 -1 -182t-1 -182
q0 -72 15 -120t56 -72.5t120 -24.5q77 0 122.5 32t65.5 87t20 125q0 101 -0.5 202t-0.5 202q0 14 -15 20t-27 6t-24 -1t-25 -1q-6 0 -6 9q0 8 0.5 14t10.5 6q14 0 29 -1.5t29 -1.5q50 0 99 3q13 0 25.5 1t24.5 1q6 0 6.5 -6t0.5 -10zM511 822l-12 -45l-254 50l16 67z" />
    <glyph glyph-name="Uacute" unicode="&#xda;" horiz-adv-x="756" 
d="M743 717q0 -10 -5 -12t-13 -2q-7 0 -14 0.5t-14 0.5q-14 0 -27.5 -4.5t-15.5 -21.5q-1 -17 -1 -35v-36q0 -82 1.5 -164.5t1.5 -165.5q0 -85 -25 -148.5t-80.5 -98.5t-147.5 -35q-133 0 -209.5 64.5t-76.5 202.5v398q0 5 0.5 10.5t-0.5 9.5q-1 19 -19.5 23t-33.5 4
q-7 0 -14.5 -0.5t-15.5 -0.5q-3 0 -7 4q-1 4 -1 11q0 11 13 11q11 0 21 -0.5t20 -1.5q23 -1 45 -1.5t44 -0.5q35 0 69.5 2t69.5 2q13 0 13 -12q0 -4 -2 -9.5t-8 -5.5q-13 0 -25 0.5t-25 0.5q-11 0 -25 -6t-16 -19q-3 -16 -2 -34.5t1 -35.5q0 -91 -1 -182t-1 -182
q0 -72 15 -120t56 -72.5t120 -24.5q77 0 122.5 32t65.5 87t20 125q0 101 -0.5 202t-0.5 202q0 14 -15 20t-27 6t-24 -1t-25 -1q-6 0 -6 9q0 8 0.5 14t10.5 6q14 0 29 -1.5t29 -1.5q50 0 99 3q13 0 25.5 1t24.5 1q6 0 6.5 -6t0.5 -10zM511 826l-255 -50l-11 45l249 72z" />
    <glyph glyph-name="Ucircumflex" unicode="&#xdb;" horiz-adv-x="756" 
d="M743 717q0 -10 -5 -12t-13 -2q-7 0 -14 0.5t-14 0.5q-14 0 -27.5 -4.5t-15.5 -21.5q-1 -17 -1 -35v-36q0 -82 1.5 -164.5t1.5 -165.5q0 -85 -25 -148.5t-80.5 -98.5t-147.5 -35q-133 0 -209.5 64.5t-76.5 202.5v398q0 5 0.5 10.5t-0.5 9.5q-1 19 -19.5 23t-33.5 4
q-7 0 -14.5 -0.5t-15.5 -0.5q-3 0 -7 4q-1 4 -1 11q0 11 13 11q11 0 21 -0.5t20 -1.5q23 -1 45 -1.5t44 -0.5q35 0 69.5 2t69.5 2q13 0 13 -12q0 -4 -2 -9.5t-8 -5.5q-13 0 -25 0.5t-25 0.5q-11 0 -25 -6t-16 -19q-3 -16 -2 -34.5t1 -35.5q0 -91 -1 -182t-1 -182
q0 -72 15 -120t56 -72.5t120 -24.5q77 0 122.5 32t65.5 87t20 125q0 101 -0.5 202t-0.5 202q0 14 -15 20t-27 6t-24 -1t-25 -1q-6 0 -6 9q0 8 0.5 14t10.5 6q14 0 29 -1.5t29 -1.5q50 0 99 3q13 0 25.5 1t24.5 1q6 0 6.5 -6t0.5 -10zM546 816l-7 -35l-163 52l-157 -51l-9 36
l169 77z" />
    <glyph glyph-name="Udieresis" unicode="&#xdc;" horiz-adv-x="756" 
d="M743 717q0 -10 -5 -12t-13 -2q-7 0 -14 0.5t-14 0.5q-14 0 -27.5 -4.5t-15.5 -21.5q-1 -17 -1 -35v-36q0 -82 1.5 -164.5t1.5 -165.5q0 -85 -25 -148.5t-80.5 -98.5t-147.5 -35q-133 0 -209.5 64.5t-76.5 202.5v398q0 5 0.5 10.5t-0.5 9.5q-1 19 -19.5 23t-33.5 4
q-7 0 -14.5 -0.5t-15.5 -0.5q-3 0 -7 4q-1 4 -1 11q0 11 13 11q11 0 21 -0.5t20 -1.5q23 -1 45 -1.5t44 -0.5q35 0 69.5 2t69.5 2q13 0 13 -12q0 -4 -2 -9.5t-8 -5.5q-13 0 -25 0.5t-25 0.5q-11 0 -25 -6t-16 -19q-3 -16 -2 -34.5t1 -35.5q0 -91 -1 -182t-1 -182
q0 -72 15 -120t56 -72.5t120 -24.5q77 0 122.5 32t65.5 87t20 125q0 101 -0.5 202t-0.5 202q0 14 -15 20t-27 6t-24 -1t-25 -1q-6 0 -6 9q0 8 0.5 14t10.5 6q14 0 29 -1.5t29 -1.5q50 0 99 3q13 0 25.5 1t24.5 1q6 0 6.5 -6t0.5 -10zM317 837q0 -22 -15 -38.5t-38 -16.5
q-22 0 -37 16.5t-15 38.5t15 38t37 16q23 0 38 -16t15 -38zM544 837q0 -22 -15.5 -38.5t-37.5 -16.5t-37.5 16.5t-15.5 38.5q0 21 15.5 37.5t37.5 16.5t37.5 -16t15.5 -38z" />
    <glyph glyph-name="Yacute" unicode="&#xdd;" horiz-adv-x="693" 
d="M700 720q0 -9 -5 -11.5t-13 -2.5q-4 0 -8 0.5t-8 0.5q-7 0 -18 -1t-17 -4q-7 -3 -14 -11.5t-12 -16.5q-51 -87 -101 -174.5t-101 -174.5q0 -16 -0.5 -32t-0.5 -32v-178q0 -21 5 -40t32 -19q15 0 29.5 1.5t28.5 1.5q8 0 8 -11q0 -7 -2 -11.5t-11 -4.5q-26 0 -52 1t-52 1
q-45 0 -90 -1.5t-89 -1.5q-14 0 -14 15q0 5 5.5 8t9.5 3q11 0 22 -0.5t22 -0.5q14 0 29 4.5t15 21.5v176q0 44 -8 79t-28 74q-16 34 -36 72.5t-40 75.5t-37.5 67.5t-28.5 48.5q-5 10 -11.5 19t-13.5 18q-16 18 -42 18q-9 0 -18.5 -1t-19.5 -1q-12 0 -12 12q0 8 2.5 11
t11.5 4q10 1 21 2t21 2q17 2 37 4.5t33 3.5q9 2 19.5 3t18.5 1q10 0 15 -4t9 -13q6 -10 11 -19t10 -19q44 -82 85 -166.5t80 -169.5q7 11 22.5 38t36.5 64t43 76.5t41 75.5t30.5 61t11.5 33q0 9 -6 11.5t-14 2.5q-13 0 -25.5 -1t-25.5 -1q-6 0 -8 4.5t-2 9.5q0 9 5 10.5
t12 1.5q26 0 53 -1t53 -1q21 0 42 1t43 1q5 0 8 -4.5t3 -9.5zM480 826l-254 -50l-13 44l250 72z" />
    <glyph glyph-name="Thorn" unicode="&#xde;" horiz-adv-x="742" 
d="M560 410q0 50 -19 80t-50.5 45.5t-70 21t-78.5 5.5q-23 0 -46.5 -3.5t-46.5 -7.5v-282q26 -16 61 -21.5t65 -5.5q80 0 132.5 41.5t52.5 126.5zM663 411q0 -63 -26 -102.5t-68.5 -61t-94.5 -29.5t-103 -8q-30 0 -60.5 4t-60.5 8q0 -14 0.5 -28t0.5 -28q0 -15 -1 -36.5
t2 -42t14 -34.5t35 -14q9 0 17.5 0.5t16.5 0.5q16 0 16 -16q0 -13 -7.5 -16.5t-18.5 -3.5q-28 0 -56 1.5t-57 1.5q-35 0 -69.5 -2t-69.5 -2q-8 0 -10.5 3.5t-2.5 10.5v4q1 15 16 15.5t25 1.5q37 4 48.5 22t11.5 55q0 80 0.5 160.5t0.5 159.5q0 57 -0.5 114t-0.5 113
q0 20 -12.5 27.5t-29.5 7.5q-13 0 -26.5 0.5t-27.5 0.5q-11 0 -14 7t-3 16q0 5 1.5 9t8.5 4h137q35 0 70.5 1t69.5 1q8 0 8.5 -6.5t0.5 -12.5q0 -1 -0.5 -3l-0.5 -2q-4 -4 -18.5 -4t-32 -0.5t-30 -6t-12.5 -20.5q0 -23 -0.5 -46.5t-0.5 -46.5q47 0 93 2t92 2q60 0 112 -17
t84.5 -56.5t32.5 -107.5z" />
    <glyph glyph-name="germandbls" unicode="&#xdf;" horiz-adv-x="615" 
d="M567 214q0 -52 -16 -99.5t-52 -77.5t-96 -30q-40 0 -68.5 22t-42.5 59q2 20 3 40.5t5 41.5q0 2 0.5 6t3.5 4q2 0 3 -6.5t1 -8.5q2 -22 11 -48.5t26.5 -46t44.5 -19.5q32 0 49.5 21.5t25 53.5t9.5 64.5t2 54.5q0 58 -24.5 103.5t-82.5 63.5q-13 4 -22.5 11t-9.5 22
q0 10 4.5 18t11.5 15q26 27 35.5 59t9.5 68q0 34 -7.5 62.5t-28 45.5t-60.5 17q-42 0 -65.5 -23t-34 -57.5t-13.5 -72.5t-3 -68v-416q0 -18 8 -38t30 -20q8 0 16 0.5t16 0.5q7 -4 7 -13q0 -6 -8 -12q-27 2 -54.5 3t-54.5 1h-32t-32 -1q-11 0 -22 -1.5t-22 -1.5q-12 0 -12 11
q0 9 5.5 12t12.5 3q6 0 11.5 -1t11.5 -1q29 0 35.5 17.5t6.5 40.5v322q-18 0 -36 -1t-36 -1q-12 0 -12 12q0 8 3.5 10.5t10.5 2.5q17 0 35 -0.5t35 -0.5q-1 17 -2.5 34.5t-1.5 34.5q0 44 10 87.5t32 79t57.5 57t86.5 21.5q40 0 80.5 -16t68 -47t27.5 -76q0 -42 -20 -86
t-55 -68q-4 -2 -12.5 -7t-8.5 -8q0 -4 8 -6.5t12 -3.5q86 -25 131 -75.5t45 -143.5z" />
    <glyph glyph-name="agrave" unicode="&#xe0;" horiz-adv-x="544" 
d="M362 117q-4 45 -4.5 90.5t-1.5 91.5h-14q-31 0 -68.5 -9.5t-71.5 -28.5t-55.5 -47.5t-21.5 -65.5q0 -48 27 -72.5t73 -24.5q22 0 48 10.5t50 25.5t39 30zM537 53q0 -4 -1 -6q-10 -22 -33.5 -33.5t-46.5 -11.5q-42 0 -60.5 24.5t-29.5 60.5q-38 -35 -84 -58.5t-99 -23.5
q-37 0 -69.5 14.5t-52.5 42.5t-20 68q0 42 21.5 72.5t55 52t72 35t72.5 20.5q23 5 47 9t47 8q0 28 -2.5 65t-15.5 61q-13 23 -35 41t-49 18q-46 0 -72 -24t-37 -68q-1 -5 -1.5 -10.5t-1.5 -10.5q-1 -6 -7.5 -10.5t-13.5 -4.5q-19 0 -34.5 9t-15.5 30q0 12 4 21
q13 31 42 51.5t64.5 31.5t66.5 11q54 0 98 -20t70.5 -58.5t26.5 -96.5q0 -65 -0.5 -131t3.5 -132q1 -22 9 -38.5t33 -16.5q13 0 27.5 6.5t18.5 6.5q3 0 3 -5zM405 680l-12 -45l-254 51l16 66z" />
    <glyph glyph-name="aacute" unicode="&#xe1;" horiz-adv-x="544" 
d="M362 117q-4 45 -4.5 90.5t-1.5 91.5h-14q-31 0 -68.5 -9.5t-71.5 -28.5t-55.5 -47.5t-21.5 -65.5q0 -48 27 -72.5t73 -24.5q22 0 48 10.5t50 25.5t39 30zM537 53q0 -4 -1 -6q-10 -22 -33.5 -33.5t-46.5 -11.5q-42 0 -60.5 24.5t-29.5 60.5q-38 -35 -84 -58.5t-99 -23.5
q-37 0 -69.5 14.5t-52.5 42.5t-20 68q0 42 21.5 72.5t55 52t72 35t72.5 20.5q23 5 47 9t47 8q0 28 -2.5 65t-15.5 61q-13 23 -35 41t-49 18q-46 0 -72 -24t-37 -68q-1 -5 -1.5 -10.5t-1.5 -10.5q-1 -6 -7.5 -10.5t-13.5 -4.5q-19 0 -34.5 9t-15.5 30q0 12 4 21
q13 31 42 51.5t64.5 31.5t66.5 11q54 0 98 -20t70.5 -58.5t26.5 -96.5q0 -65 -0.5 -131t3.5 -132q1 -22 9 -38.5t33 -16.5q13 0 27.5 6.5t18.5 6.5q3 0 3 -5zM405 686l-254 -51l-12 45l250 72z" />
    <glyph glyph-name="acircumflex" unicode="&#xe2;" horiz-adv-x="544" 
d="M362 117q-4 45 -4.5 90.5t-1.5 91.5h-14q-31 0 -68.5 -9.5t-71.5 -28.5t-55.5 -47.5t-21.5 -65.5q0 -48 27 -72.5t73 -24.5q22 0 48 10.5t50 25.5t39 30zM537 53q0 -4 -1 -6q-10 -22 -33.5 -33.5t-46.5 -11.5q-42 0 -60.5 24.5t-29.5 60.5q-38 -35 -84 -58.5t-99 -23.5
q-37 0 -69.5 14.5t-52.5 42.5t-20 68q0 42 21.5 72.5t55 52t72 35t72.5 20.5q23 5 47 9t47 8q0 28 -2.5 65t-15.5 61q-13 23 -35 41t-49 18q-46 0 -72 -24t-37 -68q-1 -5 -1.5 -10.5t-1.5 -10.5q-1 -6 -7.5 -10.5t-13.5 -4.5q-19 0 -34.5 9t-15.5 30q0 12 4 21
q13 31 42 51.5t64.5 31.5t66.5 11q54 0 98 -20t70.5 -58.5t26.5 -96.5q0 -65 -0.5 -131t3.5 -132q1 -22 9 -38.5t33 -16.5q13 0 27.5 6.5t18.5 6.5q3 0 3 -5zM440 671l-7 -36l-163 53l-157 -51l-9 37l169 77z" />
    <glyph glyph-name="atilde" unicode="&#xe3;" horiz-adv-x="544" 
d="M362 117q-4 45 -4.5 90.5t-1.5 91.5h-14q-31 0 -68.5 -9.5t-71.5 -28.5t-55.5 -47.5t-21.5 -65.5q0 -48 27 -72.5t73 -24.5q22 0 48 10.5t50 25.5t39 30zM537 53q0 -4 -1 -6q-10 -22 -33.5 -33.5t-46.5 -11.5q-42 0 -60.5 24.5t-29.5 60.5q-38 -35 -84 -58.5t-99 -23.5
q-37 0 -69.5 14.5t-52.5 42.5t-20 68q0 42 21.5 72.5t55 52t72 35t72.5 20.5q23 5 47 9t47 8q0 28 -2.5 65t-15.5 61q-13 23 -35 41t-49 18q-46 0 -72 -24t-37 -68q-1 -5 -1.5 -10.5t-1.5 -10.5q-1 -6 -7.5 -10.5t-13.5 -4.5q-19 0 -34.5 9t-15.5 30q0 12 4 21
q13 31 42 51.5t64.5 31.5t66.5 11q54 0 98 -20t70.5 -58.5t26.5 -96.5q0 -65 -0.5 -131t3.5 -132q1 -22 9 -38.5t33 -16.5q13 0 27.5 6.5t18.5 6.5q3 0 3 -5zM427 721q-14 -14 -27 -30t-28.5 -26.5t-38.5 -10.5q-24 0 -45 11t-40.5 22t-42.5 11q-22 0 -38 -14t-29 -29
l-21 13q13 18 27.5 37t33 32t43.5 13q24 0 44.5 -10.5t41 -21.5t43.5 -11q17 0 32 11t25 24z" />
    <glyph glyph-name="adieresis" unicode="&#xe4;" horiz-adv-x="544" 
d="M362 117q-4 45 -4.5 90.5t-1.5 91.5h-14q-31 0 -68.5 -9.5t-71.5 -28.5t-55.5 -47.5t-21.5 -65.5q0 -48 27 -72.5t73 -24.5q22 0 48 10.5t50 25.5t39 30zM537 53q0 -4 -1 -6q-10 -22 -33.5 -33.5t-46.5 -11.5q-42 0 -60.5 24.5t-29.5 60.5q-38 -35 -84 -58.5t-99 -23.5
q-37 0 -69.5 14.5t-52.5 42.5t-20 68q0 42 21.5 72.5t55 52t72 35t72.5 20.5q23 5 47 9t47 8q0 28 -2.5 65t-15.5 61q-13 23 -35 41t-49 18q-46 0 -72 -24t-37 -68q-1 -5 -1.5 -10.5t-1.5 -10.5q-1 -6 -7.5 -10.5t-13.5 -4.5q-19 0 -34.5 9t-15.5 30q0 12 4 21
q13 31 42 51.5t64.5 31.5t66.5 11q54 0 98 -20t70.5 -58.5t26.5 -96.5q0 -65 -0.5 -131t3.5 -132q1 -22 9 -38.5t33 -16.5q13 0 27.5 6.5t18.5 6.5q3 0 3 -5zM212 700q0 -22 -15.5 -38t-38.5 -16q-22 0 -37 16t-15 38t15 38t37 16q23 0 38.5 -16t15.5 -38zM438 700
q0 -22 -15 -38t-37 -16t-37.5 16t-15.5 38t15.5 38t37.5 16t37 -16t15 -38z" />
    <glyph glyph-name="aring" unicode="&#xe5;" horiz-adv-x="544" 
d="M362 117q-4 45 -4.5 90.5t-1.5 91.5h-14q-31 0 -68.5 -9.5t-71.5 -28.5t-55.5 -47.5t-21.5 -65.5q0 -48 27 -72.5t73 -24.5q22 0 48 10.5t50 25.5t39 30zM323 689q0 21 -16 33.5t-36 12.5q-19 0 -34.5 -13t-15.5 -34q0 -20 15.5 -32.5t34.5 -12.5q20 0 36 12.5t16 33.5z
M537 53q0 -4 -1 -6q-10 -22 -33.5 -33.5t-46.5 -11.5q-42 0 -60.5 24.5t-29.5 60.5q-38 -35 -84 -58.5t-99 -23.5q-37 0 -69.5 14.5t-52.5 42.5t-20 68q0 42 21.5 72.5t55 52t72 35t72.5 20.5q23 5 47 9t47 8q0 28 -2.5 65t-15.5 61q-13 23 -35 41t-49 18q-46 0 -72 -24
t-37 -68q-1 -5 -1.5 -10.5t-1.5 -10.5q-1 -6 -7.5 -10.5t-13.5 -4.5q-19 0 -34.5 9t-15.5 30q0 12 4 21q13 31 42 51.5t64.5 31.5t66.5 11q54 0 98 -20t70.5 -58.5t26.5 -96.5q0 -65 -0.5 -131t3.5 -132q1 -22 9 -38.5t33 -16.5q13 0 27.5 6.5t18.5 6.5q3 0 3 -5zM358 688
q0 -35 -26 -57.5t-61 -22.5q-34 0 -59.5 23t-25.5 58q0 37 26.5 59.5t61.5 22.5q34 0 59 -24t25 -59z" />
    <glyph glyph-name="ae" unicode="&#xe6;" horiz-adv-x="869" 
d="M371 120q-9 44 -9 88.5t-2 88.5h-16q-31 0 -68 -10t-70 -29t-54 -47t-21 -65q0 -47 27 -72.5t73 -25.5q22 0 48.5 12t51.5 28.5t40 31.5zM705 348q0 29 -3 58t-12.5 53.5t-30.5 39t-59 14.5q-46 0 -75 -25.5t-45 -64t-24 -77.5q24 -1 48 -1.5t47 -0.5q39 0 77.5 1.5
t76.5 2.5zM818 117q0 -1 -1 -3l-1 -2q-5 -10 -18 -23.5t-27.5 -26t-24.5 -19.5q-33 -22 -70 -35t-77 -13q-27 0 -59 5t-62.5 16t-54.5 30.5t-34 48.5q-13 -12 -35.5 -28t-46 -29.5t-40.5 -20.5q-19 -7 -38.5 -10.5t-39.5 -3.5q-37 0 -69.5 14.5t-52.5 42.5t-20 68t20 69.5
t50.5 50.5t63.5 34q43 17 89 25.5t91 16.5q-1 32 -3 65t-17 61q-11 23 -32 41t-49 18q-46 0 -75 -24t-40 -68q-1 -5 -2.5 -10t-3.5 -10t-6 -10t-11 -5q-18 0 -32.5 8.5t-14.5 28.5q0 13 4 22q6 17 22 32.5t36 27t36 16.5q21 7 48.5 11t49.5 4q46 0 86 -19t65 -59
q36 35 84 57.5t99 22.5q89 0 142.5 -52.5t53.5 -141.5q0 -17 -7.5 -22t-22.5 -5q-20 0 -40.5 1t-40.5 2q-26 2 -52.5 2h-52.5q-34 0 -67.5 -0.5t-66.5 -1.5q-1 -16 -2.5 -31t-1.5 -31q0 -37 8.5 -76t27 -72.5t49 -54t74.5 -20.5t81.5 13t70.5 43q10 9 19 20t19 19q5 5 11 5
t8.5 -4.5t2.5 -9.5z" />
    <glyph glyph-name="ccedilla" unicode="&#xe7;" horiz-adv-x="540" 
d="M521 122q0 -4 -2 -7q-22 -33 -58 -59t-77.5 -41.5t-80.5 -15.5q-7 0 -13 0.5t-12 0.5q-10 -16 -20.5 -30t-20.5 -29q16 2 31.5 3t31.5 1q19 0 41.5 -3.5t39 -15t16.5 -35.5q0 -26 -14.5 -41t-36.5 -22.5t-46 -9.5t-43 -2t-41.5 6.5t-40.5 15.5q-6 3 -20.5 12t-14.5 16
q0 8 7 8q3 0 14 -4.5t15 -6.5q19 -6 39.5 -8.5t39.5 -2.5q11 0 31 3.5t36.5 11.5t16.5 23q0 13 -11.5 20t-25.5 10.5t-24 3.5q-21 0 -40.5 -5t-39.5 -12q11 26 23.5 50t23.5 49q-62 13 -106 49t-67 89t-23 115q0 74 30 139t94 105q28 17 62 27t66 10q38 0 75 -16
q17 -7 36 -15.5t37 -8.5q8 0 15 2t14 3q2 -31 4 -63t3 -64v-3q0 -12 -2.5 -16.5t-16.5 -4.5q-7 0 -9 7t-4 13q-7 29 -21.5 60.5t-37.5 51.5q-15 14 -37 23t-42 9q-48 0 -81 -24.5t-53.5 -63t-29.5 -82.5t-9 -83t9 -79t28.5 -74.5t51.5 -55.5t78 -21q60 0 101.5 20.5
t80.5 64.5q3 2 4.5 6t5.5 6q2 2 8 2q12 0 12 -12z" />
    <glyph glyph-name="egrave" unicode="&#xe8;" horiz-adv-x="545" 
d="M408 351q-1 41 -7 78.5t-29 62t-75 24.5q-47 0 -76.5 -25.5t-45.5 -64t-24 -78.5q25 -1 49 -1.5t48 -0.5q40 0 80 1.5t80 3.5zM523 122q0 -5 -2 -6q-3 -10 -14.5 -24t-25.5 -26.5t-23 -18.5q-33 -23 -74.5 -37t-82.5 -14q-34 0 -75.5 11t-70.5 30q-56 37 -82 97t-26 125
q0 74 29 137t93 102q29 17 65 28.5t69 11.5q59 0 104 -24t70.5 -67.5t25.5 -103.5q0 -17 -7.5 -22t-22.5 -5q-20 0 -40 1l-40 2q-28 2 -55.5 2h-55.5h-68t-68 -2q-1 -16 -2 -31t-1 -31q0 -37 9 -76.5t29 -73t51 -54t75 -20.5q45 0 86 14t75 45q9 9 16.5 19.5t16.5 18.5
q5 5 11 5q5 0 8 -4t3 -9zM406 683l-13 -44l-254 50l17 66z" />
    <glyph glyph-name="eacute" unicode="&#xe9;" horiz-adv-x="545" 
d="M408 351q-1 41 -7 78.5t-29 62t-75 24.5q-47 0 -76.5 -25.5t-45.5 -64t-24 -78.5q25 -1 49 -1.5t48 -0.5q40 0 80 1.5t80 3.5zM523 122q0 -5 -2 -6q-3 -10 -14.5 -24t-25.5 -26.5t-23 -18.5q-33 -23 -74.5 -37t-82.5 -14q-34 0 -75.5 11t-70.5 30q-56 37 -82 97t-26 125
q0 74 29 137t93 102q29 17 65 28.5t69 11.5q59 0 104 -24t70.5 -67.5t25.5 -103.5q0 -17 -7.5 -22t-22.5 -5q-20 0 -40 1l-40 2q-28 2 -55.5 2h-55.5h-68t-68 -2q-1 -16 -2 -31t-1 -31q0 -37 9 -76.5t29 -73t51 -54t75 -20.5q45 0 86 14t75 45q9 9 16.5 19.5t16.5 18.5
q5 5 11 5q5 0 8 -4t3 -9zM406 693l-254 -50l-13 44l249 72z" />
    <glyph glyph-name="ecircumflex" unicode="&#xea;" horiz-adv-x="545" 
d="M408 351q-1 41 -7 78.5t-29 62t-75 24.5q-47 0 -76.5 -25.5t-45.5 -64t-24 -78.5q25 -1 49 -1.5t48 -0.5q40 0 80 1.5t80 3.5zM523 122q0 -5 -2 -6q-3 -10 -14.5 -24t-25.5 -26.5t-23 -18.5q-33 -23 -74.5 -37t-82.5 -14q-34 0 -75.5 11t-70.5 30q-56 37 -82 97t-26 125
q0 74 29 137t93 102q29 17 65 28.5t69 11.5q59 0 104 -24t70.5 -67.5t25.5 -103.5q0 -17 -7.5 -22t-22.5 -5q-20 0 -40 1l-40 2q-28 2 -55.5 2h-55.5h-68t-68 -2q-1 -16 -2 -31t-1 -31q0 -37 9 -76.5t29 -73t51 -54t75 -20.5q45 0 86 14t75 45q9 9 16.5 19.5t16.5 18.5
q5 5 11 5q5 0 8 -4t3 -9zM441 661l-7 -36l-163 53l-157 -51l-10 37l169 77z" />
    <glyph glyph-name="edieresis" unicode="&#xeb;" horiz-adv-x="545" 
d="M408 351q-1 41 -7 78.5t-29 62t-75 24.5q-47 0 -76.5 -25.5t-45.5 -64t-24 -78.5q25 -1 49 -1.5t48 -0.5q40 0 80 1.5t80 3.5zM523 122q0 -5 -2 -6q-3 -10 -14.5 -24t-25.5 -26.5t-23 -18.5q-33 -23 -74.5 -37t-82.5 -14q-34 0 -75.5 11t-70.5 30q-56 37 -82 97t-26 125
q0 74 29 137t93 102q29 17 65 28.5t69 11.5q59 0 104 -24t70.5 -67.5t25.5 -103.5q0 -17 -7.5 -22t-22.5 -5q-20 0 -40 1l-40 2q-28 2 -55.5 2h-55.5h-68t-68 -2q-1 -16 -2 -31t-1 -31q0 -37 9 -76.5t29 -73t51 -54t75 -20.5q45 0 86 14t75 45q9 9 16.5 19.5t16.5 18.5
q5 5 11 5q5 0 8 -4t3 -9zM211 690q0 -22 -15 -38t-37 -16t-37.5 16t-15.5 38t15.5 38.5t37.5 16.5t37 -16.5t15 -38.5zM439 690q0 -21 -15.5 -37.5t-37.5 -16.5t-37.5 16t-15.5 38t15.5 38.5t37.5 16.5t37.5 -16.5t15.5 -38.5z" />
    <glyph glyph-name="igrave" unicode="&#xec;" horiz-adv-x="344" 
d="M317 15q0 -5 -3 -9.5t-8 -4.5q-28 0 -55.5 1.5t-56.5 1.5h-27q-30 0 -59.5 -1.5t-58.5 -1.5q-4 0 -5.5 5t-1.5 8q0 5 1 7.5t6 3.5q5 2 11.5 1.5t12.5 -0.5q7 0 13 -0.5t13 -0.5q14 0 25.5 6.5t11.5 22.5v400q0 17 -6 26.5t-25 9.5q-14 0 -28.5 -1.5t-28.5 -3.5q-8 0 -8 9
q0 10 8 13q12 4 25.5 5.5t25.5 3.5q28 5 56 11t55 13q3 1 8 1q11 0 11 -12q0 -118 -0.5 -237t-0.5 -238q0 -16 14.5 -22.5t27.5 -6.5q10 0 20.5 1t20.5 1q4 0 5 -5t1 -7zM305 683l-12 -44l-254 50l16 67z" />
    <glyph glyph-name="iacute" unicode="&#xed;" horiz-adv-x="344" 
d="M317 15q0 -5 -3 -9.5t-8 -4.5q-28 0 -55.5 1.5t-56.5 1.5h-27q-30 0 -59.5 -1.5t-58.5 -1.5q-4 0 -5.5 5t-1.5 8q0 5 1 7.5t6 3.5q5 2 11.5 1.5t12.5 -0.5q7 0 13 -0.5t13 -0.5q14 0 25.5 6.5t11.5 22.5v400q0 17 -6 26.5t-25 9.5q-14 0 -28.5 -1.5t-28.5 -3.5q-8 0 -8 9
q0 10 8 13q12 4 25.5 5.5t25.5 3.5q28 5 56 11t55 13q3 1 8 1q11 0 11 -12q0 -118 -0.5 -237t-0.5 -238q0 -16 14.5 -22.5t27.5 -6.5q10 0 20.5 1t20.5 1q4 0 5 -5t1 -7zM305 693l-254 -50l-12 44l249 72z" />
    <glyph glyph-name="icircumflex" unicode="&#xee;" horiz-adv-x="344" 
d="M317 15q0 -5 -3 -9.5t-8 -4.5q-28 0 -55.5 1.5t-56.5 1.5h-27q-30 0 -59.5 -1.5t-58.5 -1.5q-4 0 -5.5 5t-1.5 8q0 5 1 7.5t6 3.5q5 2 11.5 1.5t12.5 -0.5q7 0 13 -0.5t13 -0.5q14 0 25.5 6.5t11.5 22.5v400q0 17 -6 26.5t-25 9.5q-14 0 -28.5 -1.5t-28.5 -3.5q-8 0 -8 9
q0 10 8 13q12 4 25.5 5.5t25.5 3.5q28 5 56 11t55 13q3 1 8 1q11 0 11 -12q0 -118 -0.5 -237t-0.5 -238q0 -16 14.5 -22.5t27.5 -6.5q10 0 20.5 1t20.5 1q4 0 5 -5t1 -7zM340 661l-7 -36l-163 53l-157 -51l-9 36l168 78z" />
    <glyph glyph-name="idieresis" unicode="&#xef;" horiz-adv-x="344" 
d="M317 15q0 -5 -3 -9.5t-8 -4.5q-28 0 -55.5 1.5t-56.5 1.5h-27q-30 0 -59.5 -1.5t-58.5 -1.5q-4 0 -5.5 5t-1.5 8q0 5 1 7.5t6 3.5q5 2 11.5 1.5t12.5 -0.5q7 0 13 -0.5t13 -0.5q14 0 25.5 6.5t11.5 22.5v400q0 17 -6 26.5t-25 9.5q-14 0 -28.5 -1.5t-28.5 -3.5q-8 0 -8 9
q0 10 8 13q12 4 25.5 5.5t25.5 3.5q28 5 56 11t55 13q3 1 8 1q11 0 11 -12q0 -118 -0.5 -237t-0.5 -238q0 -16 14.5 -22.5t27.5 -6.5q10 0 20.5 1t20.5 1q4 0 5 -5t1 -7zM122 690q0 -22 -15.5 -38t-38.5 -16q-22 0 -37.5 16t-15.5 38t15.5 38t37.5 16q23 0 38.5 -16
t15.5 -38zM329 690q0 -22 -15.5 -38t-37.5 -16t-38 16t-16 38t16 38t38 16t37.5 -16t15.5 -38z" />
    <glyph glyph-name="eth" unicode="&#xf0;" horiz-adv-x="620" 
d="M455 262q0 42 -6 85.5t-22.5 81t-49 60t-85.5 22.5q-49 0 -79.5 -24.5t-47 -63t-22 -82t-5.5 -81.5q0 -42 5.5 -84.5t22.5 -78t49 -56.5t85 -21q51 0 82 22.5t47 58.5t21 78.5t5 82.5zM555 279q0 -77 -31.5 -142t-89.5 -104t-139 -39q-73 0 -129.5 36t-89 96t-32.5 131
q0 74 31.5 137.5t89 103t134.5 39.5q44 0 81 -16.5t71 -43.5q-6 38 -26 82t-46 86t-49 72l-104 -71l-28 34l103 71q-4 5 -9 10t-10 9q-19 17 -42 32t-45 27q-5 3 -15.5 9.5t-10.5 13.5q0 8 7 14t15 6q16 0 36 -11t40.5 -27t38.5 -32t28 -27l96 67l29 -37l-93 -63
q83 -97 136 -215.5t53 -247.5z" />
    <glyph glyph-name="ntilde" unicode="&#xf1;" horiz-adv-x="632" 
d="M617 15q0 -13 -15 -13q-22 0 -45 1.5t-46 1.5q-34 0 -69.5 -1.5t-70.5 -1.5q-4 0 -5 6.5t-1 10.5q0 8 10 8h16q5 0 10.5 -0.5t10.5 -0.5q29 0 32 29q3 59 2.5 119t-0.5 119v22.5v22.5q-1 23 -3 56.5t-9 54.5q-16 52 -70 52q-49 0 -90 -25t-71 -63q-1 -73 -1 -145v-144
v-69q0 -15 13 -22t26 -7q8 0 15.5 1.5t14.5 1.5q4 0 5 -5t1 -8q0 -4 -2.5 -9t-8.5 -5q-22 0 -43.5 1.5t-43.5 1.5q-34 0 -68 -1.5t-69 -1.5q-5 0 -5.5 6.5t-0.5 10.5q0 8 9 8h14t10 -0.5t10 -0.5q29 0 32 29q1 14 1 28v28v172.5t-1 172.5q0 14 -6 28t-23 14q-13 0 -25 -4
t-25 -4q-7 0 -7 10q0 2 0.5 4.5t1.5 3.5t3 1.5t3 1.5q18 5 37.5 7t37.5 6q17 3 33 8.5t32 5.5q7 0 11 -7q5 -9 8 -25.5t4.5 -33.5t1.5 -28q22 22 52.5 43.5t64 36t65.5 14.5q92 0 124.5 -40.5t32.5 -127.5q0 -78 -0.5 -156t-0.5 -156q0 -19 11.5 -25.5t27.5 -6.5q8 0 16 1.5
t15 1.5q6 0 8.5 -4.5t2.5 -9.5zM471 694q-14 -14 -27.5 -30t-29.5 -27t-39 -11t-43.5 11t-40.5 22.5t-42 11.5q-20 0 -38 -15t-29 -30l-21 15q13 18 28 37t34 31.5t44 12.5q21 0 41 -10.5t41.5 -21.5t45.5 -11q19 0 31.5 11t24.5 23z" />
    <glyph glyph-name="ograve" unicode="&#xf2;" horiz-adv-x="620" 
d="M471 264q0 43 -6.5 86.5t-24 80.5t-50.5 59.5t-86 22.5q-50 0 -81.5 -24t-49 -62t-24 -82t-6.5 -83q0 -43 6.5 -86t24.5 -77.5t51.5 -55.5t86.5 -21q52 0 83.5 22t48 58t22 78.5t5.5 83.5zM574 261q0 -75 -35.5 -135t-96 -95t-135.5 -35q-73 0 -132 35.5t-94 95
t-35 132.5q0 75 34 138.5t93.5 102.5t137.5 39q84 0 143 -35.5t89.5 -98t30.5 -144.5zM443 677l-12 -45l-254 51l17 67z" />
    <glyph glyph-name="oacute" unicode="&#xf3;" horiz-adv-x="620" 
d="M471 264q0 43 -6.5 86.5t-24 80.5t-50.5 59.5t-86 22.5q-50 0 -81.5 -24t-49 -62t-24 -82t-6.5 -83q0 -43 6.5 -86t24.5 -77.5t51.5 -55.5t86.5 -21q52 0 83.5 22t48 58t22 78.5t5.5 83.5zM574 261q0 -75 -35.5 -135t-96 -95t-135.5 -35q-73 0 -132 35.5t-94 95
t-35 132.5q0 75 34 138.5t93.5 102.5t137.5 39q84 0 143 -35.5t89.5 -98t30.5 -144.5zM443 687l-254 -49l-12 44l249 72z" />
    <glyph glyph-name="ocircumflex" unicode="&#xf4;" horiz-adv-x="620" 
d="M471 264q0 43 -6.5 86.5t-24 80.5t-50.5 59.5t-86 22.5q-50 0 -81.5 -24t-49 -62t-24 -82t-6.5 -83q0 -43 6.5 -86t24.5 -77.5t51.5 -55.5t86.5 -21q52 0 83.5 22t48 58t22 78.5t5.5 83.5zM574 261q0 -75 -35.5 -135t-96 -95t-135.5 -35q-73 0 -132 35.5t-94 95
t-35 132.5q0 75 34 138.5t93.5 102.5t137.5 39q84 0 143 -35.5t89.5 -98t30.5 -144.5zM478 672l-7 -37l-163 53l-157 -51l-9 37l168 77z" />
    <glyph glyph-name="otilde" unicode="&#xf5;" horiz-adv-x="620" 
d="M471 264q0 43 -6.5 86.5t-24 80.5t-50.5 59.5t-86 22.5q-50 0 -81.5 -24t-49 -62t-24 -82t-6.5 -83q0 -43 6.5 -86t24.5 -77.5t51.5 -55.5t86.5 -21q52 0 83.5 22t48 58t22 78.5t5.5 83.5zM574 261q0 -75 -35.5 -135t-96 -95t-135.5 -35q-73 0 -132 35.5t-94 95
t-35 132.5q0 75 34 138.5t93.5 102.5t137.5 39q84 0 143 -35.5t89.5 -98t30.5 -144.5zM465 702q-18 -22 -41 -44.5t-54 -22.5q-24 0 -45 11t-41 22t-41 11t-37.5 -14.5t-29.5 -28.5l-21 13q13 18 27.5 37t33.5 32t44 13q23 0 43 -10.5t41 -21.5t45 -11q19 0 31.5 10.5
t25.5 23.5z" />
    <glyph glyph-name="odieresis" unicode="&#xf6;" horiz-adv-x="620" 
d="M471 264q0 43 -6.5 86.5t-24 80.5t-50.5 59.5t-86 22.5q-50 0 -81.5 -24t-49 -62t-24 -82t-6.5 -83q0 -43 6.5 -86t24.5 -77.5t51.5 -55.5t86.5 -21q52 0 83.5 22t48 58t22 78.5t5.5 83.5zM574 261q0 -75 -35.5 -135t-96 -95t-135.5 -35q-73 0 -132 35.5t-94 95
t-35 132.5q0 75 34 138.5t93.5 102.5t137.5 39q84 0 143 -35.5t89.5 -98t30.5 -144.5zM250 687q0 -22 -15.5 -38t-37.5 -16t-37.5 16t-15.5 38t15.5 38t37.5 16t37.5 -16t15.5 -38zM476 687q0 -22 -15 -38t-37 -16t-37.5 16t-15.5 38t15.5 38t37.5 16t37 -16t15 -38z" />
    <glyph glyph-name="divide" unicode="&#xf7;" horiz-adv-x="750" 
d="M430 151q0 -22 -16 -38.5t-39 -16.5q-22 0 -38.5 16.5t-16.5 38.5q0 23 16.5 39t38.5 16q23 0 39 -16t16 -39zM673 339h-595v47h595v-47zM430 573q0 -22 -16 -38.5t-39 -16.5q-22 0 -38.5 16.5t-16.5 38.5q0 23 16.5 39t38.5 16q23 0 39 -16t16 -39z" />
    <glyph glyph-name="oslash" unicode="&#xf8;" horiz-adv-x="620" 
d="M470 244q0 38 -4.5 74.5t-16.5 72.5l-277 -306q21 -43 58 -62.5t83 -19.5q52 0 83 22t47 57.5t21.5 78t5.5 83.5zM435 420q-21 38 -54.5 55.5t-75.5 17.5q-50 0 -82 -24t-49 -62t-23.5 -81.5t-6.5 -83.5q0 -31 3.5 -62.5t11.5 -62.5zM570 240q0 -74 -34.5 -133.5t-94 -94
t-133.5 -34.5q-99 0 -174 66l-58 -63l-22 20l59 65q-31 35 -47 80t-16 92q0 75 33 138.5t92 102t137 38.5q44 0 86 -12.5t78 -38.5l50 56l23 -21l-51 -56q39 -42 55.5 -95.5t16.5 -109.5z" />
    <glyph glyph-name="ugrave" unicode="&#xf9;" horiz-adv-x="628" 
d="M618 27q0 -12 -17.5 -18t-38.5 -8t-30 -2q-34 0 -54 27t-30 56q-34 -43 -85 -64t-106 -21q-90 0 -124.5 46.5t-34.5 131.5q0 75 0.5 150.5t1.5 150.5q0 30 -29 30q-8 0 -16 -1t-16 -1q-3 0 -4.5 3.5t-1.5 5.5q0 11 10 12q35 4 70.5 5.5t70.5 5.5q8 -8 8 -20q0 -25 -1 -51
t-1 -52q-1 -61 -1.5 -122.5t-0.5 -123.5q0 -19 1 -40.5t8 -39.5q11 -28 41.5 -39.5t58.5 -11.5q31 0 62.5 11.5t54 34t25.5 56.5q2 17 2.5 34.5t0.5 34.5l-1 272q0 13 -8.5 19t-19.5 6q-10 0 -19.5 -1t-19.5 -1q-9 0 -9 10t9 11q12 2 25 2.5t26 1.5l69 7q7 1 14.5 2t14.5 1
q5 0 7 -5.5t2 -8.5q-3 -217 -3 -433q0 -25 11.5 -41t38.5 -16q8 0 14.5 2t13.5 2q11 0 11 -10zM445 680l-12 -44l-254 50l16 66z" />
    <glyph glyph-name="uacute" unicode="&#xfa;" horiz-adv-x="628" 
d="M618 27q0 -12 -17.5 -18t-38.5 -8t-30 -2q-34 0 -54 27t-30 56q-34 -43 -85 -64t-106 -21q-90 0 -124.5 46.5t-34.5 131.5q0 75 0.5 150.5t1.5 150.5q0 30 -29 30q-8 0 -16 -1t-16 -1q-3 0 -4.5 3.5t-1.5 5.5q0 11 10 12q35 4 70.5 5.5t70.5 5.5q8 -8 8 -20q0 -25 -1 -51
t-1 -52q-1 -61 -1.5 -122.5t-0.5 -123.5q0 -19 1 -40.5t8 -39.5q11 -28 41.5 -39.5t58.5 -11.5q31 0 62.5 11.5t54 34t25.5 56.5q2 17 2.5 34.5t0.5 34.5l-1 272q0 13 -8.5 19t-19.5 6q-10 0 -19.5 -1t-19.5 -1q-9 0 -9 10t9 11q12 2 25 2.5t26 1.5l69 7q7 1 14.5 2t14.5 1
q5 0 7 -5.5t2 -8.5q-3 -217 -3 -433q0 -25 11.5 -41t38.5 -16q8 0 14.5 2t13.5 2q11 0 11 -10zM445 686l-254 -50l-12 44l249 72z" />
    <glyph glyph-name="ucircumflex" unicode="&#xfb;" horiz-adv-x="628" 
d="M618 27q0 -12 -17.5 -18t-38.5 -8t-30 -2q-34 0 -54 27t-30 56q-34 -43 -85 -64t-106 -21q-90 0 -124.5 46.5t-34.5 131.5q0 75 0.5 150.5t1.5 150.5q0 30 -29 30q-8 0 -16 -1t-16 -1q-3 0 -4.5 3.5t-1.5 5.5q0 11 10 12q35 4 70.5 5.5t70.5 5.5q8 -8 8 -20q0 -25 -1 -51
t-1 -52q-1 -61 -1.5 -122.5t-0.5 -123.5q0 -19 1 -40.5t8 -39.5q11 -28 41.5 -39.5t58.5 -11.5q31 0 62.5 11.5t54 34t25.5 56.5q2 17 2.5 34.5t0.5 34.5l-1 272q0 13 -8.5 19t-19.5 6q-10 0 -19.5 -1t-19.5 -1q-9 0 -9 10t9 11q12 2 25 2.5t26 1.5l69 7q7 1 14.5 2t14.5 1
q5 0 7 -5.5t2 -8.5q-3 -217 -3 -433q0 -25 11.5 -41t38.5 -16q8 0 14.5 2t13.5 2q11 0 11 -10zM480 674l-7 -37l-163 53l-157 -51l-9 37l168 77z" />
    <glyph glyph-name="udieresis" unicode="&#xfc;" horiz-adv-x="628" 
d="M618 27q0 -12 -17.5 -18t-38.5 -8t-30 -2q-34 0 -54 27t-30 56q-34 -43 -85 -64t-106 -21q-90 0 -124.5 46.5t-34.5 131.5q0 75 0.5 150.5t1.5 150.5q0 30 -29 30q-8 0 -16 -1t-16 -1q-3 0 -4.5 3.5t-1.5 5.5q0 11 10 12q35 4 70.5 5.5t70.5 5.5q8 -8 8 -20q0 -25 -1 -51
t-1 -52q-1 -61 -1.5 -122.5t-0.5 -123.5q0 -19 1 -40.5t8 -39.5q11 -28 41.5 -39.5t58.5 -11.5q31 0 62.5 11.5t54 34t25.5 56.5q2 17 2.5 34.5t0.5 34.5l-1 272q0 13 -8.5 19t-19.5 6q-10 0 -19.5 -1t-19.5 -1q-9 0 -9 10t9 11q12 2 25 2.5t26 1.5l69 7q7 1 14.5 2t14.5 1
q5 0 7 -5.5t2 -8.5q-3 -217 -3 -433q0 -25 11.5 -41t38.5 -16q8 0 14.5 2t13.5 2q11 0 11 -10zM251 690q0 -22 -15 -38t-38 -16q-22 0 -37 16t-15 38t15 38.5t37 16.5q23 0 38 -16.5t15 -38.5zM478 690q0 -22 -15.5 -38t-37.5 -16t-37.5 16.5t-15.5 37.5q0 22 15.5 38.5
t37.5 16.5t37.5 -16.5t15.5 -38.5z" />
    <glyph glyph-name="yacute" unicode="&#xfd;" horiz-adv-x="594" 
d="M602 527q0 -10 -7 -11t-18.5 -1t-23 -5t-20.5 -23q-49 -96 -90 -196t-90 -196q-29 -58 -57.5 -116.5t-63.5 -113.5q-19 -30 -45 -48t-62 -18q-30 0 -54.5 13t-24.5 47q0 22 16.5 37t37.5 15q9 0 18 -3q-6 -12 -6 -23q0 -15 11.5 -23.5t24.5 -8.5q20 0 36.5 11.5
t26.5 27.5q18 27 30.5 60t12.5 65q0 14 -2 28t-6 27q-6 21 -14 41.5t-16 40.5q-13 32 -25.5 63t-26.5 62q-19 45 -37.5 90.5t-40.5 88.5q-3 5 -5.5 10t-6.5 10q-5 8 -12.5 13.5t-18.5 5.5q-7 0 -15 -1t-16 -1q-5 0 -8 4.5t-3 8.5q0 8 9 10q10 3 20.5 4t20.5 2l44 8t44 6
q3 1 6 1h6q10 0 13.5 -6t7.5 -14q23 -50 42 -102.5t38 -104.5q20 -49 38 -99t37 -100q7 13 20.5 43.5t31 70t35.5 82.5t33.5 82t25 67.5t9.5 39.5q0 13 -13 15.5t-29 1.5t-24 -1q-4 0 -7 4t-3 8q0 10 10.5 10.5t16.5 0.5q17 0 35 -0.5t35 -0.5q23 0 45.5 1t44.5 1
q5 0 7 -3.5t2 -7.5zM430 686l-254 -50l-12 44l250 73z" />
    <glyph glyph-name="thorn" unicode="&#xfe;" horiz-adv-x="608" 
d="M479 288q0 38 -6.5 76t-22.5 69.5t-45.5 51t-75.5 19.5q-32 0 -63.5 -16t-55 -42.5t-31.5 -58.5q-1 -7 -0.5 -14.5t0.5 -15.5q0 -21 -0.5 -42t-0.5 -42v-100q0 -35 19 -64t49 -46.5t64 -17.5q52 0 85 21.5t51.5 57t25.5 78.5t7 86zM580 286q0 -126 -70.5 -200t-197.5 -74
q-39 0 -72.5 16.5t-61.5 42.5v-194q0 -26 17 -32.5t39 -6.5q6 0 12.5 0.5t12.5 0.5q7 0 10.5 -5t3.5 -11q0 -15 -14 -15q-31 0 -61.5 1t-61.5 1t-62.5 -1.5t-63.5 -1.5q-14 0 -14 15q0 14 15.5 15t24.5 1q6 0 11.5 0.5t11.5 1.5q17 4 21 14.5t5 25.5q2 18 2 37v38l-1 283
q0 99 0.5 198t-2.5 198q0 14 -4 24.5t-21 10.5q-16 0 -32 -1t-33 -1q-16 0 -16 13q0 12 10 16q7 3 14.5 4t14.5 1q23 2 41.5 4.5t40.5 6.5q17 2 32.5 5.5t31.5 3.5q11 0 14 -8q1 -50 0.5 -100.5t-0.5 -101.5v-27t1 -28q35 36 76.5 59.5t92.5 23.5q73 0 125 -34.5t80 -92
t28 -126.5z" />
    <glyph glyph-name="ydieresis" unicode="&#xff;" horiz-adv-x="594" 
d="M602 527q0 -10 -7 -11t-18.5 -1t-23 -5t-20.5 -23q-49 -96 -90 -196t-90 -196q-29 -58 -57.5 -116.5t-63.5 -113.5q-19 -30 -45 -48t-62 -18q-30 0 -54.5 13t-24.5 47q0 22 16.5 37t37.5 15q9 0 18 -3q-6 -12 -6 -23q0 -15 11.5 -23.5t24.5 -8.5q20 0 36.5 11.5
t26.5 27.5q18 27 30.5 60t12.5 65q0 14 -2 28t-6 27q-6 21 -14 41.5t-16 40.5q-13 32 -25.5 63t-26.5 62q-19 45 -37.5 90.5t-40.5 88.5q-3 5 -5.5 10t-6.5 10q-5 8 -12.5 13.5t-18.5 5.5q-7 0 -15 -1t-16 -1q-5 0 -8 4.5t-3 8.5q0 8 9 10q10 3 20.5 4t20.5 2l44 8t44 6
q3 1 6 1h6q10 0 13.5 -6t7.5 -14q23 -50 42 -102.5t38 -104.5q20 -49 38 -99t37 -100q7 13 20.5 43.5t31 70t35.5 82.5t33.5 82t25 67.5t9.5 39.5q0 13 -13 15.5t-29 1.5t-24 -1q-4 0 -7 4t-3 8q0 10 10.5 10.5t16.5 0.5q17 0 35 -0.5t35 -0.5q23 0 45.5 1t44.5 1
q5 0 7 -3.5t2 -7.5zM240 691q0 -22 -15.5 -38.5t-38.5 -16.5q-22 0 -37 16.5t-15 38.5q0 21 15 37.5t37 16.5q23 0 38.5 -16t15.5 -38zM466 691q0 -22 -15 -38.5t-37 -16.5t-37.5 16.5t-15.5 38.5t15.5 38t37.5 16t37 -16t15 -38z" />
    <glyph glyph-name="idotless" unicode="&#x131;" horiz-adv-x="350" 
d="M310 10q0 -4 -2.5 -8.5t-7.5 -4.5q-28 0 -55.5 1.5t-55.5 1.5h-29q-29 0 -58.5 -1.5t-58.5 -1.5q-4 0 -5 4.5t-1 7.5q0 10 7 10.5t14 0.5q8 0 17 -0.5t17 -0.5q14 0 26 6.5t12 22.5q0 100 0.5 199t0.5 199q0 18 -6.5 27t-26.5 9q-14 0 -27.5 -2.5t-27.5 -2.5q-2 1 -5 3
t-3 5q0 10 8 12q12 5 25 5.5t25 2.5q20 4 39 8.5t38 8.5q10 2 21 5.5t21 3.5q11 0 11 -12q0 -118 -1 -235.5t-1 -235.5q0 -16 14.5 -22.5t27.5 -6.5q11 0 21.5 1.5t20.5 1.5q3 0 4 -5t1 -7z" />
    <glyph glyph-name="Lslash" unicode="&#x141;" horiz-adv-x="720" 
d="M691 218q0 -7 -1 -15t-3 -16q-7 -40 -12.5 -81.5t-11.5 -82.5q0 -3 -0.5 -5.5t-0.5 -4.5q-2 -6 -4 -8q-7 -7 -16 -7q-10 0 -20.5 1t-21.5 1q-13 1 -25.5 1h-25.5q-85 0 -170 -1t-171 -3q-34 -1 -67.5 -2.5t-67.5 -1.5q-7 0 -8.5 4t-1.5 10q0 13 13 13q8 0 16 -0.5
t16 -0.5q15 0 31.5 4.5t16.5 23.5v272l-114 -74l-19 25l133 86v307q0 28 -10.5 36t-37.5 8q-9 0 -18.5 -2t-18.5 -2q-4 0 -5 4.5t-1 6.5q0 6 0.5 11t7.5 8q35 -2 69 -3t68 -1q36 0 72 2t72 2q5 0 6.5 -5t1.5 -8q0 -4 -1 -9.5t-7 -5.5q-9 0 -18 1t-18 1q-10 0 -24.5 -1.5
t-25 -8t-10.5 -21.5q0 -36 -0.5 -72t-0.5 -72v-111l132 86l18 -26l-150 -97q0 -36 0.5 -71.5t0.5 -71.5v-182q0 -16 12.5 -23.5t29 -9.5t27.5 -2q45 0 90.5 2t89.5 10q29 5 55.5 19.5t45.5 36.5q17 21 30 45.5t22 49.5q3 8 5 16t6 15q3 7 5.5 7.5t9.5 0.5q3 0 4 -3t1 -5z
" />
    <glyph glyph-name="lslash" unicode="&#x142;" horiz-adv-x="363" 
d="M364 484l-133 -87v-32q0 -79 0.5 -158t0.5 -159q0 -15 14.5 -22t27.5 -7q11 0 21.5 1.5t20.5 1.5q3 0 4 -6t1 -8q0 -4 -2.5 -8.5t-7.5 -4.5q-32 0 -63.5 2t-63.5 2q-30 0 -59.5 -2t-59.5 -2q-4 0 -5 4t-1 7q0 11 5.5 13t14.5 2q6 0 12 -1t12 -1q14 0 26 6.5t12 22.5
q0 74 1 147t1 146l-144 -93l-17 25l161 105q-1 72 -1.5 143.5t-0.5 142.5q0 8 -0.5 15t-5.5 12q-8 9 -22 9q-18 0 -35 -5.5t-34 -5.5q-1 0 -4.5 2t-3.5 4q0 9 8 14t23 7t25 4q21 5 42.5 10.5t42.5 12.5q11 3 21 6.5t20 6.5q1 0 3 0.5t3 0.5q6 0 6.5 -4t0.5 -8v-311l115 76z
" />
    <glyph glyph-name="OE" unicode="&#x152;" horiz-adv-x="940" 
d="M505 672q0 9 -17 15t-40.5 10t-44 6t-27.5 2q-19 0 -39.5 -5.5t-37.5 -13.5q-42 -20 -70.5 -57t-45.5 -83t-25 -94.5t-8 -90.5q0 -58 11 -116.5t37.5 -107.5t71.5 -79t114 -31h11q21 0 47 4.5t45 18t19 40.5zM909 181q0 -19 -3.5 -37.5t-5.5 -36.5q-3 -19 -2.5 -41
t-6.5 -40q-1 -5 -4 -11t-10 -6q-91 0 -182.5 2t-183.5 2q-15 0 -28 -2.5t-27 -5.5q-34 -6 -72 -6q-109 0 -183.5 47t-113 129t-38.5 186q0 74 23 140.5t66.5 119t105.5 82.5t140 30q21 0 42 -2t41 -2h147q47 0 93 1.5t92 1.5q22 0 43 0.5t43 1.5q4 -28 9 -57l10 -58
q1 -6 2.5 -11.5t1.5 -11.5q0 -10 -6 -14t-14 -4q-9 0 -11.5 4t-5.5 11q-3 9 -5.5 18.5t-7.5 18.5q-19 42 -51.5 55.5t-76.5 13.5h-134v-299q35 0 70.5 1t69.5 5l24 4l24 4q9 2 23.5 6t23.5 4q6 0 6 -6q0 -5 -4 -19.5t-10.5 -27t-13.5 -12.5t-14.5 0.5t-15.5 1.5
q-30 3 -59.5 4t-59.5 1q-23 0 -43.5 -7.5t-20.5 -36.5v-237q0 -31 14 -38t42 -7h88q27 0 41 2.5t24.5 12.5t26.5 31q13 17 24.5 35.5t19.5 37.5l4 12t6 11q2 5 4.5 7.5t7.5 2.5q11 0 11 -11z" />
    <glyph glyph-name="oe" unicode="&#x153;" horiz-adv-x="965" 
d="M474 245q0 43 -6 86.5t-23.5 80.5t-50.5 59.5t-86 22.5q-51 0 -82.5 -24t-48.5 -62t-23.5 -81.5t-6.5 -83.5q0 -44 6.5 -86.5t24.5 -77t51 -55t87 -20.5q52 0 83.5 22t47.5 57.5t21.5 78t5.5 83.5zM817 348q0 29 -2.5 58.5t-12.5 53.5t-31.5 38.5t-59.5 14.5
q-47 0 -76 -25t-45 -63.5t-24 -78.5q50 -3 97 -3q39 0 77.5 2t76.5 3zM929 117q0 -3 -2 -5q-10 -18 -31.5 -37.5t-38.5 -31.5q-32 -22 -69.5 -34.5t-77.5 -12.5q-61 0 -114 26.5t-89 76.5q-30 -59 -80 -89t-116 -30q-73 0 -131 34.5t-92 93.5t-34 131q0 75 33 138.5
t91.5 102t136.5 38.5q59 0 110.5 -21t90.5 -68q35 47 88.5 75.5t111.5 28.5q89 0 142 -52.5t53 -141.5q0 -16 -7 -21t-22 -5q-19 0 -39 1.5t-40 2.5q-26 2 -52.5 2h-53.5q-34 0 -67.5 -0.5t-67.5 -1.5q-3 -31 -3 -63q0 -37 8.5 -76t27 -72.5t48.5 -54t74 -20.5t85 13.5
t73 42.5q10 9 17 20t17 19q4 4 10 4q10 0 10 -13z" />
    <glyph glyph-name="Scaron" unicode="&#x160;" horiz-adv-x="594" 
d="M556 188q0 -57 -26 -95t-68.5 -60.5t-92 -32t-96.5 -9.5q-61 0 -115 19q-22 8 -43 17.5t-44 15.5q-4 32 -13.5 70t-9.5 69q0 14 4.5 21.5t20.5 7.5q14 0 18 -6.5t6 -17.5q4 -14 7 -27.5t7 -27.5q20 -60 59.5 -84t101.5 -24q51 0 91.5 14.5t64 47.5t23.5 88q0 43 -29 77.5
t-64 54.5q-8 5 -17 9l-18 8q-31 16 -62.5 32t-63.5 31q-31 16 -63.5 40.5t-55 56.5t-22.5 70q0 64 34 106t87 63t110 21q41 0 73.5 -10t64.5 -20.5t70 -14.5l6 -60t9 -60q1 -4 1.5 -8t0.5 -8q0 -16 -10.5 -20.5t-23.5 -4.5t-14 5l-3 15q-13 80 -55 120.5t-126 40.5
q-62 0 -96.5 -33t-34.5 -96q0 -42 22 -71t58.5 -50.5t80 -40.5t86.5 -39t79.5 -46.5t58.5 -63.5t22 -90zM441 862l-141 -84l-147 83l6 33l139 -59l137 61z" />
    <glyph glyph-name="scaron" unicode="&#x161;" horiz-adv-x="446" 
d="M414 143q0 -45 -20 -73.5t-52 -43.5t-70 -21t-74 -6q-33 0 -65.5 7t-65.5 10q-7 27 -13.5 54t-14.5 53q-1 3 -4.5 14t-3.5 12q0 8 5 11.5t12 3.5t10 -5q6 -7 10.5 -19t8.5 -21q8 -16 14 -24.5t19 -21.5q39 -41 97 -41q32 0 58.5 7t42.5 26.5t16 56.5q0 32 -20 53.5
t-51.5 38.5t-66.5 33t-66.5 35.5t-51.5 47.5t-20 68q0 49 25.5 80t65.5 46.5t83 15.5q28 0 50.5 -7t47.5 -16q8 -3 16 -4t16 -1h9t8 1q3 -18 5.5 -36.5t4.5 -37.5q1 -7 2.5 -16.5t1.5 -17.5q0 -7 -3 -14.5t-12 -7.5q-7 0 -11.5 1.5t-7.5 8.5q-5 10 -8.5 21.5t-7.5 21.5
q-13 35 -45 56.5t-69 21.5q-47 0 -71 -27.5t-24 -73.5q0 -16 8.5 -31t19.5 -26q21 -20 49.5 -31t54.5 -22q34 -15 70.5 -36t62 -51t25.5 -73zM367 705l-147 -83l-141 85l6 32l136 -61l139 59z" />
    <glyph glyph-name="Ydieresis" unicode="&#x178;" horiz-adv-x="693" 
d="M700 720q0 -9 -5 -11.5t-13 -2.5q-4 0 -8 0.5t-8 0.5q-7 0 -18 -1t-17 -4q-7 -3 -14 -11.5t-12 -16.5q-51 -87 -101 -174.5t-101 -174.5q0 -16 -0.5 -32t-0.5 -32v-178q0 -21 5 -40t32 -19q15 0 29.5 1.5t28.5 1.5q8 0 8 -11q0 -7 -2 -11.5t-11 -4.5q-26 0 -52 1t-52 1
q-45 0 -90 -1.5t-89 -1.5q-14 0 -14 15q0 5 5.5 8t9.5 3q11 0 22 -0.5t22 -0.5q14 0 29 4.5t15 21.5v176q0 44 -8 79t-28 74q-16 34 -36 72.5t-40 75.5t-37.5 67.5t-28.5 48.5q-5 10 -11.5 19t-13.5 18q-16 18 -42 18q-9 0 -18.5 -1t-19.5 -1q-12 0 -12 12q0 8 2.5 11
t11.5 4q10 1 21 2t21 2q17 2 37 4.5t33 3.5q9 2 19.5 3t18.5 1q10 0 15 -4t9 -13q6 -10 11 -19t10 -19q44 -82 85 -166.5t80 -169.5q7 11 22.5 38t36.5 64t43 76.5t41 75.5t30.5 61t11.5 33q0 9 -6 11.5t-14 2.5q-13 0 -25.5 -1t-25.5 -1q-6 0 -8 4.5t-2 9.5q0 9 5 10.5
t12 1.5q26 0 53 -1t53 -1q21 0 42 1t43 1q5 0 8 -4.5t3 -9.5zM286 839q0 -22 -15.5 -38.5t-37.5 -16.5t-37.5 16.5t-15.5 38.5q0 21 15.5 38t37.5 17t37.5 -16.5t15.5 -38.5zM513 839q0 -22 -15 -38.5t-38 -16.5q-22 0 -37 16.5t-15 38.5q0 21 15 38t37 17q23 0 38 -17
t15 -38z" />
    <glyph glyph-name="Zcaron" unicode="&#x17d;" horiz-adv-x="645" 
d="M616 230q0 -11 -2.5 -22.5t-4.5 -22.5q-3 -23 -5.5 -47t-5.5 -47q-2 -19 -1.5 -39.5t-3.5 -38.5q-2 -10 -7.5 -10.5t-13.5 -0.5q-7 0 -14.5 2t-15.5 2q-7 1 -14 0.5t-14 -0.5q-55 0 -109 0.5t-109 0.5q-61 0 -122.5 -2.5t-123.5 -2.5q-30 0 -30 27q0 11 6 18
q8 14 17.5 27t19.5 26l89 126l140 196t134 200q8 12 17 29t9 32q0 9 -11.5 13t-25 5t-20.5 1h-45.5t-59.5 -1t-58 -3.5t-41 -6.5q-34 -10 -60.5 -41t-39.5 -63q-8 -22 -12 -43q-1 -7 -5 -13t-13 -6q-11 0 -11 10q0 40 3 79.5t3 79.5q0 17 7 25t25 8q13 0 25 -0.5t25 -0.5
h26.5t26.5 1q97 3 193.5 3.5t193.5 0.5q10 0 16 -3.5t6 -14.5q0 -8 -4 -15t-9 -13l-404 -567q-7 -10 -19 -27.5t-12 -29.5t13.5 -17t30 -6t24.5 -1t16.5 0.5t15.5 0.5q43 0 86 1.5t86 5.5q48 6 80 34t52.5 67.5t33.5 79.5q2 6 2 7l4.5 6t7.5 2q12 0 12 -11zM467 861
l-148 -84l-141 85l7 33l135 -62l139 60z" />
    <glyph glyph-name="zcaron" unicode="&#x17e;" horiz-adv-x="480" 
d="M474 163q0 -7 -1.5 -15t-3.5 -16q-1 -9 -1.5 -18t-2.5 -18q-2 -17 -3 -45t-5 -42q-3 -8 -9 -8q-62 0 -124 0.5t-124 0.5q-44 0 -88 -1t-88 -1q-4 0 -8.5 3t-4.5 8t5 12q21 29 42.5 57.5t41.5 57.5q54 78 109.5 155.5t104.5 159.5q4 8 7.5 16t3.5 16q0 12 -7 16t-17 6
q-13 2 -26 2.5t-26 0.5q-28 0 -57.5 -1.5t-56.5 -8.5q-17 -4 -31.5 -19t-21.5 -31q-7 -15 -9 -31t-7 -26q-2 -6 -11 -6q-2 0 -6.5 1t-4.5 5q0 33 2 66t2 66q0 13 14 13q20 0 41 -2t42 -2q79 0 157.5 1.5t157.5 1.5q10 0 10 -12q0 -4 -2 -8l-4 -8q-4 -7 -9 -13t-10 -13
q-40 -54 -81 -108t-79 -110q-6 -9 -22 -31.5t-36.5 -51t-39.5 -57t-31.5 -50.5t-12.5 -30q0 -12 11 -15t20 -3h31.5h30.5q29 0 62.5 1t64.5 9.5t51 32.5q9 11 16 25.5t11 27.5q3 11 5.5 22t6.5 21q2 7 12 7q9 0 9 -10zM383 707l-145 -82l-137 84l5 28l134 -60l137 58z" />
    <glyph glyph-name="florin" unicode="&#x192;" horiz-adv-x="540" 
d="M527 673q0 -7 -3 -16.5t-13 -9.5q-8 0 -13 4.5t-9 11.5q-3 7 -5 13.5t-5 12.5q-10 23 -30.5 42t-46.5 19q-22 0 -36 -19.5t-22 -50t-12 -64.5t-5 -62.5t-1 -43.5v-13h133v-31h-135q-1 -69 -2.5 -138.5t-3.5 -138.5q-1 -42 -3.5 -86t-14.5 -85q-21 -70 -71 -117t-127 -47
q-21 0 -44 8.5t-39 25t-16 40.5q0 27 13 38t38 11q10 0 12 -8t1.5 -17.5t-0.5 -14.5q0 -24 15.5 -40t38.5 -16q32 0 52.5 25.5t32 66t17 85t7 83t2.5 60.5q2 66 3 132.5t2 132.5h-105v31h108q2 44 11 93.5t29.5 93t56 71.5t90.5 28q23 0 44 -7t43 -6q2 -12 5 -31t5.5 -37.5
t2.5 -28.5z" />
    <glyph glyph-name="circumflex" unicode="&#x2c6;" horiz-adv-x="500" 
d="M418 661l-7 -36l-163 53l-157 -51l-9 37l169 77z" />
    <glyph glyph-name="ring" unicode="&#x2da;" horiz-adv-x="500" 
d="M304 705q0 22 -17 35t-37 13q-21 0 -37.5 -13t-16.5 -36q0 -21 16.5 -34.5t37.5 -13.5t37.5 13.5t16.5 35.5zM333 704q0 -34 -25.5 -56t-57.5 -22q-33 0 -58 22.5t-25 56.5q0 35 25.5 57t58.5 22t57.5 -23t24.5 -57z" />
    <glyph glyph-name="tilde" unicode="&#x2dc;" horiz-adv-x="390" 
d="M380 686q-19 -27 -45 -49.5t-64 -22.5q-29 0 -60 13.5t-60 27t-53 13.5q-22 0 -35 -11t-27 -25l-26 16q15 19 28.5 36t32 28.5t47.5 11.5q27 0 55.5 -13t57.5 -25.5t56 -12.5q23 0 39 6t29 25z" />
    <glyph glyph-name="acutecomb" unicode="&#x301;" horiz-adv-x="0" 
d="M390 725l-257 -80l-23 42l249 102z" />
    <glyph glyph-name="overlinecomb" unicode="&#x305;" horiz-adv-x="0" 
d="M496 837h-492v36h492v-36z" />
    <glyph glyph-name="brevecomb" unicode="&#x306;" horiz-adv-x="0" 
d="M399 710q0 -19 -17.5 -32t-43 -21t-50 -11.5t-38.5 -3.5t-38.5 3.5t-50 11.5t-43 21t-17.5 32q0 14 9 24.5t24 10.5q14 0 22 -10.5t8 -23.5q0 -4 -1.5 -7t-3.5 -6q21 -8 43 -14t45 -6q24 0 47.5 5.5t45.5 14.5q-4 8 -4 13q0 13 8 23.5t21 10.5q15 0 24.5 -10.5t9.5 -24.5
z" />
    <glyph glyph-name="dotaccentcomb" unicode="&#x307;" horiz-adv-x="0" 
d="M303 708q0 -22 -15.5 -37.5t-37.5 -15.5t-37.5 15.5t-15.5 37.5t15.5 37.5t37.5 15.5t37.5 -15.5t15.5 -37.5z" />
    <glyph glyph-name="dieresiscomb" unicode="&#x308;" horiz-adv-x="0" 
d="M188 708q0 -22 -14.5 -38t-37.5 -16q-22 0 -36.5 16t-14.5 38q0 21 14.5 37.5t36.5 16.5q23 0 37.5 -16.5t14.5 -37.5zM415 708q0 -22 -14.5 -38t-36.5 -16t-37 16t-15 38q0 21 15 37.5t37 16.5t36.5 -16.5t14.5 -37.5z" />
    <glyph glyph-name="hungarumlautcomb" unicode="&#x30b;" horiz-adv-x="0" 
d="M264 747l-166 -124l-43 7l136 130zM436 747l-166 -124l-43 7l136 130z" />
    <glyph glyph-name="caroncomb" unicode="&#x30c;" horiz-adv-x="0" 
d="M417 720l-167 -78l-167 76l8 35l157 -50l162 52z" />
    <glyph glyph-name="ogonekcomb" unicode="&#x328;" horiz-adv-x="0" 
d="M383 -107q0 -4 -2 -6q-5 -10 -23.5 -23.5t-29.5 -19.5q-16 -8 -41 -14.5t-44 -6.5q-23 0 -52.5 3t-50.5 17t-21 46q0 12 11 29.5t27 37t31.5 36.5t24.5 26l36 -9q-12 -13 -30.5 -33.5t-33 -43t-14.5 -41.5q0 -15 15 -21.5t33 -8t28 -1.5q33 0 60.5 6t57.5 19q2 2 9 5t8 4
q1 0 1 -1z" />
    <glyph glyph-name="Alpha" unicode="&#x391;" 
d="M595 293q-34 92 -67 184.5t-68 184.5q-34 -93 -68.5 -185.5t-72.5 -183.5h276zM899 19q0 -7 -3 -13t-11 -6q-31 0 -61 1t-60 1q-42 0 -83 -1t-82 -1q-5 0 -7 6.5t-2 9.5q0 14 13.5 15.5t22.5 1.5q16 0 34 3.5t18 25.5q0 9 -9 36t-22 60t-24.5 61.5t-16.5 41.5h-295
q-3 -8 -11.5 -30.5t-19 -51t-20.5 -56t-16.5 -47.5t-6.5 -24q0 -10 11 -15t27 -6t30.5 -0.5t21.5 0.5q8 0 9.5 -5.5t1.5 -11.5q0 -14 -14 -14h-210q-7 0 -9.5 5t-2.5 10q0 16 16 16q33 0 53 14.5t34 43.5q5 11 10 23l10 24q58 148 113.5 296.5t109.5 297.5q16 5 35 9t36 4
q4 0 4 -3l231 -581q8 -19 16 -39.5t17 -40.5q13 -26 32 -33t37 -7t30.5 -2t12.5 -18z" />
    <glyph glyph-name="Beta" unicode="&#x392;" 
d="M722 205q0 83 -39.5 124.5t-122.5 41.5q-13 0 -27 0.5t-28 0.5q-34 0 -69 -2t-70 -3v-304q0 -20 16 -28t36.5 -8.5t34.5 -0.5h34t33 1q56 3 101.5 21.5t73 57t27.5 99.5zM669 557q0 49 -17.5 78t-47 43.5t-66.5 19.5t-77 5q-7 0 -22 -1t-32 -3.5t-29 -8.5t-12 -15v-275
h93q40 0 84 5.5t75 33.5q23 21 37 54t14 64zM828 219q0 -73 -37 -124t-104 -76q-41 -16 -85.5 -18t-88.5 -2q-52 0 -103 1.5t-103 1.5q-30 0 -60.5 -2t-60.5 -2q-14 0 -14 14t5.5 15.5t15.5 1.5q23 0 40 2t27.5 13t12.5 38q2 20 2 41.5v41.5q0 120 -0.5 239.5t-0.5 238.5
q0 15 -5 27.5t-21 18.5q-11 5 -26.5 5h-28.5q-17 0 -17 17q0 3 2 9.5t7 6.5q13 0 26 -1t26 -1q27 0 54.5 -0.5t54.5 -0.5q44 0 87.5 5.5t86.5 5.5q45 0 90 -5t81.5 -21t58.5 -49.5t22 -90.5q0 -44 -23.5 -77.5t-59.5 -56.5t-74 -37q37 -5 74.5 -17.5t69 -34t50.5 -53
t19 -74.5z" />
    <glyph glyph-name="Gamma" unicode="&#x393;" 
d="M802 545q0 -8 -6.5 -11.5t-14.5 -3.5q-7 0 -13.5 14.5t-10.5 31.5t-7 24q-18 56 -46.5 77.5t-88.5 21.5q-20 0 -40.5 0.5t-40.5 0.5t-40.5 -0.5t-40.5 -3.5q-16 -2 -27 -8t-13 -24q-1 -5 -1 -11v-12q0 -134 1 -269t1 -270q0 -31 14.5 -51t48.5 -20q9 0 18 1.5t18 1.5
q16 0 16 -17q0 -11 -5.5 -15t-16.5 -4q-37 0 -73 1.5t-73 1.5q-36 0 -72.5 -1.5t-72.5 -1.5q-17 0 -17 17q0 12 7 13t15 1q44 0 67 13t23 62q0 124 0.5 248t0.5 248q0 24 -0.5 46.5t-12.5 37t-45 14.5q-11 0 -22.5 -0.5t-22.5 -0.5q-7 0 -9 5.5t-2 10.5q0 6 3 13t10 7
q14 0 27.5 -1t26.5 -1h226q52 0 104 0.5t104 1.5q20 1 40 3t40 2q8 0 10.5 -3t4.5 -9q0 -1 1 -18t2 -42t2.5 -51t2 -45.5t0.5 -24.5z" />
    <glyph glyph-name="Delta" unicode="&#x394;" 
d="M726 77l-232 582l-245 -582h477zM840 1h-680l298 723l86 40z" />
    <glyph glyph-name="Epsilon" unicode="&#x395;" 
d="M813 189q0 -9 -1.5 -19t-3.5 -19q-3 -20 -6 -39.5t-5 -39.5q-1 -15 -2.5 -30t-4.5 -29q-2 -9 -5.5 -11.5t-12.5 -2.5q-90 0 -180 1.5t-180 1.5q-51 0 -101.5 -2.5t-101.5 -2.5q-7 0 -12 4.5t-5 11.5q0 19 12 20.5t25 1.5h30q27 0 37.5 13t12 33.5t1.5 40.5q0 65 1 128.5
t1 127.5v132v72.5t-2 72.5q-1 17 -6 24.5t-22 10.5q-16 3 -32.5 3.5t-32.5 0.5q-7 0 -11.5 6.5t-4.5 13.5q0 6 3.5 13t10.5 7q16 0 32 -1t32 -1h226q38 0 76 0.5t76 1.5q24 1 48.5 2.5t48.5 1.5q5 0 5.5 -5t1.5 -8q4 -27 9 -54.5t11 -53.5q2 -7 3.5 -14t1.5 -15
q0 -17 -18 -17q-9 0 -13 9q0 1 -2 7q-21 53 -53.5 77t-74.5 30t-93 6q-25 0 -49.5 -0.5t-48.5 -0.5q-10 0 -22 -5t-12 -18v-273q22 0 43.5 -0.5t43.5 -0.5q44 0 89 3.5t89 11.5q10 2 20 4.5t20 2.5q5 0 5 -8q0 -4 -3.5 -18t-9 -26t-10.5 -12h-14q-32 0 -64.5 3.5t-64.5 3.5
q-11 0 -34.5 -1t-48.5 -4.5t-43 -12.5t-18 -26v-246q0 -31 20 -37t45 -6h130q42 0 74 9t63 39q21 20 34 50t23 57q2 4 4 7.5t7 3.5t9 -3t4 -8z" />
    <glyph glyph-name="Zeta" unicode="&#x396;" 
d="M811 236q0 -16 -3 -31t-5 -31q-1 -7 -4 -32t-6 -54.5t-5.5 -52t-2.5 -23.5q-3 -8 -12 -8q-21 0 -41.5 1.5t-41.5 1.5q-120 0 -239.5 -3t-239.5 -3q-10 0 -18 7t-8 17q0 7 2.5 12t6.5 10q18 24 38 47t39 47q41 53 82 105.5t79 107.5q10 14 33 48t51 76.5t54 84.5t43 74
t17 43q0 10 -11 14t-24 5t-20 1q-26 0 -66.5 -0.5t-79.5 -4t-63 -11.5q-40 -13 -65.5 -45t-36.5 -70q-3 -10 -5 -19.5t-6 -18.5q-3 -7 -12 -7q-13 0 -13 12q0 44 3.5 90.5t5.5 91.5q0 6 2 9.5t9 3.5q35 0 70 -1t69 -1q92 0 184 3t184 3q10 0 18 -3t8 -15q0 -20 -13 -37
l-417 -567q-7 -10 -19 -26.5t-12 -27.5q0 -12 9.5 -17t22.5 -6t21 -1h66.5t66.5 1q44 2 84 5.5t75.5 19t65.5 53.5q20 26 33 59.5t25 62.5q1 2 1.5 3.5t1.5 2.5q3 3 8 3q11 0 11 -9z" />
    <glyph glyph-name="Eta" unicode="&#x397;" 
d="M898 18q0 -14 -6.5 -16.5t-18.5 -2.5q-28 0 -55.5 1.5t-55.5 1.5q-31 0 -61.5 -2t-61.5 -2q-15 0 -15 15q0 17 7 18t20 1q40 0 50.5 20t10.5 55q0 62 -0.5 124t-0.5 123h-416v-248q0 -26 9 -48.5t41 -22.5q8 0 16.5 0.5t17.5 0.5q8 0 10 -5.5t2 -12.5q0 -14 -6.5 -16.5
t-18.5 -2.5q-28 0 -55.5 1.5t-55.5 1.5q-32 0 -64 -2t-64 -2q-15 0 -15 15q0 19 16 19.5t28 0.5q21 0 31.5 12.5t14 30t3.5 33.5q0 129 -0.5 257.5t-0.5 257.5q0 29 -11.5 51.5t-44.5 22.5q-8 0 -15.5 -1t-15.5 -1q-14 0 -14 16q0 13 5 17t18 4q29 0 58.5 -1.5t59.5 -1.5
q28 0 55.5 1t55.5 3q4 1 11 1q16 0 16 -17t-8 -17h-19q-41 0 -51.5 -21t-10.5 -56q0 -55 0.5 -111.5t1.5 -112.5h416q0 56 0.5 112t0.5 112q0 26 -9.5 50t-41.5 24q-9 0 -17 -1t-16 -1q-14 0 -14 16q0 14 5 17.5t18 3.5q29 0 57 -1.5t57 -1.5q28 0 56.5 1t56.5 3q3 1 6 1h6
q17 0 17 -18q0 -16 -8.5 -16.5t-19.5 -0.5q-42 0 -53 -20.5t-11 -57.5q0 -129 0.5 -258t0.5 -258q0 -26 9 -48.5t41 -22.5q8 0 16.5 0.5t17.5 0.5q8 0 10 -5.5t2 -12.5z" />
    <glyph glyph-name="Theta" unicode="&#x398;" 
d="M667 412q0 -9 -0.5 -28t-6 -34.5t-19.5 -15.5h-5q-16 0 -31 3t-31 4q-25 3 -49 3.5t-48 0.5q-30 0 -63.5 -2.5t-59.5 -16.5q-4 -1 -11.5 -6t-11.5 -5q-13 0 -13 13q0 8 3.5 26.5t10.5 34t18 15.5q13 0 25 -2.5t25 -3.5q27 -2 53.5 -3t53.5 -1q17 0 41 0.5t47 4t37 10.5
q5 2 14.5 9t12.5 7q5 0 6.5 -4t1.5 -9zM752 367q0 60 -13.5 120t-43 109t-78 78.5t-119.5 29.5q-68 0 -117 -31.5t-80 -82.5t-45.5 -111.5t-14.5 -118.5q0 -61 14 -119.5t44.5 -106t79.5 -76t119 -28.5q71 0 119.5 29.5t78 78.5t43 109t13.5 120zM860 369q0 -114 -42 -198
t-123 -130t-197 -46q-112 0 -192.5 45t-123 127t-42.5 193q0 78 25.5 146.5t73 120.5t113 81t146.5 29q114 0 195 -45t124 -127.5t43 -195.5z" />
    <glyph glyph-name="Iota" unicode="&#x399;" 
d="M656 19q0 -13 -7 -15.5t-18 -2.5q-33 0 -66.5 1.5t-66.5 1.5t-66 -2.5t-66 -2.5q-21 0 -21 18q0 12 7 13t14 1q13 0 25 1t23 5q27 9 32 25.5t5 41.5q0 132 -0.5 264t-0.5 264q0 35 -10.5 50t-26.5 17.5t-32 0.5t-26.5 0t-10.5 15t5.5 16t17.5 3q44 0 88 -1.5t88 -1.5
q21 0 42.5 0.5t43.5 2.5q3 1 9 1q8 0 13 -2t5 -11q0 -15 -5 -17.5t-16 -2.5q-42 0 -65 -12t-23 -60q0 -132 0.5 -264t0.5 -264q0 -31 12.5 -50.5t46.5 -19.5q9 0 18 1.5t18 1.5q13 0 13 -16z" />
    <glyph glyph-name="Kappa" unicode="&#x39a;" 
d="M864 18q0 -9 -3 -11t-11 -3q-19 -3 -38 -3.5t-37 -0.5q-23 0 -56 0.5t-53 10.5q-6 3 -20 20t-30 38.5t-30 40.5t-20 27l-180 238l-53 -41q-1 -57 -1 -114v-114q0 -25 9.5 -49t40.5 -24q8 0 16.5 0.5t17.5 0.5q16 0 16 -16q0 -13 -6.5 -16.5t-17.5 -3.5q-29 0 -57.5 1.5
t-57.5 1.5q-35 0 -69.5 -2.5t-69.5 -2.5q-10 0 -12.5 6t-2.5 13q0 10 10 13.5t21.5 3.5t17.5 1q33 5 43 26t10 50q0 131 -0.5 261t-0.5 260q0 26 -10 47.5t-41 21.5q-8 0 -16.5 -0.5t-16.5 -0.5t-12 6t-4 13q0 13 5.5 15.5t17.5 2.5q29 0 58.5 -1.5t59.5 -1.5q31 0 62 3
t62 3q9 0 16 -3.5t7 -14.5q0 -18 -19 -18q-5 0 -10.5 0.5t-10.5 0.5q-39 0 -48 -22.5t-9 -54.5q0 -64 0.5 -128t-0.5 -129q85 77 168 156.5t158 166.5q3 3 10 12.5t13.5 18.5t7.5 9q2 2 19.5 2.5t36.5 0.5h23q9 0 23 0.5t14 -12.5q0 -10 -3 -12t-11 -4q-21 -5 -33.5 -7.5
t-23 -9t-28.5 -22.5l-253 -236q64 -76 126 -154.5t128 -153.5q15 -16 30 -32.5t32 -30.5q21 -16 40.5 -19.5t42.5 -9.5q7 -2 10 -4t3 -10z" />
    <glyph glyph-name="Lambda" unicode="&#x39b;" 
d="M899 17q0 -6 -2.5 -12.5t-10.5 -6.5q-31 0 -61.5 1t-60.5 1q-42 0 -83 -1t-82 -1q-5 0 -6.5 6.5t-1.5 9.5q0 14 13.5 16t30.5 1.5t30.5 4.5t13.5 24q0 8 -7 29t-15 42.5t-11 29.5q-46 125 -92.5 250.5t-93.5 251.5q-5 -14 -19.5 -53t-35 -93t-43.5 -115.5t-45 -121.5
t-40 -110t-29 -82.5t-11 -37.5q0 -10 11.5 -14.5t27.5 -5.5t30.5 -0.5t20.5 0.5q7 0 9 -6t2 -11q0 -14 -14 -14h-210q-7 0 -9.5 5t-2.5 10q0 10 9 15q26 4 42 7.5t28 14t24 37.5q5 11 10 23l10 24q59 148 114 297t109 299q15 5 35 9t36 4q4 0 4 -3l231 -584q8 -19 16 -39.5
t18 -40.5q14 -26 32.5 -33.5t36.5 -7t30 -1.5t12 -18z" />
    <glyph glyph-name="Mu" unicode="&#x39c;" 
d="M969 715q0 -9 -7.5 -13.5t-15.5 -4.5q-12 0 -24 1.5t-24 1.5q-13 0 -21 -3t-15 -16l-0.5 -19t-0.5 -47.5v-58.5v-52v-28v-125q0 -61 0.5 -122.5t0.5 -123.5q0 -25 9 -47t39 -22q10 0 20 0.5t20 0.5q7 0 11 -5t4 -12q0 -15 -8 -17.5t-20 -2.5q-30 0 -59.5 1.5t-59.5 1.5
q-34 0 -69 -2t-70 -2q-10 0 -12 5.5t-2 12.5q0 10 10 13.5t22 3.5t18 1q32 5 42 26t10 50v586q-60 -147 -121 -294t-119 -295q-7 -19 -14.5 -39t-16.5 -39q-10 -6 -25 -6q-5 0 -8 3q-8 11 -13 25t-10 27l-47 107q-41 95 -84 189.5t-84 188.5l-54 127q0 -148 -0.5 -295
t-0.5 -295q0 -35 10.5 -48t30 -14.5t47.5 -1.5q15 0 15 -18q0 -11 -6 -14t-16 -3q-16 0 -32 0.5t-32 0.5q-34 0 -67 -2.5t-67 -2.5q-10 0 -13.5 4t-3.5 14q0 13 11.5 15t20.5 2q41 0 53 15.5t12 54.5q0 141 1.5 282.5t1.5 282.5q0 21 -10 27t-29 6q-10 0 -20.5 -1.5
t-21.5 -1.5q-23 0 -23 20q0 5 1.5 11t8.5 6q34 0 67 -1.5t67 -1.5h40t40 1l254 -577q60 143 119 287t114 289q54 0 107.5 1.5t107.5 1.5q8 0 9.5 -7.5t1.5 -12.5z" />
    <glyph glyph-name="Nu" unicode="&#x39d;" 
d="M900 718q0 -11 -8 -14t-18 -2.5t-17 0.5q-35 0 -47.5 -19.5t-12.5 -51.5v-621q0 -1 -1 -5t-3 -4h-33q-12 21 -26.5 41t-28.5 39q-111 148 -226 293.5t-232 288.5v-561q-1 -25 10 -46t40 -21q9 0 18 0.5t19 0.5q16 0 16 -18q0 -11 -6 -14.5t-16 -3.5q-18 0 -35.5 1
t-34.5 1q-34 0 -67 -2t-66 -2q-10 0 -13.5 5t-3.5 14q0 13 10.5 15t25.5 1.5t30 3t25.5 18.5t10.5 49q0 128 1.5 257t1.5 257q0 14 -2 33.5t-10.5 34.5t-28.5 15q-12 0 -23.5 -1.5t-22.5 -1.5q-7 0 -15.5 4t-8.5 13q0 5 1.5 12.5t9.5 7.5q23 0 45 -1.5t45 -1.5q26 0 52 1.5
t51 1.5q114 -137 227 -275.5t228 -275.5v451q-1 29 -11.5 48t-42.5 19q-9 0 -17.5 -1t-16.5 -1q-15 0 -15 16q0 20 22 20q23 0 46 -0.5t47 -0.5q28 0 56 2t56 2q11 0 13 -6.5t2 -14.5z" />
    <glyph glyph-name="Xi" unicode="&#x39e;" 
d="M833 143q0 -6 -1 -26.5t-2.5 -44.5t-3 -42.5t-3.5 -21.5q-5 -9 -17 -9q-76 0 -152.5 3t-153.5 3q-76 0 -152 -3t-152 -3q-2 0 -3 1q-10 -1 -16 8q-1 2 -2.5 20.5t-3.5 43t-3 45t-1 25.5q0 19 17 19q12 0 17.5 -9.5t10.5 -24t15.5 -30.5t32.5 -28.5t61 -17.5
q44 -6 89.5 -7t89.5 -1t89.5 1t89.5 7q38 5 60 17.5t33 28.5t16.5 30.5t11 24t16.5 9.5q17 0 17 -18zM719 445q0 -8 -2.5 -27.5t-6 -38.5t-7.5 -26q-4 -9 -12 -9q-19 0 -38.5 2.5t-39.5 3.5q-45 3 -90.5 4t-90.5 1q-25 0 -54.5 -2t-52.5 -15q-9 -5 -17.5 -19.5t-19.5 -14.5
q-6 0 -6 7q0 15 5.5 41t9.5 42q2 11 5.5 15.5t15.5 4.5t24.5 -2.5t25.5 -3.5q44 -4 88 -4h87q16 0 43 0.5t53.5 4t39.5 10.5q4 2 10.5 10.5t13 16t8.5 7.5q8 0 8 -8zM833 588q0 -18 -17 -18q-11 0 -16.5 9.5t-11 24t-17 30t-33 28t-59.5 17.5q-44 6 -89.5 7.5t-89.5 1.5
t-89.5 -1.5t-89.5 -7.5q-38 -5 -60 -17.5t-33 -28t-16.5 -30t-11 -24t-16.5 -9.5q-17 0 -17 18q0 6 1 26t3 44.5t3.5 43t2.5 20.5q3 4 7.5 7t9.5 1q2 1 8 1q74 0 149 -2.5t149 -2.5q75 0 149.5 2.5t149.5 2.5q6 0 8 -1h3q5 0 8 -3t5 -6q2 -2 3.5 -20.5t3 -42.5t2.5 -44
t1 -26z" />
    <glyph glyph-name="Omicron" unicode="&#x39f;" 
d="M752 369q0 60 -13.5 120t-43 109t-78 78.5t-119.5 29.5q-69 0 -118 -31t-80 -81.5t-45.5 -111t-14.5 -119.5q0 -61 14 -120t44.5 -106.5t80 -76t119.5 -28.5q71 0 119.5 29.5t78 78.5t43 109t13.5 120zM861 371q0 -114 -42.5 -198t-123.5 -130.5t-197 -46.5
q-113 0 -193.5 45.5t-123 128t-42.5 193.5q0 79 25.5 147.5t73 120t113.5 80.5t147 29q114 0 195 -45.5t124.5 -128t43.5 -195.5z" />
    <glyph glyph-name="Pi" unicode="&#x3a0;" 
d="M882 716q0 -17 -8 -18.5t-20 -1.5q-40 0 -56 -19.5t-16 -57.5q0 -128 0.5 -256t0.5 -256q0 -25 9.5 -48t40.5 -23q8 0 16.5 0.5t17.5 0.5q8 0 10.5 -5t2.5 -13q0 -14 -6.5 -16.5t-18.5 -2.5q-31 0 -62 1.5t-62 1.5q-28 0 -55.5 -2t-54.5 -2q-9 0 -13.5 2t-4.5 12
q0 15 8.5 17.5t20.5 2.5q40 0 50.5 19.5t10.5 54.5v519q0 13 -1.5 28.5t-9 26.5t-26.5 11l-303 2q-19 0 -28.5 -12t-12.5 -29t-3 -32q0 -128 0.5 -257t0.5 -257q0 -25 9.5 -48.5t40.5 -23.5h34q7 0 10 -5t3 -11q0 -13 -6 -15.5t-17 -2.5q-31 0 -61.5 1t-60.5 1q-31 0 -62 -2
t-62 -2q-16 0 -16 15q0 5 1.5 12t8.5 7q47 0 67.5 13t20.5 64q0 128 -0.5 256.5t-0.5 256.5q0 29 -11 51.5t-45 22.5q-8 0 -15.5 -1t-15.5 -1t-10.5 4.5t-2.5 11.5q0 12 5 18t18 6q33 0 65.5 -1.5t66.5 -1.5q77 0 154.5 -0.5t155.5 -0.5h162q54 0 108 3q3 1 6 1h6
q8 0 12 -5.5t4 -13.5z" />
    <glyph glyph-name="Rho" unicode="&#x3a1;" 
d="M710 549q0 55 -28 88.5t-72 49t-92 15.5h-38q-7 0 -21.5 -0.5t-30.5 -3t-27.5 -7.5t-11.5 -15v-277q26 -15 60.5 -19.5t64.5 -4.5q57 0 101 18.5t69.5 57t25.5 98.5zM815 550q0 -68 -26.5 -109.5t-70.5 -63t-98 -29t-109 -7.5q-31 0 -61 4l-60 8q0 -61 0.5 -122.5
t0.5 -123.5q0 -25 9 -48.5t40 -23.5q8 0 16.5 0.5t17.5 0.5q17 0 17 -17q0 -13 -8 -16.5t-19 -3.5q-28 0 -56.5 1.5t-56.5 1.5q-35 0 -69.5 -2t-69.5 -2q-10 0 -12 5t-2 13q0 15 16 16t25 2q38 4 49 22.5t11 53.5q0 116 0.5 231t0.5 230q0 23 -0.5 46t-0.5 45q0 19 -12.5 26
t-28.5 7q-14 0 -27.5 0.5t-27.5 0.5q-17 0 -17 16q0 5 1.5 13t9.5 8q38 0 76 -2t76 -2q56 0 112 2t112 2q44 0 86.5 -9.5t78 -30.5t56.5 -56.5t21 -86.5z" />
    <glyph glyph-name="Sigma" unicode="&#x3a3;" 
d="M798 205q0 -8 -3 -35.5t-7 -61t-7.5 -61t-5.5 -34.5q-2 -9 -5 -11t-13 -2q-97 0 -194.5 0.5t-195.5 0.5q-44 0 -88.5 -0.5t-88.5 -0.5q-8 0 -12.5 7t-4.5 14q0 11 6.5 16.5t13.5 10.5q14 11 30.5 31.5t28.5 33.5q32 38 62 75.5t60 75.5q21 27 41.5 54t38.5 55
q-58 81 -119 165.5t-125 160.5q-1 2 -2.5 4t-2.5 3q-2 6 -2 9q0 8 7 12t14 4h221q50 0 99.5 0.5t98.5 1.5q24 1 48 2.5t48 1.5q5 0 6 -5t2 -8q5 -26 9.5 -53t10.5 -53q2 -7 3.5 -13.5t1.5 -13.5t-5 -12.5t-13 -5.5q-10 0 -11.5 5t-4.5 12q-22 58 -60.5 80.5t-98.5 26.5
q-32 2 -64 2.5t-64 0.5q-24 0 -48 -1t-48 -1q-5 0 -12 -2t-7 -9t3 -10l179 -257q4 -5 6.5 -10.5t2.5 -12.5q0 -6 -4 -11t-7 -9q-82 -102 -162 -204q-19 -25 -38.5 -49t-37.5 -49q-2 -3 -4.5 -6.5t-2.5 -8.5q0 -7 15.5 -7h21.5q68 0 136.5 0.5t136.5 0.5q47 0 84.5 22.5
t66.5 58t47 74.5q0 6 8 6q11 0 11 -10z" />
    <glyph glyph-name="Tau" unicode="&#x3a4;" 
d="M836 547q0 -5 -5 -8t-10 -3q-9 0 -13 7q-3 5 -6 18.5t-5.5 27.5t-4.5 21q-10 40 -30 58t-48.5 23t-64.5 5q-10 0 -20.5 0.5t-21.5 0.5q-19 0 -39.5 -5.5t-24.5 -28.5q-1 -7 -1 -16v-17q0 -132 1.5 -264.5t1.5 -264.5q0 -30 14 -50t47 -20q10 0 19.5 1t19.5 1q15 0 15 -16
q0 -15 -9 -17t-20 -2q-35 0 -69.5 1t-69.5 1q-37 0 -72.5 -1.5t-71.5 -1.5q-17 0 -17 17q0 15 11 15q2 0 5 -0.5t6 -0.5q44 0 67 13t23 62q0 89 -0.5 178.5t-0.5 179.5v138q0 16 0.5 32t-0.5 32q-1 19 -7.5 24.5t-24.5 7.5q-19 3 -38 3h-38q-16 0 -38.5 -1t-37.5 -7
q-25 -9 -37 -32.5t-16.5 -51t-10.5 -50.5q-2 -8 -5 -14.5t-13 -6.5q-11 0 -11 12q0 29 1.5 57.5t2.5 56.5q1 16 1.5 33t4.5 32l1 4q2 3 6 3q20 0 39.5 -1t39.5 -2q34 -1 67.5 -2t67.5 -1q82 0 163.5 1.5t163.5 3.5q50 3 99 3l2 -2l2 -2t1 -3q2 -4 3.5 -28.5t2.5 -57t2 -59.5
t1 -36z" />
    <glyph glyph-name="Upsilon" unicode="&#x3a5;" 
d="M866 718q0 -6 -2.5 -12t-9.5 -6q-32 0 -53.5 -3.5t-44.5 -31.5q-12 -15 -22 -31.5t-21 -32.5t-31 -44.5t-43.5 -63t-44.5 -68.5t-34.5 -62.5t-13.5 -45.5q0 -52 -1 -103.5t-1 -103.5q0 -26 11.5 -49.5t42.5 -23.5q10 0 19.5 1t19.5 1q7 0 12 -4.5t5 -12.5q0 -13 -5.5 -17
t-17.5 -4q-34 0 -66.5 1.5t-65.5 1.5q-35 0 -70 -2.5t-70 -2.5q-18 0 -18 18q0 6 3 11.5t10 5.5q48 0 70.5 14t22.5 67v63.5t-1 62.5q-1 43 -10.5 75t-27.5 70q-31 66 -70 127.5t-78 122.5l-14 20t-15 18q-12 12 -27 17.5t-32 5.5q-7 0 -13.5 -1t-13.5 -1q-5 0 -7.5 4.5
t-2.5 8.5q0 6 3 9q3 4 24 7.5t48 6t50 4t31 1.5q12 0 18.5 -5.5t12.5 -15.5q56 -85 104 -175.5t93 -182.5q31 51 62 101.5t62 102.5q17 28 34.5 55.5t30.5 57.5q2 4 3.5 8.5t1.5 9.5q0 8 -7.5 9.5t-12.5 1.5q-14 0 -27.5 -0.5t-27.5 -0.5q-6 0 -8.5 4.5t-2.5 9.5q0 6 2.5 11
t9.5 5h103q27 0 54.5 1t55.5 1q6 0 10 -5t4 -11z" />
    <glyph glyph-name="Phi" unicode="&#x3a6;" 
d="M462 583q-69 -5 -124.5 -31.5t-87.5 -75.5t-32 -124t32.5 -123t87.5 -72.5t124 -29.5v456zM782 357q0 72 -31 120.5t-83.5 75.5t-119.5 34v-227.5t1 -227.5q67 6 119.5 31.5t83 73.5t30.5 120zM887 358q0 -70 -30.5 -118t-80 -77t-109 -43.5t-118.5 -17.5v-18
q0 -28 10 -45.5t42 -17.5q8 0 16.5 1.5t17.5 1.5q7 0 8.5 -5t1.5 -10q0 -12 -4.5 -15t-15.5 -3q-31 0 -60.5 1t-59.5 1h-57.5t-57.5 -3q-1 0 -3 -0.5t-4 -0.5q-15 0 -15 17q0 13 4 13h13q38 0 58.5 10.5t20.5 53.5v19q-61 0 -122.5 13.5t-113 43t-83 78.5t-31.5 121
q0 69 32 118t84 80t113 45.5t120 14.5v5q0 17 -4 37t-14.5 34.5t-32.5 14.5q-9 0 -17.5 -1.5t-16.5 -1.5q-7 0 -9 4.5t-2 10.5q0 12 4 15.5t16 3.5q29 0 57 -0.5t57 -0.5q30 0 60.5 0.5t61.5 1.5q2 0 3 0.5t2 0.5q8 0 13.5 -3t5.5 -13q0 -12 -7 -14t-16 -2q-35 0 -51.5 -10
t-20.5 -30.5t-4 -51.5q56 -4 115.5 -19.5t110 -46t82 -77.5t31.5 -115z" />
    <glyph glyph-name="Chi" unicode="&#x3a7;" 
d="M897 13q0 -14 -14 -14h-91.5h-91.5q-3 0 -5 1q-13 2 -17 9t-10 17q-42 76 -91.5 148t-97.5 144q-7 -10 -27.5 -39t-47 -66t-51.5 -73.5t-41.5 -62t-16.5 -29.5q0 -10 11.5 -15t27.5 -6t30.5 -0.5t20.5 0.5t8 -5.5t2 -10.5q0 -11 -11 -11q-30 0 -60 1.5t-60 1.5
q-37 0 -73 -1.5t-73 -1.5q-14 0 -14 14q0 11 13 14q6 1 12.5 1h12.5q26 0 45 3.5t39 20.5q19 15 33 35t29 38q44 53 86.5 106.5t81.5 110.5q-53 80 -106 159l-106 158q-3 5 -5.5 9.5t-7.5 8.5q-6 6 -17.5 9t-19.5 3q-13 0 -25 -1t-25 -1q-8 0 -10.5 5.5t-2.5 12.5
q0 5 3.5 7.5t7.5 3.5q11 4 23 4.5t23 1.5q29 3 59 7.5t60 4.5q9 0 16 -6q2 -2 15.5 -23t33 -53.5l42 -70l43.5 -72.5t36.5 -61t21.5 -36q35 53 70.5 106t66.5 108q3 5 10.5 19.5t14 29t6.5 17.5q0 10 -9.5 12t-17.5 2t-17 -0.5t-18 -0.5q-7 0 -14.5 2t-7.5 12q0 5 2 9.5
t8 4.5q13 0 26 -1t26 -1q29 0 58 0.5t58 1.5q14 1 28 1.5t28 0.5q7 0 12.5 -5t5.5 -12q0 -16 -10 -16h-21q-13 0 -28.5 -1t-27.5 -9q-8 -4 -20.5 -17.5t-24 -27.5t-17.5 -22q-43 -58 -84.5 -117t-84.5 -118q32 -46 63.5 -92.5t64.5 -91.5q27 -37 54.5 -74.5t59.5 -70.5
q23 -25 49 -29.5t57 -4.5q16 0 16 -15z" />
    <glyph glyph-name="Psi" unicode="&#x3a8;" 
d="M916 697q0 -13 -13 -13q-12 0 -23.5 4.5t-22.5 4.5t-17 -7.5t-6 -18.5v-208q0 -49 -28.5 -91.5t-69.5 -68.5q-43 -26 -92 -34.5t-98 -13.5v-153q0 -30 11.5 -49t45.5 -19q7 0 14 0.5t14 0.5t9 -5t2 -11q0 -10 -4 -13t-14 -3q-31 0 -61.5 1.5t-60.5 1.5q-14 0 -28 -0.5
t-28 -0.5q-15 -1 -30 -2.5t-30 -1.5q-18 0 -18 17v8t4 6q30 0 49.5 4.5t29.5 20t10 48.5h2v149q-50 4 -105.5 12.5t-97.5 36.5q-39 26 -63.5 69.5t-24.5 90.5l-3 200q-1 12 -6.5 23t-19.5 11q-12 0 -23 -4.5t-22 -4.5q-13 0 -13 13q0 9 9 13q22 12 55 20.5t58 8.5
q34 0 44 -14.5t10 -45.5l-1 -62q0 -37 0.5 -73t1.5 -72q3 -97 55.5 -140t145.5 -45v346q-1 24 -11.5 44.5t-38.5 20.5q-7 0 -13.5 -1t-12.5 -1q-8 0 -10 4t-2 11q0 12 4.5 15.5t16.5 3.5q26 0 52 -1.5t52 -1.5t52 2t52 3q4 1 8 1h8q14 0 14 -16q0 -13 -6.5 -16t-17.5 -3
q-25 0 -44.5 -10.5t-19.5 -39.5v-361q58 5 101.5 24.5t68.5 58.5t25 102v84q0 32 -1.5 64.5t-1.5 64.5q0 28 19 41t44 13t54 -8.5t51 -20.5q10 -4 10 -13z" />
    <glyph glyph-name="Omega" unicode="&#x3a9;" 
d="M887 106q0 -4 -2 -8q-5 -16 -9 -33t-12 -32q-10 -19 -19.5 -26t-32.5 -7h-244v100q62 21 102 67.5t60 106.5t20 121q0 55 -15.5 109.5t-47 99t-78 71.5t-108.5 27q-63 0 -111 -26.5t-79.5 -71t-47.5 -99.5t-16 -112q0 -60 19.5 -118.5t60 -101.5t103.5 -59v-114h-250
q-19 0 -26 5t-15 21q-1 2 -5 14t-9 26.5t-8.5 26t-3.5 12.5q0 5 4.5 9t8.5 4q7 0 13.5 -9.5t15 -22t21.5 -22t32 -9.5h173v25q-69 20 -121 70t-80.5 118t-28.5 138q0 68 28.5 128.5t77.5 107.5t111 74t129 27q72 0 136 -24.5t113 -69.5t77 -107t28 -136q0 -72 -27.5 -140
t-79.5 -117.5t-124 -68.5v-24h10.5h9.5h76h76q19 0 32 9.5t22 22.5t15.5 22.5t13.5 9.5q5 0 8.5 -4.5t3.5 -9.5z" />
    <glyph glyph-name="alpha" unicode="&#x3b1;" 
d="M564 216q-1 38 -3 75.5t-5 74.5q-1 13 -5 37t-11 48.5t-19 42t-30 17.5t-32.5 -5t-28.5 -16q-32 -22 -56 -60.5t-40 -85t-24 -93t-8 -83.5q0 -25 8.5 -55.5t27.5 -52.5t50 -22q28 0 54.5 19t49.5 48t41.5 59t30.5 52zM782 73q0 -6 -6 -14q-21 -26 -48 -43.5t-62 -17.5
q-23 0 -39 15t-26.5 38t-16 46.5t-8.5 41.5q-26 -37 -56 -69t-67.5 -51.5t-86.5 -19.5q-51 0 -84.5 25t-49.5 66t-16 87q0 58 19.5 121t56.5 117t89.5 87.5t118.5 33.5q39 0 63 -22.5t36.5 -56.5t18 -71t6.5 -66q18 53 33 107t29 108l70 -20q-24 -76 -55 -149t-70 -142
q1 -15 3.5 -44.5t9 -61.5t19.5 -54.5t34 -22.5q19 0 34.5 11t26.5 22.5t14 11.5q5 0 7.5 -4t2.5 -9z" />
    <glyph glyph-name="beta" unicode="&#x3b2;" 
d="M692 212q0 52 -23 92.5t-72 62.5q-11 5 -23.5 9.5t-25.5 5.5q-9 2 -18 2t-18 1q-4 1 -4 8q0 4 1.5 14t7.5 10t12 -1.5t13 -1.5q3 0 6.5 0.5t6.5 1.5q39 11 65.5 40.5t40 68.5t13.5 77q0 28 -10 53.5t-30.5 41.5t-51.5 16q-41 0 -69.5 -22.5t-45 -57t-22.5 -70.5
q-19 -106 -37.5 -211.5t-34.5 -212.5q19 -25 45 -49.5t57 -40.5t64 -16q49 0 83 26t52 67t18 86zM778 197q0 -40 -18 -78.5t-48 -66.5q-39 -37 -78 -46.5t-90 -9.5q-29 0 -63.5 14t-66 35t-51.5 42q-10 -52 -21.5 -103t-22.5 -103h-86q25 101 47 202.5t40 203.5
q8 49 18 97.5t19 97.5q2 15 4.5 30.5t6.5 30.5q19 92 66 143t147 51q46 0 87 -17t67 -50.5t26 -84.5q0 -41 -21.5 -75t-55 -58.5t-69.5 -38.5q-4 -2 -16.5 -7t-12.5 -10q0 -4 10 -7.5t14 -5.5q46 -15 84 -38t61 -59t23 -89z" />
    <glyph glyph-name="gamma" unicode="&#x3b3;" 
d="M749 514q0 -9 -11 -14.5t-19 -7.5q-64 -25 -115 -70.5t-91 -101.5q-8 -11 -16 -22.5t-14 -24.5q-13 -25 -16.5 -53.5t-8.5 -56.5q-9 -46 -20 -91.5t-28 -89.5q-4 -12 -14 -32t-23.5 -35.5t-29.5 -15.5q-28 0 -34 11.5t-6 36.5q0 33 10.5 72.5t27 80.5t34.5 79.5t32 68.5
q1 15 1 29.5v29.5q0 22 -2.5 56t-11 68.5t-26 58t-48.5 23.5q-20 0 -42 -11t-41 -26.5t-32 -30.5q-3 -4 -6 -4q-10 0 -12.5 12t-2.5 19q0 17 14.5 31t36.5 24t43.5 15t35.5 5q45 0 74 -18.5t44.5 -48.5t22 -67t7.5 -74q22 38 54 78.5t71 74t81 49.5q2 1 7 1q8 0 25.5 -2.5
t33 -8.5t15.5 -17z" />
    <glyph glyph-name="delta" unicode="&#x3b4;" 
d="M679 310q0 44 -16 85.5t-48.5 68.5t-81.5 27q-51 0 -91.5 -25t-68 -65.5t-42 -88t-14.5 -92.5q0 -42 17.5 -86.5t51 -74.5t81.5 -30q55 0 95 25.5t66 67.5t38.5 91.5t12.5 96.5zM768 304q0 -86 -37.5 -155t-104 -109.5t-154.5 -40.5q-113 0 -176.5 57.5t-63.5 173.5
q0 63 26 112.5t70 85.5t98.5 58t110.5 30q-16 11 -39.5 23t-46 27.5t-37.5 34t-15 40.5q0 38 24.5 58.5t58.5 29t64 8.5q46 0 95.5 -10.5t86.5 -40.5q6 -5 14.5 -13.5t8.5 -17.5q0 -7 -2 -21.5t-7.5 -26.5t-16.5 -12q-5 0 -10 5q-7 7 -14 15t-14 15q-17 19 -43 37t-54 30
t-55 12q-24 0 -44 -15.5t-20 -41.5q0 -29 21.5 -49.5t55.5 -38.5t71.5 -39t71.5 -49.5t55.5 -70t21.5 -101.5z" />
    <glyph glyph-name="epsilon" unicode="&#x3b5;" 
d="M701 84q0 -6 -3 -10t-8 -9q-22 -22 -57 -37t-72.5 -22t-69.5 -7q-28 0 -61.5 6.5t-64 20.5t-50.5 38t-20 59q0 48 25.5 81.5t64.5 56.5t77 38q-25 12 -50 27.5t-41.5 38.5t-16.5 54q0 14 4 26.5t11 23.5q25 41 71 57t91 16q13 0 35.5 -2.5t46.5 -9t40.5 -18t16.5 -28.5
q0 -10 -9.5 -21t-19.5 -11q-4 0 -18.5 15.5t-35.5 30.5t-47 15q-49 0 -77.5 -26.5t-28.5 -76.5q0 -37 21 -68.5t63 -31.5q8 0 29 7.5t34 7.5q8 0 15 -6t7 -14q0 -16 -11.5 -20.5t-26.5 -4t-26 0.5q-68 0 -113.5 -32t-45.5 -107q0 -39 18 -62t47.5 -33.5t64.5 -10.5
q43 0 86 18t78 41l6 4t7 2q7 0 10.5 -5.5t3.5 -11.5z" />
    <glyph glyph-name="zeta" unicode="&#x3b6;" 
d="M774 692q0 -12 -11 -23.5t-21 -17.5q-22 -13 -47.5 -19t-47.5 -20q-51 -34 -99.5 -74.5t-89.5 -86.5q-29 -34 -59 -77.5t-49.5 -90.5t-19.5 -94q0 -43 17.5 -65.5t47.5 -31.5t66 -14q51 -5 103.5 -4t104.5 -2q41 -2 71.5 -28t30.5 -69q0 -39 -23.5 -59t-57 -27t-64.5 -7
q-9 0 -28.5 0.5t-41 3.5t-36.5 9.5t-15 18.5q0 7 6 12.5t12 5.5q4 0 6 -1q21 -8 46.5 -16t47.5 -8q16 0 39 5.5t40.5 17.5t17.5 33q0 18 -17 30t-38.5 18.5t-35.5 6.5q-43 0 -86.5 -0.5t-86.5 -0.5q-38 0 -78.5 3t-75 15.5t-56 40.5t-21.5 79q0 39 18.5 83t44.5 85.5
t50 70.5q50 62 109 118.5t121 106.5q-38 -10 -77.5 -14t-78.5 -4q-24 0 -51.5 5t-47.5 20.5t-20 46.5q0 16 11 40t28 42.5t35 18.5q2 0 5 -1t3 -5t-6 -18.5t-6 -30.5q0 -30 16.5 -49.5t42 -28.5t52.5 -9q23 0 53 1t52 8q18 16 42 36t50.5 34.5t51.5 14.5q16 0 33.5 -7
t17.5 -27z" />
    <glyph glyph-name="eta" unicode="&#x3b7;" 
d="M769 392q0 -36 -5.5 -72.5t-10.5 -71.5q-10 -63 -22 -125t-23 -124q-5 -28 -10.5 -55.5t-10.5 -55.5h-86q16 88 34 175t33 175q7 41 12 82.5t5 83.5t-20.5 72.5t-67.5 30.5q-31 0 -58.5 -20.5t-49.5 -52t-37 -65t-21 -59.5q-7 -31 -12.5 -61.5t-10.5 -61.5
q-7 -46 -15.5 -93t-16.5 -94l-82 3q17 83 34 165t32 164q5 29 10 57t5 56q0 12 -3 26t-10.5 24.5t-22.5 10.5q-24 0 -42 -14.5t-30.5 -29t-22.5 -14.5q-8 0 -13 7.5t-5 14.5q0 6 2 9t6 7q23 23 55.5 37t64.5 14q39 0 61.5 -25t26.5 -62q37 41 82.5 65.5t102.5 24.5
q71 0 106.5 -39t35.5 -109z" />
    <glyph glyph-name="theta" unicode="&#x3b8;" 
d="M311 346q-3 -46 -3 -93q0 -36 7 -75t23.5 -72.5t45.5 -54.5t74 -21q44 0 78 21.5t59.5 56.5t43.5 77t29 84t16 77h-373zM689 465q0 34 -7 74.5t-23.5 77.5t-45 60.5t-71.5 23.5q-41 0 -74.5 -21t-59 -56t-44.5 -76.5t-31 -82t-19 -73.5h372q3 36 3 73zM785 430
q0 -78 -20 -155t-61 -139.5t-105.5 -100.5t-153.5 -38q-64 0 -108 24.5t-71 66t-39 94t-12 107.5q0 60 13 122t39 119t66 102t94 71.5t123 26.5q63 0 108 -26t73 -69t41 -96.5t13 -108.5z" />
    <glyph glyph-name="iota" unicode="&#x3b9;" 
d="M656 108q0 -8 -4 -14t-9 -11q-29 -34 -73 -60t-91 -26q-33 0 -64 13t-51 38t-20 61q0 26 3.5 51.5t8.5 50.5q15 83 34 165.5t33 165.5l91 -3q-13 -59 -27.5 -118.5t-28.5 -118.5q-10 -43 -21 -87.5t-11 -89.5q0 -31 13.5 -57.5t50.5 -26.5q26 0 50.5 12.5t45 29t35.5 29
t21 12.5q8 0 11 -5t3 -11z" />
    <glyph glyph-name="kappa" unicode="&#x3ba;" 
d="M739 100q0 -6 -4 -14q-19 -36 -47 -64t-72 -28q-49 0 -79 39q-7 11 -15 33t-15.5 48t-12.5 50t-8 38t-6 29.5t-9 28.5q-5 12 -14.5 22t-23.5 10q-16 0 -30 -10t-24 -22q-8 -65 -16 -131t-17 -131h-81q21 136 39.5 271.5t37.5 271.5h79q-10 -59 -19.5 -118.5t-17.5 -119.5
q42 40 90.5 83t100 81.5t102.5 63.5q5 3 10 3q12 0 28 -12t16 -25q0 -10 -17 -17t-25 -10q-65 -26 -125.5 -66.5t-116.5 -83.5q34 0 54.5 -7t34.5 -41q8 -16 11.5 -33.5t7.5 -34.5q3 -15 7.5 -41.5t13 -55t22 -48t33.5 -19.5q21 0 36.5 11.5t26.5 27t18.5 27t12.5 11.5
q7 0 10.5 -6t3.5 -11z" />
    <glyph glyph-name="lambda" unicode="&#x3bb;" 
d="M798 120q0 -10 -5.5 -17.5t-12.5 -14.5q-14 -16 -39 -37t-52 -37t-49 -16q-44 0 -67.5 23t-33 59t-12 74.5t-4.5 69.5q-3 42 -5.5 84.5t-4.5 84.5q-58 -99 -116.5 -198t-119.5 -197l-54 -1q-4 -1 -13.5 0.5t-9.5 7.5t3.5 11t7.5 9q35 45 64 96t59 100q42 72 84.5 143.5
t83.5 144.5q0 19 -2.5 49.5t-9.5 61.5t-22 52.5t-42 21.5q-26 0 -55 -16t-49 -32q-5 -7 -11 -7q-4 0 -4.5 3t-0.5 5q0 14 15.5 30.5t38 30.5t44.5 23t35 9q46 0 73 -17t43 -61q16 -40 19.5 -90.5t4.5 -94.5q4 -71 9.5 -142.5t9.5 -142.5q2 -19 3 -38t5 -37q6 -21 21 -43
t40 -22q15 0 34 12t37.5 27.5t33 27.5t19.5 12t6 -3.5t1 -7.5z" />
    <glyph glyph-name="mu" unicode="&#x3bc;" 
d="M806 97q0 -15 -14.5 -31.5t-36 -30.5t-43 -23t-35.5 -9q-25 0 -40.5 14t-23 35.5t-10.5 42.5q-28 -37 -64 -64t-85 -27q-42 0 -67.5 24t-38 59.5t-15.5 70.5h-5l-12 -54t-17.5 -76t-18.5 -72.5t-16 -44.5q-7 -13 -18.5 -21.5t-26.5 -8.5q-14 0 -20.5 9t-6.5 22t9 35.5
t20 44.5t16 35q20 45 40 91.5t36 92.5q10 30 15.5 60.5t12.5 61.5q10 51 20 103t14 104h87q-16 -79 -33.5 -158.5t-33.5 -159.5q-4 -21 -6.5 -42t-2.5 -43t9.5 -45t27 -38t42.5 -15q41 0 70 26.5t47.5 64.5t26.5 72q5 25 8.5 49.5t7.5 48.5l43 241h90q-22 -100 -43 -200.5
t-40 -201.5q-1 -11 -2.5 -22t-1.5 -22q0 -16 5 -32t26 -16q15 0 30.5 9t29.5 20.5t23.5 20.5t12.5 9q8 0 8 -9z" />
    <glyph glyph-name="nu" unicode="&#x3bd;" 
d="M757 475q0 -55 -14.5 -116.5t-40.5 -118t-63 -98.5q-32 -37 -78.5 -69t-98.5 -52.5t-102 -23.5q6 92 10.5 184t4.5 183q0 15 -1 36t-6 42t-16.5 35t-32.5 14q-18 0 -34 -8.5t-33 -8.5q-8 0 -8 7q0 4 5 7q19 16 49.5 31.5t56.5 15.5q32 0 50.5 -18.5t27 -46.5t10.5 -58.5
t2 -53.5q0 -80 -3.5 -160.5t-8.5 -160.5q14 5 27.5 10.5t26.5 12.5q95 56 141.5 146.5t58.5 196.5q0 3 0.5 6.5t0.5 6.5q0 32 -10.5 46t-37.5 29l-3 2v1v2q0 8 8.5 18.5t20 19.5t18.5 11q8 2 16 2q27 0 42 -24t15 -48z" />
    <glyph glyph-name="xi" unicode="&#x3be;" 
d="M784 35q0 -43 -26.5 -74.5t-65 -50t-76.5 -24.5q-16 -2 -31.5 -3.5t-31.5 -1.5q-4 0 -16 1.5t-22.5 5t-10.5 8.5q0 4 14 6t29.5 3.5t19.5 1.5q27 3 58.5 12.5t54 29t22.5 53.5q0 19 -20 26.5t-35 7.5q-28 0 -62 -7t-63 -11q-23 -3 -47 -6t-47 -3q-46 0 -89 7.5t-79 39.5
q-19 17 -31 39t-12 48q0 45 28.5 83.5t72.5 69.5t91 53.5t83 35.5q-15 8 -35 10.5t-39.5 7t-32.5 15.5t-13 35q0 26 16.5 52t41.5 50t51 44t45 34q-27 -4 -53.5 -6t-53.5 -2q-18 0 -42.5 2t-43 13t-18.5 36q0 6 1.5 15.5t3.5 15.5q3 11 16 27t26 16q3 0 7.5 -2t4.5 -7
q0 -11 -7.5 -22t-7.5 -23q0 -23 17 -33.5t40 -12.5t40 -2q27 0 55 2.5t53 12.5q20 8 39 20.5t39 22.5t43 10q13 0 24.5 -10.5t11.5 -24.5q0 -15 -11.5 -22.5t-23.5 -12.5q-57 -22 -114 -43t-106 -60q-16 -13 -32.5 -32.5t-16.5 -41.5q0 -19 13.5 -31.5t33.5 -20t40.5 -10.5
t34.5 -5q9 5 27 11t36.5 10.5t27.5 4.5q12 0 29.5 -13t17.5 -26q0 -11 -9.5 -17.5t-18.5 -8.5q-12 -3 -24 -3.5t-24 -2.5q-32 -4 -63.5 -9t-62.5 -13q-28 -7 -61 -21t-62.5 -35t-48.5 -48.5t-19 -60.5q0 -31 14 -47t37 -23t48 -11q19 -3 38 -4t38 -1q59 0 119 8t120 8
q35 0 60.5 -12t25.5 -53z" />
    <glyph glyph-name="omicron" unicode="&#x3bf;" 
d="M675 300q0 50 -17 96.5t-53 76.5t-92 30q-50 0 -86 -24.5t-59.5 -64t-34.5 -85.5t-11 -88q0 -49 16 -97t51.5 -79.5t92.5 -31.5q52 0 88.5 25t59.5 65.5t34 87t11 89.5zM775 299q0 -87 -38 -154.5t-105 -106t-155 -38.5q-74 0 -131.5 28t-90 82t-32.5 131q0 89 37 155
t104 103t155 37q72 0 130 -28t92 -80.5t34 -128.5z" />
    <glyph glyph-name="pi" unicode="&#x3c0;" 
d="M840 157q0 -7 -3 -12.5t-7 -10.5q-23 -32 -57 -59.5t-73 -44t-80 -16.5q-57 0 -86 22t-29 83q0 14 2 26.5t4 25.5q14 74 27 148t27 147q-30 0 -59.5 0.5t-59.5 0.5q-9 -39 -17 -78l-16 -78q-12 -56 -28.5 -114t-57.5 -102q-19 -21 -41.5 -38t-46.5 -31
q-11 -7 -31.5 -17.5t-33.5 -10.5q-4 0 -9 2t-5 7q0 6 9.5 10.5t13.5 6.5q41 21 68.5 58.5t44.5 77.5q30 73 44.5 150t27.5 154q-34 -2 -68 -5t-64 -21q-9 -5 -22.5 -17t-23.5 -13l-1 1q3 13 14.5 33t26 37t27.5 20q17 6 38.5 7t40.5 1q79 0 158 -2.5t158 -2.5q27 0 54 1.5
t54 3.5q17 2 33.5 4t32.5 2q2 0 5.5 -1t3.5 -4q0 -1 -4.5 -12.5l-9 -23t-6.5 -14.5q-3 -4 -8 -4q-9 0 -18 0.5t-18 1.5q-28 3 -56 4t-57 1q-22 -75 -42 -151.5t-31 -154.5q-1 -6 -1.5 -12.5t-0.5 -12.5q0 -34 14 -54t51 -20q31 0 61.5 16t57 39.5t44.5 45.5q1 2 4 5q3 4 7 7
t8 3q6 0 8 -5t2 -10z" />
    <glyph glyph-name="rho" unicode="&#x3c1;" 
d="M714 284q0 48 -16.5 91t-50.5 70t-87 27q-46 0 -80.5 -22t-57 -58t-33.5 -78.5t-11 -82.5q0 -47 16 -90.5t50 -70.5t87 -27q47 0 81.5 22t57 57.5t33.5 78t11 83.5zM805 282q0 -82 -33.5 -144.5t-94.5 -97.5t-144 -35q-79 0 -129.5 39t-79.5 109q-13 -67 -22.5 -135.5
t-17.5 -137.5h-89q9 61 20 121.5t24 119.5q14 68 35.5 136t57 124t91.5 90t140 34q69 0 123.5 -25.5t86.5 -75.5t32 -122z" />
    <glyph glyph-name="sigma" unicode="&#x3c3;" 
d="M617 292q0 49 -16.5 93.5t-51 73.5t-89.5 29q-48 0 -83 -24t-57.5 -62.5t-33.5 -82.5t-11 -85q0 -48 16 -93t50 -74t89 -29q50 0 85.5 23.5t58 61.5t33 82.5t10.5 86.5zM818 518q0 -2 -2 -6q-16 -28 -31 -43t-50 -15q-34 0 -67 7t-67 11q49 -34 78.5 -77t29.5 -105
q0 -88 -37 -151.5t-103 -97.5t-153 -34q-68 0 -121 27.5t-83 78.5t-30 121q0 85 35.5 149t99.5 99.5t149 35.5q20 0 40 -2t39 -5q42 -6 84 -10.5t85 -4.5q21 0 42 8.5t35.5 16.5l14.5 8q12 0 12 -11z" />
    <glyph glyph-name="tau" unicode="&#x3c4;" 
d="M750 500l-4.5 -12.5t-9 -24.5t-5.5 -13q-3 -4 -9 -4q-18 0 -36 1.5t-37 2.5q-28 2 -55.5 2h-55.5q-21 -75 -40.5 -152t-31.5 -154q-1 -6 -1.5 -12.5t-0.5 -12.5q0 -36 14.5 -55t52.5 -19q30 0 60.5 16t57 39.5t43.5 45.5q4 5 8.5 10t10.5 5t8 -5t2 -10q0 -11 -10 -23
q-24 -31 -57.5 -58.5t-72 -44.5t-80.5 -17q-57 0 -86 22t-29 83q0 14 2 26.5t4 25.5q14 74 31 147.5t31 147.5q-22 -1 -51.5 -1t-57.5 -3.5t-48 -14.5q-10 -5 -22.5 -17.5t-23.5 -12.5l-1 1v2q1 14 6.5 26t12.5 22q10 12 25.5 25.5t31.5 13.5q22 0 43.5 1t43.5 1
q44 0 87 -2.5t86 -2.5q36 0 72 2t72 6q4 1 7 1h6q7 0 7 -4z" />
    <glyph glyph-name="upsilon" unicode="&#x3c5;" 
d="M747 444v-7.5t-1 -7.5q-6 -46 -20 -102.5t-36.5 -113t-56 -104t-78 -76.5t-102.5 -29q-32 0 -62.5 11t-50 34t-19.5 60q0 8 0.5 16.5t1.5 16.5q5 57 9 113.5t8 113.5q0 5 0.5 9t0.5 8q0 14 -2.5 31t-11 29t-27.5 12q-13 0 -23 -6.5t-19 -6.5q-5 0 -5 6q0 9 13 17.5t31 15
t34.5 10.5t23.5 4q38 0 48 -23.5t10 -55.5v-23t-2 -23q-3 -31 -5.5 -62.5t-6.5 -63.5l-8 -68t-4 -69q0 -34 18.5 -54t53.5 -20q28 0 53.5 16.5t46.5 42t36.5 54t24.5 51.5q12 30 22 70.5t16.5 82t6.5 73.5q0 27 -14.5 38t-37.5 18q1 21 20.5 32.5t37.5 11.5q36 0 56 -23.5
t20 -58.5z" />
    <glyph glyph-name="phi" unicode="&#x3c6;" 
d="M502 479q-100 -22 -160 -89.5t-60 -173.5q0 -76 40 -120t112 -63q20 111 37.5 222.5t30.5 223.5zM722 299q0 68 -36 116t-105 61q-16 -112 -34 -222.5t-35 -221.5q101 22 155.5 94t54.5 173zM812 282q0 -63 -25 -114t-68.5 -87.5t-98.5 -56.5t-114 -22q-4 -30 -10 -60
t-11 -61h-84q8 30 15.5 60.5t12.5 60.5q-61 8 -116 33.5t-89.5 72t-34.5 114.5q0 66 27.5 116.5t73.5 85.5t103 55t116 24q5 52 11 103.5t11 103.5h97q-14 -50 -23.5 -101.5t-19.5 -102.5q63 -10 114.5 -36t82 -72t30.5 -116z" />
    <glyph glyph-name="chi" unicode="&#x3c7;" 
d="M782 7q0 -4 -1 -7t-3 -6q-13 -23 -36.5 -51t-52 -48t-58.5 -20q-29 0 -46.5 23.5t-28.5 46.5q-8 19 -14.5 38.5t-13.5 38.5q-10 32 -20.5 64.5t-20.5 65.5q-48 -65 -94 -131.5t-94 -131.5h-81q62 80 125 159t121 161q-9 31 -20 60.5t-23 59.5q-4 13 -9 25t-10 25
q-3 10 -6 19.5t-8 18.5q-6 13 -16.5 27t-27.5 14t-34.5 -9.5t-31.5 -19t-21 -9.5q-4 0 -4 5q0 9 6 15.5t11 12.5q20 21 44.5 41t54.5 20q32 0 47.5 -10t28.5 -39q8 -14 11 -30t7 -32q9 -40 16.5 -80.5t18.5 -79.5q40 63 80.5 126.5t74.5 129.5h112q-60 -79 -120 -159
t-122 -158q9 -27 23 -68.5t30 -81.5t31 -63q9 -13 21.5 -24.5t29.5 -11.5q21 0 39.5 12.5t33.5 28.5t26 28.5t18 12.5q3 0 5 -3t2 -5z" />
    <glyph glyph-name="psi" unicode="&#x3c8;" 
d="M824 427q0 -78 -13.5 -149t-46.5 -127.5t-90.5 -93t-145.5 -46.5q-5 -32 -11 -64.5t-11 -64.5q-22 -1 -43 -1h-42q6 32 13.5 63t12.5 62q-56 7 -101.5 25.5t-72 56t-26.5 101.5q0 46 8 91.5t17 90.5q4 20 8 40.5t4 40.5q0 8 -5.5 19.5t-15.5 11.5q-19 0 -43.5 -11.5
t-41.5 -21.5l-2 1q2 13 16.5 26t34.5 24t39.5 18t31.5 7q26 0 48 -14.5t22 -43.5q0 -19 -3 -38.5t-7 -38.5q-11 -58 -21.5 -115t-10.5 -116q0 -57 37 -88.5t89 -38.5q26 176 51.5 350.5t42.5 350.5h96q-29 -174 -57 -348.5t-54 -348.5q42 14 76.5 32t62.5 55q44 58 57 132
t13 144q0 18 -5 33t-23 23q13 14 31 25t38 11q29 0 36 -21t7 -44z" />
    <glyph glyph-name="omega" unicode="&#x3c9;" 
d="M859 338q0 -54 -16.5 -111t-49 -106t-79.5 -79.5t-108 -30.5q-55 0 -84 33t-45 80q-27 -52 -68.5 -84.5t-102.5 -32.5q-54 0 -90.5 27.5t-55.5 71t-19 92.5q0 57 20 110.5t54 99.5t76 81q7 6 15.5 12t18.5 6t10 -10t-6 -18l-12 -16q-49 -58 -73 -123t-24 -142
q0 -21 5 -47t16.5 -51t30 -41t44.5 -16q34 0 59 21t42 55t27.5 73t16.5 76t9 62q1 9 1.5 18.5t2.5 19.5q4 19 16.5 30t31.5 11q12 0 22.5 -7t10.5 -21q0 -25 -7.5 -49.5t-12.5 -49.5q-9 -51 -9 -104q0 -28 8.5 -57.5t29 -49.5t54.5 -20t59 25t42 65t27.5 84.5t15 85
t4.5 65.5q0 23 -5 46t-18.5 40t-39.5 21q3 16 20 25.5t31 9.5q34 0 55 -18t31.5 -46t14.5 -59t4 -57z" />
    <glyph glyph-name="Iocy" unicode="&#x401;" 
d="M809 189q0 -9 -1.5 -19t-3.5 -19q-3 -20 -6 -39.5t-5 -39.5q-1 -15 -2.5 -30t-4.5 -29q-2 -9 -5.5 -11.5t-12.5 -2.5q-90 0 -180 1.5t-180 1.5q-51 0 -101.5 -2.5t-101.5 -2.5q-7 0 -12 4.5t-5 11.5q0 19 12 20.5t25 1.5h30q27 0 37.5 13t12 33.5t1.5 40.5q0 65 1 128.5
t1 127.5v132v72.5t-2 72.5q-1 17 -6 24.5t-22 10.5q-16 3 -32.5 3.5t-32.5 0.5q-7 0 -11.5 6.5t-4.5 13.5q0 6 3.5 13t10.5 7q16 0 32 -1t32 -1h226q38 0 76 0.5t76 1.5q24 1 48.5 2.5t48.5 1.5q5 0 5.5 -5t1.5 -8q4 -27 9 -54.5t11 -53.5q2 -7 3.5 -14t1.5 -15
q0 -17 -18 -17q-9 0 -13 9q0 1 -2 7q-21 53 -53.5 77t-74.5 30t-94 6q-24 0 -48.5 -0.5t-48.5 -0.5q-10 0 -22 -5t-12 -18v-273q22 0 43.5 -0.5t43.5 -0.5q44 0 89 3.5t89 11.5q10 2 20 4.5t20 2.5q5 0 5 -8q0 -4 -3.5 -18t-9 -26t-10.5 -12h-14q-32 0 -64.5 3.5t-64.5 3.5
q-11 0 -34.5 -1t-48.5 -4.5t-43 -12.5t-18 -26v-246q0 -31 20 -37t45 -6h130q42 0 74 9t63 39q21 20 34 50t23 57q2 4 4 7.5t7 3.5t9 -3t4 -8zM422 832q0 -23 -13.5 -35t-36.5 -12q-22 0 -35 12.5t-13 34.5t13 35t35 13t36 -12.5t14 -35.5zM676 832q0 -23 -13.5 -35
t-36.5 -12q-22 0 -35 12.5t-13 34.5t13 35t35 13t36 -12.5t14 -35.5z" />
    <glyph glyph-name="Acy" unicode="&#x410;" 
d="M595 293q-34 92 -67 184.5t-68 184.5q-34 -93 -68.5 -185.5t-72.5 -183.5h276zM899 19q0 -7 -3 -13t-11 -6q-31 0 -61 1t-60 1q-42 0 -83 -1t-82 -1q-5 0 -7 6.5t-2 9.5q0 14 13.5 15.5t22.5 1.5q16 0 34 3.5t18 25.5q0 9 -9 36t-22 60t-24.5 61.5t-16.5 41.5h-295
q-3 -8 -11.5 -30.5t-19 -51t-20.5 -56t-16.5 -47.5t-6.5 -24q0 -10 11 -15t27 -6t30.5 -0.5t21.5 0.5q8 0 9.5 -5.5t1.5 -11.5q0 -14 -14 -14h-210q-7 0 -9.5 5t-2.5 10q0 16 16 16q33 0 53 14.5t34 43.5q5 11 10 23l10 24q58 148 113.5 296.5t109.5 297.5q16 5 35 9t36 4
q4 0 4 -3l231 -581q8 -19 16 -39.5t17 -40.5q13 -26 32 -33t37 -7t30.5 -2t12.5 -18z" />
    <glyph glyph-name="Becy" unicode="&#x411;" 
d="M723 207q0 83 -40 124.5t-123 41.5q-13 0 -26.5 0.5t-27.5 0.5q-34 0 -69 -1.5t-70 -3.5v-303q0 -18 13 -26.5t30 -10.5t30 -2q20 0 40 0.5t40 1.5q56 3 102 21.5t73.5 57t27.5 99.5zM828 222q0 -73 -36 -124.5t-104 -77.5q-42 -16 -93 -18.5t-95 -2.5q-48 0 -96 1.5
t-96 1.5q-30 0 -60.5 -1.5t-60.5 -1.5q-15 0 -15 16q0 4 2 9.5t6 5.5q14 0 28 0.5t27 3.5q23 5 30 16.5t9 33.5q2 21 2 42v41q0 121 -0.5 241.5t-0.5 240.5q0 16 -5 28t-21 18q-10 5 -27.5 5h-28.5q-17 0 -17 16q0 4 2.5 11t7.5 7q13 0 25.5 -1t25.5 -1q59 0 118 -1t117 -1
q40 0 80 1l80 2q25 1 49 2.5t49 1.5q5 0 6 -4q2 -4 6 -25t8.5 -47t8 -47t3.5 -26q0 -8 -6 -13.5t-14 -5.5q-9 0 -12 10q-13 38 -28 62t-56 40q-21 8 -53.5 12t-65.5 5t-57 1h-27.5t-40 -0.5t-23.5 -2.5q-5 -2 -8.5 -5t-3.5 -10v-279q44 2 89 3t89 1q32 0 63 -1t61 -8
q44 -10 80 -33.5t57.5 -59t21.5 -82.5z" />
    <glyph glyph-name="Vecy" unicode="&#x412;" 
d="M722 205q0 83 -39.5 124.5t-122.5 41.5q-13 0 -27 0.5t-28 0.5q-34 0 -69 -2t-70 -3v-304q0 -20 16 -28t36.5 -8.5t34.5 -0.5h34t33 1q56 3 101.5 21.5t73 57t27.5 99.5zM669 557q0 49 -17.5 78t-47 43.5t-66.5 19.5t-77 5q-7 0 -22 -1t-32 -3.5t-29 -8.5t-12 -15v-275
h93q40 0 84 5.5t75 33.5q23 21 37 54t14 64zM828 219q0 -73 -37 -124t-104 -76q-41 -16 -85.5 -18t-88.5 -2q-52 0 -103 1.5t-103 1.5q-30 0 -60.5 -2t-60.5 -2q-14 0 -14 14t5.5 15.5t15.5 1.5q23 0 40 2t27.5 13t12.5 38q2 20 2 41.5v41.5q0 120 -0.5 239.5t-0.5 238.5
q0 15 -5 27.5t-21 18.5q-11 5 -26.5 5h-28.5q-17 0 -17 17q0 3 2 9.5t7 6.5q13 0 26 -1t26 -1q27 0 54.5 -0.5t54.5 -0.5q44 0 87.5 5.5t86.5 5.5q45 0 90 -5t81.5 -21t58.5 -49.5t22 -90.5q0 -44 -23.5 -77.5t-59.5 -56.5t-74 -37q37 -5 74.5 -17.5t69 -34t50.5 -53
t19 -74.5z" />
    <glyph glyph-name="Gecy" unicode="&#x413;" 
d="M802 545q0 -8 -6.5 -11.5t-14.5 -3.5q-7 0 -13.5 14.5t-10.5 31.5t-7 24q-18 56 -46.5 77.5t-88.5 21.5q-20 0 -40.5 0.5t-40.5 0.5t-40.5 -0.5t-40.5 -3.5q-16 -2 -27 -8t-13 -24q-1 -5 -1 -11v-12q0 -134 1 -269t1 -270q0 -31 14.5 -51t48.5 -20q9 0 18 1.5t18 1.5
q16 0 16 -17q0 -11 -5.5 -15t-16.5 -4q-37 0 -73 1.5t-73 1.5q-36 0 -72.5 -1.5t-72.5 -1.5q-17 0 -17 17q0 12 7 13t15 1q44 0 67 13t23 62q0 124 0.5 248t0.5 248q0 24 -0.5 46.5t-12.5 37t-45 14.5q-11 0 -22.5 -0.5t-22.5 -0.5q-7 0 -9 5.5t-2 10.5q0 6 3 13t10 7
q14 0 27.5 -1t26.5 -1h226q52 0 104 0.5t104 1.5q20 1 40 3t40 2q8 0 10.5 -3t4.5 -9q0 -1 1 -18t2 -42t2.5 -51t2 -45.5t0.5 -24.5z" />
    <glyph glyph-name="Decy" unicode="&#x414;" 
d="M656 574q0 8 -0.5 30t-1.5 43t-4 26q-6 10 -14.5 13.5t-19.5 3.5h-194q-12 -109 -23 -220t-31 -220t-59 -213h161q46 0 92 0.5t92 0.5q1 44 1.5 87.5t0.5 87.5v361zM885 -88q0 -9 -2.5 -18.5t-13.5 -9.5q-7 0 -12 4.5t-8 10.5q-12 20 -22 36t-29 31q-15 13 -39.5 20.5
t-49.5 11.5t-45 4h-284q-33 0 -77 -2.5t-85 -14.5t-64 -38q-12 -13 -18.5 -28.5t-17.5 -28.5q-4 -5 -9 -5q-7 0 -9.5 2t-2.5 10q0 29 5.5 60.5t12.5 59.5q3 12 8.5 18.5t19.5 6.5q32 0 65 14t45 47q46 131 69.5 275.5t23.5 282.5q0 8 -2 15t-10 11q-1 1 -10.5 1.5l-19 1
t-12.5 0.5q-11 0 -21.5 -2t-21.5 -2q-14 0 -14 14q0 8 2 21t14 13q28 0 55.5 -2t55.5 -2h162q75 0 150 2.5t150 2.5q8 0 10.5 -3.5t2.5 -11.5q0 -19 -4.5 -25t-25.5 -6q-5 0 -10.5 1t-10.5 1q-14 0 -22 -4t-10 -19q-4 -16 -3.5 -32.5t0.5 -33.5q-1 -98 -2.5 -196t-1.5 -196
q0 -84 3 -170q26 0 53 1t54 1l11 -2q7 -2 9 -9t3 -13q2 -26 3.5 -53t1.5 -53z" />
    <glyph glyph-name="Iecy" unicode="&#x415;" 
d="M813 189q0 -9 -1.5 -19t-3.5 -19q-3 -20 -6 -39.5t-5 -39.5q-1 -15 -2.5 -30t-4.5 -29q-2 -9 -5.5 -11.5t-12.5 -2.5q-90 0 -180 1.5t-180 1.5q-51 0 -101.5 -2.5t-101.5 -2.5q-7 0 -12 4.5t-5 11.5q0 19 12 20.5t25 1.5h30q27 0 37.5 13t12 33.5t1.5 40.5q0 65 1 128.5
t1 127.5v132v72.5t-2 72.5q-1 17 -6 24.5t-22 10.5q-16 3 -32.5 3.5t-32.5 0.5q-7 0 -11.5 6.5t-4.5 13.5q0 6 3.5 13t10.5 7q16 0 32 -1t32 -1h226q38 0 76 0.5t76 1.5q24 1 48.5 2.5t48.5 1.5q5 0 5.5 -5t1.5 -8q4 -27 9 -54.5t11 -53.5q2 -7 3.5 -14t1.5 -15
q0 -17 -18 -17q-9 0 -13 9q0 1 -2 7q-21 53 -53.5 77t-74.5 30t-94 6q-24 0 -48.5 -0.5t-48.5 -0.5q-10 0 -22 -5t-12 -18v-273q22 0 43.5 -0.5t43.5 -0.5q44 0 89 3.5t89 11.5q10 2 20 4.5t20 2.5q5 0 5 -8q0 -4 -3.5 -18t-9 -26t-10.5 -12h-14q-32 0 -64.5 3.5t-64.5 3.5
q-11 0 -34.5 -1t-48.5 -4.5t-43 -12.5t-18 -26v-246q0 -31 20 -37t45 -6h130q42 0 74 9t63 39q21 20 34 50t23 57q2 4 4 7.5t7 3.5t9 -3t4 -8z" />
    <glyph glyph-name="Zhecy" unicode="&#x416;" 
d="M971 13q0 -13 -15 -13h-117q-11 0 -17 1.5t-13 10.5q-8 10 -14.5 21t-12.5 21l-50 81l-151 244l-45 -47q-1 -56 -1 -112.5v-112.5q0 -16 3.5 -33t14 -28.5t30.5 -11.5q8 0 16 0.5t16 0.5t11.5 -5.5t3.5 -12.5q0 -13 -6 -15t-17 -2q-28 0 -54.5 1.5t-53.5 1.5
q-34 0 -66.5 -1.5t-65.5 -1.5q-10 0 -12 4t-2 12q0 12 8.5 15t19.5 3t18 1q33 4 42 27t9 51q0 56 -0.5 112.5t-0.5 112.5l-34 35q-37 -61 -75.5 -122t-76.5 -122l-47 -76q-6 -10 -12 -20.5t-14 -19.5q-7 -9 -13 -10.5t-17 -1.5h-118q-7 0 -10 1.5t-3 8.5q0 13 12 17
q21 8 36.5 12t32.5 21q14 15 26.5 32.5t24.5 34.5q50 75 99.5 150.5t99.5 149.5l-208 236q-17 20 -40 28t-47 12q-9 2 -12 5t-3 13q0 12 16 12q12 0 23.5 -1t24.5 -1h70q5 0 8 -1t4 -6q2 -4 2.5 -8.5t1.5 -8.5q3 -7 8.5 -14.5t9.5 -13.5q54 -76 112 -148t119 -141v244
q-1 26 -10.5 44t-38.5 18q-7 0 -14.5 -0.5t-14.5 -0.5q-17 0 -17 18q0 8 3 13.5t13 5.5q34 0 68 -1t68 -1q26 0 53 1.5t54 1.5q9 0 11 -5.5t2 -12.5q0 -10 -4.5 -13.5t-14.5 -3.5q-4 0 -8.5 1t-9.5 1q-36 0 -45.5 -14.5t-9.5 -47.5q0 -64 0.5 -128t0.5 -129
q63 71 122.5 145.5t114.5 152.5q5 6 10 13.5t8 14.5q1 4 1.5 8.5t2.5 8.5q2 5 5 6t8 1h70q12 0 23.5 1t24.5 1q6 0 11 -2t5 -10q0 -10 -3.5 -13t-12.5 -5q-24 -4 -47 -12t-40 -28l-202 -230q51 -76 101.5 -152.5t101.5 -153.5q12 -17 23.5 -35t26.5 -33q17 -16 30.5 -22
t35.5 -11q7 -2 11.5 -4t4.5 -10z" />
    <glyph glyph-name="Zecy" unicode="&#x417;" 
d="M805 228q0 -73 -42.5 -128t-109.5 -81q-40 -16 -82 -20.5t-84 -4.5q-47 0 -100.5 18.5t-101 49.5t-76.5 68q-4 5 -7 10t-3 12q0 10 8 15.5t17 5.5q10 0 20 -8t18.5 -17.5t18.5 -18.5q25 -23 60 -42.5t73.5 -31t72.5 -11.5q61 0 109.5 16.5t77 55.5t28.5 107
q0 45 -19.5 73.5t-51 44.5t-69 22.5t-73.5 6.5q-22 0 -44.5 -4t-42.5 -4q-7 0 -7 5q0 7 8 21.5t11 21.5h92q45 0 79 21t53 57t19 80q0 47 -25 75t-63.5 40.5t-79.5 12.5q-13 0 -33 -4t-39.5 -10t-31.5 -13q-17 -9 -33.5 -24t-25.5 -32q-10 -16 -14.5 -34t-9.5 -36
q0 -1 -0.5 -4.5t-2.5 -5.5q-6 -6 -15 -6q-11 0 -11 11q0 38 2.5 77t2.5 77q0 4 1.5 9.5t5.5 5.5q36 0 72 -3q36 15 74.5 25t78.5 10q39 0 82.5 -8t82.5 -26.5t63.5 -50.5t24.5 -80q0 -60 -37 -97.5t-88 -60.5q-4 -1 -11.5 -4.5t-7.5 -8.5q0 -7 6.5 -8t10.5 -2
q40 -9 78.5 -30.5t64.5 -55.5t26 -79z" />
    <glyph glyph-name="Iicy" unicode="&#x418;" 
d="M910 21q0 -10 -4 -15.5t-15 -5.5q-16 0 -32.5 0.5t-32.5 0.5q-46 0 -91.5 -1t-91.5 -1q-10 0 -13 4.5t-3 12.5q0 18 7.5 18h20.5q43 0 53 21t10 58l-1 439l-429 -429v-16q-1 -27 9 -49.5t43 -22.5q8 0 17 0.5t18 0.5q8 0 12 -5.5t4 -13.5q0 -15 -9 -17t-20 -2
q-29 0 -57.5 1.5t-57.5 1.5q-33 0 -66 -1.5t-65 -1.5q-18 0 -18 19q0 5 2.5 10.5t8.5 5.5q32 0 51 4.5t27.5 21t8.5 51.5q0 130 -0.5 259t-0.5 259q0 32 -10.5 49.5t-45.5 18.5q-8 1 -17 0t-17 -1q-9 0 -11.5 5.5t-2.5 12.5q0 12 4.5 16.5t17.5 4.5q30 0 60 -0.5t61 -0.5
q32 0 63 1.5t62 1.5q19 0 19 -18q0 -16 -8 -18t-20 -2q-42 0 -53 -17t-10 -55v-457l431 452q0 18 -4 35.5t-14.5 29t-32.5 11.5q-9 0 -18 -1t-17 -1q-9 0 -11.5 5.5t-2.5 12.5q0 14 5.5 17.5t18.5 3.5q29 0 58 -1.5t59 -1.5q32 0 63.5 3t63.5 3q18 0 18 -18
q0 -16 -8.5 -17.5t-20.5 -1.5q-43 0 -54 -20t-11 -58q0 -128 0.5 -256t0.5 -256q0 -26 9.5 -49.5t41.5 -23.5q8 0 17 0.5t18 0.5q8 0 10.5 -4.5t2.5 -12.5z" />
    <glyph glyph-name="Iishortcy" unicode="&#x419;" 
d="M910 21q0 -11 -4 -16.5t-15 -5.5q-16 0 -32.5 0.5t-32.5 0.5q-46 0 -91.5 -1t-91.5 -1q-10 0 -13 4.5t-3 13.5q0 18 7.5 17.5t20.5 -0.5q43 0 53 21.5t10 58.5v442l-429 -430v-16q-1 -26 8.5 -50t42.5 -24q8 0 17 0.5t18 0.5q8 0 12 -5.5t4 -12.5q0 -15 -9 -17.5
t-20 -2.5q-29 0 -57 1t-57 1q-34 0 -66.5 -1.5t-65.5 -1.5q-10 0 -13.5 7t-3.5 15q0 4 2.5 8.5t7.5 4.5q49 0 68 14.5t19 66.5q0 129 -0.5 258t-0.5 258q0 30 -12 50t-46 20q-8 0 -16 -1t-16 -1q-9 0 -11.5 5t-2.5 12q0 13 4.5 17.5t17.5 4.5q31 0 61.5 -2t61.5 -2t61.5 2
t61.5 2q19 0 19 -18q0 -16 -8 -17t-20 -1q-42 0 -52.5 -17.5t-9.5 -55.5v-456l431 453q-1 27 -9.5 50.5t-42.5 23.5q-9 0 -18 -1t-17 -1q-9 0 -11.5 5t-2.5 12q0 14 5.5 18t18.5 4q29 0 58 -1t59 -1q32 0 63.5 2t63.5 2q18 0 18 -18q0 -16 -8.5 -17t-20.5 -1
q-42 0 -53.5 -19t-11.5 -57q0 -129 0.5 -258t0.5 -258q0 -26 9.5 -49.5t42.5 -23.5q8 0 16.5 0.5t17.5 0.5q8 0 10.5 -4.5t2.5 -11.5zM672 830q0 -19 -18 -32.5t-44 -22t-51 -12t-39 -3.5q-15 0 -40 3.5t-50.5 12t-43 22t-17.5 32.5q0 15 9.5 25.5t25.5 10.5q14 0 23 -10.5
t9 -24.5q0 -3 -1 -6t-3 -6q20 -9 41.5 -15t43.5 -6q23 0 46 6t44 14q-2 8 -2 13q0 14 8.5 24.5t22.5 10.5t25 -10.5t11 -25.5z" />
    <glyph glyph-name="Kacy" unicode="&#x41a;" 
d="M863 14q0 -8 -7 -10t-13 -2h-149q-12 0 -19.5 1.5t-16.5 10.5t-16 19.5t-15 20.5q-16 22 -32 43t-33 42l-177 235l-54 -42q0 -56 -0.5 -112.5t-0.5 -112.5q0 -25 10 -48.5t41 -23.5q8 0 16.5 0.5t16.5 0.5t12 -5.5t4 -13.5q0 -13 -6.5 -15.5t-17.5 -2.5q-28 0 -56.5 1.5
t-57.5 1.5q-35 0 -70 -1t-70 -1q-10 0 -12.5 5.5t-2.5 13.5q0 12 12.5 15t29 3.5t26.5 4.5q22 8 28 29t6 42q0 129 -0.5 257.5t-0.5 257.5q0 27 -9.5 48.5t-41.5 21.5q-7 0 -14.5 -0.5t-15.5 -0.5q-19 0 -19 19q0 13 5.5 16t17.5 3q42 0 84 -1t84 -1q20 0 40 1t40 1
q8 0 13.5 -2.5t5.5 -11.5q0 -17 -10 -20.5t-24.5 -3t-29.5 -3t-25 -19t-10 -51.5q0 -64 1 -128t-1 -128q84 77 166 156t157 164q9 11 18.5 21.5t16.5 21.5q5 2 20 3t31.5 1h22.5t17 0.5t19.5 -2t8.5 -12.5q0 -7 -2.5 -9.5t-8.5 -4.5q-13 -4 -26 -6t-26 -7q-11 -4 -20.5 -12
t-17.5 -16l-250 -233q63 -76 123.5 -155t125.5 -153q14 -16 29.5 -31t31.5 -29q21 -18 40 -21.5t43 -11.5q8 -3 11.5 -6t3.5 -12z" />
    <glyph glyph-name="Elcy" unicode="&#x41b;" 
d="M852 17q0 -12 -5 -14.5t-16 -2.5q-29 0 -58 1.5t-58 1.5q-31 0 -62.5 -1.5t-63.5 -1.5q-14 0 -14 14q0 11 13 14q14 3 31 4t31.5 7.5t18.5 26.5q1 8 1 15.5v14.5v50t0.5 89t0.5 111t-0.5 116.5t-1 105.5t-1.5 78t-3 33q-5 9 -14.5 12.5t-18.5 3.5h-184
q-13 -133 -29 -266.5t-47 -264.5q-13 -57 -35.5 -99.5t-75.5 -72.5q-18 -10 -48 -21.5t-50 -11.5q-16 0 -27 10.5t-11 26.5q0 24 20 42t42 22q46 9 72.5 31t42 56t24.5 75q24 110 39 222t15 224q0 15 -6 19.5t-20 5.5q-9 1 -27.5 0.5t-33.5 3t-15 15.5q0 22 23 22h516
q9 0 16 -4t7 -15q0 -14 -12.5 -17t-28 -2t-23.5 -2q-8 -4 -11 -7.5t-5 -11.5q-3 -16 -2 -33t1 -33q0 -40 -1 -80t-1 -80q0 -88 1.5 -176t1.5 -176q0 -25 8 -46t39 -21q8 0 16.5 1.5t17.5 1.5q7 0 9 -5t2 -11z" />
    <glyph glyph-name="Emcy" unicode="&#x41c;" 
d="M969 715q0 -9 -7.5 -13.5t-15.5 -4.5q-12 0 -24 1.5t-24 1.5q-13 0 -21 -3t-15 -16l-0.5 -19t-0.5 -47.5v-58.5v-52v-28v-125q0 -61 0.5 -122.5t0.5 -123.5q0 -25 9 -47t39 -22q10 0 20 0.5t20 0.5q7 0 11 -5t4 -12q0 -15 -8 -17.5t-20 -2.5q-30 0 -59.5 1.5t-59.5 1.5
q-34 0 -69 -2t-70 -2q-10 0 -12 5.5t-2 12.5q0 10 10 13.5t22 3.5t18 1q32 5 42 26t10 50v586q-60 -147 -121 -294t-119 -295q-7 -19 -14.5 -39t-16.5 -39q-10 -6 -25 -6q-5 0 -8 3q-8 11 -13 25t-10 27l-47 107q-41 95 -84 189.5t-84 188.5l-54 127q0 -148 -0.5 -295
t-0.5 -295q0 -35 10.5 -48t30 -14.5t47.5 -1.5q15 0 15 -18q0 -11 -6 -14t-16 -3q-16 0 -32 0.5t-32 0.5q-34 0 -67 -2.5t-67 -2.5q-10 0 -13.5 4t-3.5 14q0 13 11.5 15t20.5 2q41 0 53 15.5t12 54.5q0 141 1.5 282.5t1.5 282.5q0 21 -10 27t-29 6q-10 0 -20.5 -1.5
t-21.5 -1.5q-23 0 -23 20q0 5 1.5 11t8.5 6q34 0 67 -1.5t67 -1.5h40t40 1l254 -577q60 143 119 287t114 289q54 0 107.5 1.5t107.5 1.5q8 0 9.5 -7.5t1.5 -12.5z" />
    <glyph glyph-name="Ency" unicode="&#x41d;" 
d="M898 18q0 -14 -6.5 -16.5t-18.5 -2.5q-28 0 -55.5 1.5t-55.5 1.5q-31 0 -61.5 -2t-61.5 -2q-15 0 -15 15q0 17 7 18t20 1q40 0 50.5 20t10.5 55q0 62 -0.5 124t-0.5 123h-416v-248q0 -26 9 -48.5t41 -22.5q8 0 16.5 0.5t17.5 0.5q8 0 10 -5.5t2 -12.5q0 -14 -6.5 -16.5
t-18.5 -2.5q-28 0 -55.5 1.5t-55.5 1.5q-32 0 -64 -2t-64 -2q-15 0 -15 15q0 19 16 19.5t28 0.5q21 0 31.5 12.5t14 30t3.5 33.5q0 129 -0.5 257.5t-0.5 257.5q0 29 -11.5 51.5t-44.5 22.5q-8 0 -15.5 -1t-15.5 -1q-14 0 -14 16q0 13 5 17t18 4q29 0 58.5 -1.5t59.5 -1.5
q28 0 55.5 1t55.5 3q4 1 11 1q16 0 16 -17t-8 -17h-19q-41 0 -51.5 -21t-10.5 -56q0 -55 0.5 -111.5t1.5 -112.5h416q0 56 0.5 112t0.5 112q0 26 -9.5 50t-41.5 24q-9 0 -17 -1t-16 -1q-14 0 -14 16q0 14 5 17.5t18 3.5q29 0 57 -1.5t57 -1.5q28 0 56.5 1t56.5 3q3 1 6 1h6
q16 0 16 -17q0 -16 -8.5 -16.5t-19.5 -0.5q-42 0 -52.5 -21.5t-10.5 -57.5q0 -129 0.5 -258t0.5 -258q0 -26 9 -48.5t41 -22.5q8 0 16.5 0.5t17.5 0.5q8 0 10 -5.5t2 -12.5z" />
    <glyph glyph-name="Ocy" unicode="&#x41e;" 
d="M752 369q0 60 -13.5 120t-43 109t-78 78.5t-119.5 29.5q-69 0 -118 -31t-80 -81.5t-45.5 -111t-14.5 -119.5q0 -61 14 -120t44.5 -106.5t80 -76t119.5 -28.5q71 0 119.5 29.5t78 78.5t43 109t13.5 120zM861 371q0 -114 -42.5 -198t-123.5 -130.5t-197 -46.5
q-113 0 -193.5 45.5t-123 128t-42.5 193.5q0 79 25.5 147.5t73 120t113.5 80.5t147 29q114 0 195 -45.5t124.5 -128t43.5 -195.5z" />
    <glyph glyph-name="Pecy" unicode="&#x41f;" 
d="M882 716q0 -17 -8 -18.5t-20 -1.5q-40 0 -56 -19.5t-16 -57.5q0 -128 0.5 -256t0.5 -256q0 -25 9.5 -48t40.5 -23q8 0 16.5 0.5t17.5 0.5q8 0 10.5 -5t2.5 -13q0 -14 -6.5 -16.5t-18.5 -2.5q-31 0 -62 1.5t-62 1.5q-28 0 -55.5 -2t-54.5 -2q-9 0 -13.5 2t-4.5 12
q0 15 8.5 17.5t20.5 2.5q40 0 50.5 19.5t10.5 54.5v519q0 13 -1.5 28.5t-9 26.5t-26.5 11l-303 2q-19 0 -28.5 -12t-12.5 -29t-3 -32q0 -128 0.5 -257t0.5 -257q0 -25 9.5 -48.5t40.5 -23.5h34q7 0 10 -5t3 -11q0 -13 -6 -15.5t-17 -2.5q-31 0 -61.5 1t-60.5 1q-31 0 -62 -2
t-62 -2q-16 0 -16 15q0 5 1.5 12t8.5 7q47 0 67.5 13t20.5 64q0 128 -0.5 256.5t-0.5 256.5q0 29 -11 51.5t-45 22.5q-8 0 -15.5 -1t-15.5 -1t-10.5 4.5t-2.5 11.5q0 12 5 18t18 6q33 0 65.5 -1.5t66.5 -1.5q77 0 154.5 -0.5t155.5 -0.5h162q54 0 108 3q3 1 6 1h6
q8 0 12 -5.5t4 -13.5z" />
    <glyph glyph-name="Ercy" unicode="&#x420;" 
d="M711 544q0 61 -31 94.5t-78.5 46.5t-98.5 13q-9 0 -27 -1.5t-38 -5.5t-34 -11.5t-14 -19.5v-266q25 -15 60 -19.5t64 -4.5q57 0 101.5 18t70 56.5t25.5 99.5zM815 550q0 -68 -26 -110.5t-69.5 -65.5t-97.5 -31.5t-110 -8.5q-31 0 -61 4l-60 8q0 -60 0.5 -119.5
t0.5 -119.5q0 -32 11.5 -53t47.5 -21q8 0 16.5 0.5t16.5 0.5t11.5 -5t3.5 -12q0 -19 -22 -19q-33 0 -66 1.5t-65 1.5q-35 0 -69 -2t-69 -2q-10 0 -12 5.5t-2 12.5q0 4 2.5 10.5t7.5 6.5h28t27 3q29 5 35 23t6 43q0 127 0.5 254.5t0.5 254.5v17.5t-0.5 24.5t-1.5 16
q-5 17 -20 20t-29 3q-10 0 -20 -0.5t-20 -0.5q-8 0 -16 4.5t-8 13.5q0 5 1.5 12.5t9.5 7.5h133q62 0 124 3.5t124 3.5t116 -16.5t87.5 -56.5t33.5 -112z" />
    <glyph glyph-name="Escy" unicode="&#x421;" 
d="M849 185q0 -7 -6.5 -16.5t-10.5 -15.5q-57 -88 -133.5 -123.5t-180.5 -35.5q-111 0 -193.5 45t-127.5 127t-45 193t44 198t126 137t196 50q44 0 85.5 -13.5t84.5 -25.5q23 -6 45.5 -8.5t44.5 -2.5q4 -34 7.5 -69t8.5 -70q2 -13 5 -26t3 -27q0 -15 -10 -21.5t-23 -6.5
q-10 0 -16 10.5t-9 23.5t-5 20q-21 83 -74.5 133.5t-142.5 50.5q-34 0 -69.5 -11.5t-62.5 -31.5q-47 -34 -76.5 -84t-42.5 -107t-13 -114q0 -40 8.5 -82.5t23.5 -79.5q35 -83 100 -124t154 -41q77 0 138.5 33.5t108.5 94.5q5 8 10.5 16t11.5 15q4 5 7 7t10 2q6 0 12.5 -7.5
t6.5 -12.5z" />
    <glyph glyph-name="Tecy" unicode="&#x422;" 
d="M830 551q0 -10 -12 -10q-6 0 -8 1q-8 3 -11 20.5t-7.5 41t-18 46t-43.5 34.5q-23 10 -52.5 11t-54.5 1q-13 0 -30.5 -1.5t-30.5 -8.5t-16 -25q-1 -5 -1 -10.5v-10.5q0 -134 1 -269t1 -269q0 -30 12.5 -49.5t45.5 -19.5q11 0 21.5 0.5t20.5 0.5q15 0 15 -16
q0 -12 -5.5 -15.5t-16.5 -3.5q-37 0 -73 1t-73 1t-74 -1t-74 -1q-17 0 -17 15q0 13 8 14t17 1q44 0 67.5 13t23.5 62v238v237q0 21 0.5 41.5t-1.5 40.5q-1 20 -7 25.5t-24 7.5q-18 3 -35.5 3h-35.5q-20 0 -41 -1.5t-39 -9.5q-23 -9 -35 -29.5t-17 -44t-8 -42t-8 -24.5
q-6 -6 -13 -6q-11 0 -11 11q0 28 1.5 56t2.5 56q1 15 1 31.5t4 31.5l1 4q2 4 6 4q32 0 64 -2.5t64 -2.5h154q44 0 87.5 0.5t86.5 0.5q44 1 87.5 2.5t86.5 2.5q3 -3 5 -9q2 -5 3.5 -29t3 -54.5t2 -56.5t0.5 -35z" />
    <glyph glyph-name="Ucy" unicode="&#x423;" 
d="M845 716q0 -16 -10.5 -17t-21.5 -1q-29 0 -42.5 -7.5t-28.5 -33.5q-16 -28 -29.5 -58t-27.5 -60q-28 -59 -57.5 -118.5t-58.5 -118.5q-23 -49 -46.5 -98t-52.5 -96q-31 -53 -77 -88t-111 -35q-25 0 -49 7.5t-40 24.5t-16 47q0 35 21 47t52 12q6 -35 27 -56.5t58 -21.5
q39 0 59.5 23.5t36.5 54.5q11 23 19 47t8 49q0 7 -1.5 14t-3.5 14q-15 45 -37 87t-41 85q-9 21 -24.5 55.5t-33.5 72.5t-35.5 69.5t-29.5 46.5q-18 20 -35 21.5t-41 1.5q-9 0 -14.5 3t-5.5 14t12 17q2 1 23.5 3.5t50.5 5t52.5 4t29.5 1.5q11 0 14 -10q5 -4 8.5 -9.5
t5.5 -10.5q48 -100 89.5 -203.5t84.5 -204.5q7 14 20.5 43t31 67.5t35.5 79t33 77.5t24.5 64t9.5 36q0 5 0.5 10t0.5 10q0 8 -7 11q-5 4 -19.5 4.5t-29.5 0.5h-22q-9 0 -15 3.5t-6 13.5q0 11 9.5 14.5t21 3.5h18.5q23 0 45.5 -1t45.5 -1q27 0 54 1.5t55 1.5q9 0 11.5 -5.5
t2.5 -13.5z" />
    <glyph glyph-name="Efcy" unicode="&#x424;" 
d="M462 606q-70 -6 -125 -33.5t-86.5 -78t-31.5 -125.5q0 -76 31 -126t86 -75.5t126 -31.5v470zM783 373q0 73 -30.5 123t-83.5 78.5t-121 35.5v-234.5t1 -234.5q69 7 121.5 33.5t82.5 76t30 122.5zM887 374q0 -71 -29.5 -120t-79 -79.5t-109.5 -45.5t-120 -19v-17
q0 -27 10 -50t42 -23q8 0 16.5 0.5t17.5 0.5q7 0 9.5 -5.5t2.5 -11.5q0 -10 -4.5 -13t-13.5 -3q-31 0 -62 2.5t-62 2.5q-29 0 -57.5 -0.5t-57.5 -3.5q-1 0 -3 -0.5t-4 -0.5q-15 0 -15 17q0 11 4.5 12t12.5 1q40 0 59.5 16t19.5 58v18q-62 0 -124 14t-113 45t-82 81.5
t-31 123.5q0 68 31.5 118.5t83.5 83t113.5 48.5t120.5 16v15q0 27 -8 48t-41 21q-10 0 -18.5 -0.5t-17.5 -0.5q-7 0 -9 4.5t-2 10.5q0 8 2.5 13.5t12.5 5.5q31 0 62.5 -1.5t62.5 -1.5q29 0 58 1.5t58 2.5q2 0 3 0.5t2 0.5q9 0 14 -3t5 -13q0 -12 -5.5 -13.5t-13.5 -1.5
q-40 0 -60.5 -13.5t-20.5 -56.5l1 -18q61 0 121 -15.5t109.5 -48t79 -82.5t29.5 -120z" />
    <glyph glyph-name="Hacy" unicode="&#x425;" 
d="M900 13q0 -14 -15 -14q-47 0 -94.5 1t-94.5 1q-13 0 -22 12q-3 4 -4.5 7.5t-3.5 7.5q-12 22 -25 43l-26 42q-33 52 -67.5 103t-69.5 102q-7 -9 -26.5 -37t-45 -65t-49.5 -73.5t-40 -62t-16 -30.5q0 -10 9.5 -14.5t21.5 -5.5t19 -1q9 0 18 1t18 1q5 0 9 -5.5t4 -10.5
t-4 -10.5t-10 -5.5q-31 0 -62.5 1.5t-62.5 1.5q-37 0 -73.5 -1t-72.5 -1q-13 0 -13 14q0 17 12.5 17h23.5q24 0 45 4t41 20q25 20 56.5 56.5t64 80t61.5 84t48 68.5q-52 80 -105 158.5t-106 156.5q-4 5 -7 9.5t-7 8.5q-7 6 -18 9t-19 3q-13 0 -25.5 -1t-24.5 -1
q-8 0 -10.5 5t-2.5 12q0 8 10 12q2 1 18 3t40 4.5t48 4.5t42.5 3.5t23.5 1.5q9 0 15 -6q3 -2 9.5 -11.5t7.5 -12.5q44 -71 85 -144t86 -144q7 10 26 39t43 66.5t47 74t38 63t15 32.5q0 8 -6.5 10t-12.5 2q-14 0 -28 -1.5t-28 -1.5q-6 0 -7.5 7t-1.5 11q0 5 1.5 10t8.5 5h28
h28q42 0 84 1t84 1q8 0 10.5 -6.5t2.5 -12.5q0 -13 -7 -17t-19 -4q-7 0 -13 1t-12 1q-10 0 -19.5 -1.5t-17.5 -6.5q-8 -4 -30.5 -31.5t-51.5 -66t-58.5 -79t-52.5 -73t-32 -46.5q30 -46 62.5 -91t64.5 -90q27 -37 55 -75t60 -71q20 -20 39 -25.5t46 -7.5q6 -1 13.5 -0.5
t13.5 -1.5q13 -4 13 -17z" />
    <glyph glyph-name="Tsecy" unicode="&#x426;" 
d="M867 715q0 -14 -18 -14q-45 0 -61.5 -17.5t-16.5 -61.5q0 -129 0.5 -258t0.5 -258q0 -43 17 -56t58 -13q8 0 10.5 -2.5t3.5 -9.5q2 -7 1.5 -16t-0.5 -17q2 -22 2 -44.5v-45.5q0 -7 -3.5 -14.5t-11.5 -7.5t-12 5.5t-7 11.5q-10 20 -21.5 36.5t-29.5 30.5q-24 20 -59.5 27
t-65.5 8q-41 2 -82 2h-82h-225q-28 0 -56.5 -1.5t-57.5 -1.5q-9 0 -14 3.5t-5 13.5q0 16 12 17t23 1q38 0 49 19.5t11 55.5v315v100.5t-1 100.5q0 17 -2.5 34t-12 28t-32.5 11q-8 0 -16.5 -0.5t-16.5 -0.5t-10.5 4.5t-2.5 11.5q0 11 4 16t15 5q29 0 57.5 -1.5t56.5 -1.5
q31 0 61.5 1.5t61.5 1.5q17 0 17 -15q0 -16 -8 -17.5t-21 -1.5q-40 0 -50.5 -20t-10.5 -55v-527q0 -35 14.5 -48t48.5 -15q20 -1 39.5 -1h38.5q36 0 72 1t72 1q42 0 61.5 14t19.5 59q0 68 -0.5 135.5t-0.5 134.5v246q0 26 -9 49t-41 23q-8 0 -17 -0.5t-17 -0.5t-10 4.5
t-2 11.5q0 14 6.5 17.5t18.5 3.5q27 0 53.5 -0.5t53.5 -0.5q34 0 68 2t68 2q10 0 12 -6t2 -14z" />
    <glyph glyph-name="Checy" unicode="&#x427;" 
d="M846 20q0 -15 -6.5 -17.5t-19.5 -2.5q-29 0 -57.5 1.5t-57.5 1.5q-35 0 -69.5 -2t-69.5 -2q-16 0 -16 16q0 17 7.5 18t20.5 1q41 0 58 20t17 60v261q-38 -55 -97 -79.5t-124 -24.5q-80 0 -119.5 23.5t-52.5 71t-13 119.5v170q0 26 -12 34.5t-30.5 8t-36.5 -0.5
q-8 0 -10.5 4.5t-2.5 11.5q0 11 3.5 16t15.5 5q29 0 57 -1.5t57 -1.5q31 0 61.5 1.5t61.5 1.5q8 0 12.5 -2.5t4.5 -11.5q0 -17 -8.5 -18.5t-20.5 -1.5q-28 0 -43.5 -8.5t-15.5 -40.5v-219q0 -61 29 -89.5t90 -28.5q47 0 98 23.5t81 60.5q2 4 8.5 13.5t6.5 13.5v227
q0 13 -8 27t-22 16q-12 2 -24.5 2h-24.5q-8 0 -10.5 4.5t-2.5 11.5q0 11 3.5 16t15.5 5q29 0 57 -1.5t57 -1.5q31 0 61.5 1.5t61.5 1.5q8 0 12.5 -2.5t4.5 -11.5q0 -17 -8.5 -18.5t-20.5 -1.5q-18 0 -33 -5.5t-23 -23.5q-2 -4 -2 -11q0 -82 -0.5 -163t-0.5 -163v-223
q-1 -27 9 -50.5t43 -23.5q8 0 17 0.5t18 0.5q8 0 10.5 -5t2.5 -13z" />
    <glyph glyph-name="Shacy" unicode="&#x428;" 
d="M974 21q0 -13 -5.5 -15.5t-16.5 -2.5q-31 0 -62.5 -0.5t-62.5 -0.5h-621q-38 0 -76.5 -2t-76.5 -2q-9 0 -15.5 3.5t-6.5 13.5q0 16 8.5 17t19.5 1q39 0 54.5 19t15.5 56q0 130 -0.5 260t-0.5 260q0 17 -3.5 33.5t-13.5 28t-31 11.5q-9 0 -17.5 -0.5t-16.5 -0.5t-10.5 4.5
t-2.5 11.5q0 14 6 17.5t19 3.5q27 0 54.5 -1.5t55.5 -1.5q30 0 59.5 1.5t60.5 1.5q16 0 16 -17t-8.5 -17h-19.5q-40 0 -49 -19.5t-9 -54.5v-522q0 -15 2.5 -32t12 -28.5t29.5 -11.5h189l-1 592q-1 26 -10 49.5t-41 23.5q-9 0 -17.5 -0.5t-16.5 -0.5t-10 4.5t-2 11.5
q0 14 6 17t19 3q28 0 55.5 -1.5t55.5 -1.5q32 0 64 2t64 2q15 0 15 -16q0 -4 -1.5 -10.5t-6.5 -6.5q-49 0 -67 -14.5t-17 -64.5v-589h184q29 0 40.5 24t11.5 49v521q0 26 -9.5 49.5t-40.5 23.5q-9 0 -17.5 -0.5t-16.5 -0.5t-10.5 4.5t-2.5 11.5q0 14 6.5 17.5t19.5 3.5
q28 0 55.5 -1.5t55.5 -1.5q32 0 64 1.5t65 1.5q15 0 15 -16q0 -4 -1.5 -10.5t-6.5 -6.5q-48 0 -66.5 -14.5t-18.5 -64.5v-524q0 -26 8.5 -45t39.5 -19q11 0 22.5 1t23.5 1q9 0 11 -5.5t2 -13.5z" />
    <glyph glyph-name="Shchacy" unicode="&#x429;" 
d="M965 718q0 -5 -2 -11t-9 -6q-49 0 -65.5 -14.5t-16.5 -64.5q0 -132 -0.5 -264t-0.5 -265q0 -16 4 -31.5t22 -23.5q8 2 17 2h17l10 -2q7 -3 8.5 -9.5t2.5 -12.5q3 -29 5.5 -59t2.5 -59q0 -17 -15 -17q-7 0 -11 3t-8 9q-13 22 -22.5 38t-29.5 33q-28 23 -68.5 30t-75.5 7
h-554q-31 0 -62 -1.5t-62 -1.5q-17 0 -17 17q0 15 8.5 16t18.5 1q39 0 55 19t16 56q0 130 -0.5 259t-0.5 259q0 17 -3 33.5t-13.5 28t-31.5 11.5q-8 0 -17 -0.5t-17 -0.5t-10.5 4t-2.5 11q0 14 6 18t19 4q28 0 55 -1.5t55 -1.5q30 0 60 1.5t60 1.5q16 0 16 -18q0 -16 -8 -16
h-19q-40 0 -49.5 -19.5t-9.5 -54.5v-520q0 -15 2.5 -32t12 -28.5t29.5 -11.5h189l-1 591q0 17 -3.5 33.5t-14 28t-31.5 11.5q-8 0 -17 -0.5t-17 -0.5t-10.5 4t-2.5 11q0 14 7 17.5t19 3.5q27 0 54.5 -0.5t54.5 -0.5q32 0 63.5 1t62.5 1q15 0 15 -17q0 -3 -1.5 -9.5
t-6.5 -6.5q-48 0 -65 -15t-17 -64q0 -147 0.5 -294t0.5 -294q46 0 92 1t92 1q29 0 40 23.5t11 47.5v518q0 15 -4.5 31.5t-14.5 28.5t-29 12q-8 0 -17 -0.5t-17 -0.5q-7 0 -9.5 4.5t-2.5 10.5q0 15 6 18.5t19 3.5q26 0 52 -1t51 -1q34 0 67.5 1.5t67.5 1.5q16 0 16 -16z" />
    <glyph glyph-name="Hardsigncy" unicode="&#x42a;" 
d="M803 204q0 83 -40 124t-123 41q-13 0 -26.5 0.5t-27.5 0.5q-23 0 -46 -2t-46 -3v-301q0 -18 15 -26t34 -10t32 -2q58 0 110 16.5t85 55.5t33 106zM908 219q0 -73 -38.5 -124.5t-106.5 -77.5q-34 -13 -70.5 -15t-71.5 -2q-46 0 -92.5 1.5t-93.5 1.5q-30 0 -60.5 -2
t-60.5 -2q-15 0 -15 15q0 16 8 15.5t18 -0.5q32 0 52 8t24 45q2 20 2 41.5v41.5q0 125 -0.5 250t-0.5 249q0 17 -11.5 24.5t-26.5 9.5t-28 2q-42 0 -80 -4t-73 -30q-25 -18 -35.5 -36.5t-21.5 -45.5q-3 -8 -7 -13t-13 -5q-14 0 -14 16q0 8 1.5 16t2.5 15q5 27 9.5 53.5
t9.5 53.5q2 6 2 10q1 3 7 3h149q75 0 150.5 2t150.5 2q8 0 10.5 -4.5t2.5 -11.5q0 -19 -12.5 -19.5t-25.5 -0.5q-28 0 -41.5 -9.5t-13.5 -40.5v-252q66 3 131 3q31 0 62.5 -1.5t61.5 -7.5q44 -9 80 -32.5t57.5 -59t21.5 -82.5z" />
    <glyph glyph-name="Yerucy" unicode="&#x42b;" 
d="M556 203q0 83 -39.5 124t-123.5 41q-13 0 -26.5 0.5t-27.5 0.5q-23 0 -46 -2t-46 -3v-301q0 -18 13 -25.5t30.5 -9.5t29.5 -2q45 0 87 8t75.5 27.5t53.5 54t20 87.5zM661 218q0 -73 -36 -122.5t-104 -75.5q-43 -16 -92 -18.5t-94 -2.5q-37 0 -73.5 1t-73.5 1
q-30 0 -60.5 -1.5t-60.5 -1.5q-14 0 -14 15q0 5 1.5 10.5t7.5 5.5h27.5t26.5 3q23 5 30 16t8 33q2 17 2 34v33v500q0 29 -13.5 38.5t-33.5 10t-41 0.5q-8 0 -10 4.5t-2 11.5q0 11 4 16t16 5q18 0 35.5 -1t35.5 -1q33 0 66 0.5t66 0.5q12 0 24.5 1t24.5 1q5 0 7.5 -5t2.5 -9
q0 -18 -11.5 -18h-23.5q-7 0 -13.5 -0.5t-12.5 -2.5q-19 -5 -24 -18t-5 -30q0 -63 -0.5 -126.5t-0.5 -126.5q62 3 123 3q33 0 67 -1.5t66 -8.5q44 -9 79.5 -32.5t57 -59t21.5 -82.5zM947 13q0 -10 -3.5 -13t-13.5 -3q-31 0 -62 1.5t-62 1.5q-30 0 -60 -2t-60 -2
q-15 0 -15 15q0 17 7.5 18t19.5 1q40 0 50.5 19.5t10.5 54.5v519q0 26 -9 50t-41 24q-8 0 -17 -1t-17 -1q-14 0 -14 16q0 13 6 17t18 4q27 0 54 -1t54 -1q35 0 69.5 1t68.5 1q9 0 11 -4.5t2 -12.5q0 -16 -11 -17t-22 -1q-40 0 -51.5 -21.5t-11.5 -56.5q0 -129 0.5 -257.5
t0.5 -257.5q0 -25 9.5 -48t40.5 -23q8 0 17 0.5t17 0.5t11 -7t3 -14z" />
    <glyph glyph-name="Softsigncy" unicode="&#x42c;" 
d="M693 205q0 83 -40 124t-123 41q-14 0 -27 0.5t-27 0.5q-23 0 -46 -2t-46 -3v-301q0 -18 13 -25.5t30 -9.5t30 -2q44 0 86 8.5t76 28t54 54t20 86.5zM798 220q0 -73 -36.5 -122.5t-104.5 -75.5q-43 -16 -91.5 -18.5t-93.5 -2.5q-37 0 -73.5 1t-73.5 1q-31 0 -61 -1.5
t-60 -1.5q-15 0 -15 15q0 16 7.5 15.5t17.5 -0.5q32 0 52.5 8t24.5 45q2 17 2 35v35q0 125 -0.5 249t-0.5 248q0 29 -13.5 38.5t-33.5 10t-40 0.5q-8 0 -10.5 4.5t-2.5 11.5q0 11 3.5 16t16.5 5q18 0 35.5 -1t36.5 -1q33 0 65.5 0.5t66.5 0.5q12 0 23.5 1t24.5 1
q5 0 7.5 -4.5t2.5 -9.5q0 -18 -12 -18h-23q-29 0 -42 -10t-13 -41v-253q60 3 123 3q33 0 66.5 -1.5t65.5 -8.5q43 -9 79 -32.5t58 -59t22 -82.5z" />
    <glyph glyph-name="Ereversedcy" unicode="&#x42d;" 
d="M844 369q0 -108 -43.5 -193t-124.5 -133.5t-192 -48.5q-103 0 -182 34t-135 125q-3 5 -8 14t-5 14q0 6 5.5 11.5t11.5 5.5q7 0 10.5 -3.5t6.5 -8.5q53 -76 117.5 -112.5t158.5 -36.5q68 0 119 26t85.5 71t52.5 102t19 119q-31 2 -62 3t-63 1q-40 0 -80.5 -1t-81.5 -1
q-53 0 -106 -12q-12 -2 -24 -6t-25 -4q-6 0 -10.5 2.5t-4.5 9.5t5 23t13 30.5t16 14.5q13 0 26 -2.5t26 -3.5q71 -5 141.5 -5h140.5q22 0 43.5 0.5t43.5 1.5q-5 73 -32 143.5t-89 115.5q-26 20 -64 31.5t-70 11.5q-45 0 -89.5 -12t-76.5 -45q-28 -28 -38.5 -59.5
t-19.5 -68.5q-2 -8 -6 -17.5t-15 -9.5h-9q-22 0 -22 22q0 14 2.5 27t4.5 26q6 32 11.5 64t11.5 63q11 -1 23 -1.5t23 -0.5q30 0 60 11.5t58 18.5q20 6 41.5 9.5t43.5 3.5q115 0 195 -45.5t121.5 -128.5t41.5 -196z" />
    <glyph glyph-name="Iucy" unicode="&#x42e;" 
d="M861 362q0 39 -8 84t-24 88.5t-42 80t-62.5 58t-83.5 21.5q-48 0 -84.5 -21.5t-62 -58t-41.5 -80t-23.5 -88.5t-7.5 -84q0 -49 11.5 -105t37 -105.5t67.5 -80.5t103 -31t103 31t68 80t37.5 105t11.5 106zM958 369q0 -75 -18 -142.5t-56 -119t-97.5 -81.5t-142.5 -30
q-124 0 -196 64.5t-102 180.5q-7 27 -11.5 54.5t-4.5 55.5q0 4 0.5 7.5t1.5 7.5h-129v-261q0 -25 8.5 -49t40.5 -24q8 0 16.5 0.5t17.5 0.5q12 0 12 -15q0 -18 -18 -18q-20 0 -39.5 0.5t-39.5 0.5q-31 0 -63.5 -0.5t-64.5 -1.5q-12 -1 -24.5 -1.5t-24.5 -0.5q-10 0 -11.5 5
t-1.5 12q0 5 1 11t8 6q30 0 51.5 4.5t32.5 20.5t11 51q0 131 -0.5 261t-0.5 260q0 32 -10 49t-45 17q-7 0 -13.5 -1t-13.5 -1q-13 0 -13 16q0 14 4.5 17.5t18.5 3.5q26 0 51.5 -1.5t51.5 -1.5h30t30 1q19 2 38.5 3t38.5 1q9 0 11.5 -5t2.5 -13q0 -16 -10.5 -17t-21.5 -1
q-41 0 -52 -21t-10 -56l1 -208h130q9 66 31.5 124.5t60 103.5t92 71t127.5 26q80 0 139 -29.5t98 -80.5t58 -117t19 -139z" />
    <glyph glyph-name="Iacy" unicode="&#x42f;" 
d="M659 672q0 12 -13 18.5t-31 9.5t-34.5 3.5t-24.5 0.5q-55 0 -98.5 -12.5t-69 -46t-25.5 -96.5q0 -21 7 -41.5t17 -38.5q22 -35 56 -50.5t73.5 -19t76.5 -3.5q17 0 33.5 1t32.5 5v270zM852 717q0 -8 -7 -14.5t-15 -6.5h-45q-18 0 -28 -6.5t-10 -26.5v-553
q0 -28 10.5 -48.5t41.5 -24.5q7 -1 19 -1t21.5 -2.5t9.5 -13.5q0 -8 -3 -13.5t-13 -5.5q-13 0 -26.5 0.5t-27.5 0.5q-50 0 -100 -1t-100 -1q-10 0 -15 2.5t-5 13.5q0 17 15.5 17.5t26.5 0.5q36 0 47 21.5t11 52.5v259l-103 -4q-48 -81 -94 -163t-99 -160
q-12 -18 -21.5 -26.5t-21 -11t-33.5 -2.5q-9 0 -17.5 1t-17.5 1q-23 0 -46.5 -0.5t-46.5 -0.5q-5 0 -8 4.5t-3 8.5q0 13 11 14t20 1q20 0 39 11q23 13 50 42.5t56 69t56 81t50 78.5t38 61q-55 11 -101.5 33.5t-74.5 63t-28 102.5q0 50 27 85t70 55q37 17 76.5 21t79.5 4h17
t17 -1q41 -2 82 -3t81 -1q30 0 60 2.5t60 2.5q11 0 14.5 -4t3.5 -15z" />
    <glyph glyph-name="acy" unicode="&#x430;" 
d="M572 117q-4 45 -4.5 90.5t-1.5 91.5h-15q-31 0 -68.5 -9.5t-71.5 -28.5t-56 -47t-22 -66q0 -48 27 -72.5t74 -24.5q22 0 48 10.5t50.5 25.5t39.5 30zM748 53q0 -4 -1 -6q-10 -22 -33.5 -33.5t-47.5 -11.5q-42 0 -61 24t-30 61q-38 -35 -84.5 -58.5t-99.5 -23.5
q-37 0 -70 14.5t-53 42.5t-20 68q0 42 21.5 73t56 52t73 34.5t72.5 20.5q23 5 47 9l48 8q0 28 -3 65t-16 61q-12 23 -34.5 41t-49.5 18q-46 0 -72.5 -24t-37.5 -68q-1 -5 -1.5 -10.5t-2.5 -10.5q-1 -6 -7.5 -10.5t-12.5 -4.5q-19 0 -35 9t-16 30q0 12 4 21q13 31 42.5 51.5
t65.5 31.5t66 11q54 0 99 -20t71.5 -58.5t26.5 -96.5q0 -65 -0.5 -131t3.5 -132q2 -22 9.5 -38.5t33.5 -16.5q12 0 27 6.5t19 6.5q3 0 3 -5z" />
    <glyph glyph-name="becy" unicode="&#x431;" 
d="M650 270q0 35 -7.5 76t-25.5 78t-47.5 60.5t-73.5 23.5t-73.5 -23.5t-47.5 -60.5t-26 -78t-8 -76q0 -36 7.5 -77t25.5 -78t47.5 -60.5t74.5 -23.5t75 23.5t47 60t24.5 78t7.5 77.5zM743 270q0 -73 -27 -135t-79.5 -99.5t-131.5 -37.5q-83 0 -141 42.5t-84 121.5
q-13 40 -18 90t-5 93q0 80 18.5 155.5t62 138t117.5 102.5q20 11 41 17t43 9q16 2 44 4.5t58.5 7.5t54.5 14.5t32 25.5l2 1q4 0 4 -4q0 -63 -29.5 -84t-86.5 -26q-41 -4 -83 -12t-79 -28q-36 -19 -61.5 -51.5t-44.5 -67.5q-20 -37 -33.5 -83.5t-14.5 -88.5q11 26 27 52
t35 46q16 18 42 33.5t54.5 25.5t51.5 10q79 0 130 -38t76 -100t25 -134z" />
    <glyph glyph-name="vecy" unicode="&#x432;" 
d="M686 153q0 45 -20 71t-53.5 36.5t-73.5 10.5h-48q-26 0 -52 -1l-52 -2v-212q0 -12 10.5 -17.5t24 -7t21.5 -1.5q32 0 73.5 3t80 14t64 36t25.5 70zM644 414q0 34 -16 52.5t-41 26.5t-53 9.5t-53 1.5q-6 0 -12 -0.5t-13 -1.5q-9 -1 -25.5 -2.5t-29.5 -7t-13 -20.5v-171
q28 0 67.5 -0.5t77.5 4.5t63 21q20 14 34 39t14 49zM788 156q0 -57 -21.5 -88.5t-57.5 -46t-79.5 -18t-87.5 -3.5q-53 0 -106.5 1t-106.5 1q-25 0 -50 -2t-51 -2q-16 0 -16 17q0 18 13 18h25q33 0 41.5 16t8.5 46q0 93 -0.5 186t-0.5 187q0 19 -9.5 26.5t-23.5 8.5t-28 1
q-13 0 -18.5 2t-5.5 15t8 15.5t18 2.5q29 0 57.5 -1t57.5 -1q44 0 88 2.5t87 2.5q31 0 67.5 -3.5t69 -15t53 -35.5t20.5 -66t-22.5 -69t-57 -42t-70.5 -21q29 -3 63 -10.5t65 -22.5t50.5 -40t19.5 -61z" />
    <glyph glyph-name="gecy" unicode="&#x433;" 
d="M718 397q0 -19 -20 -19q-4 0 -9 3t-5 7q-9 22 -13.5 46t-16.5 43q-9 15 -28 21t-40 7t-36 1h-37t-39.5 -7t-17.5 -29v-372q0 -29 5 -43t19 -18t42 -4q15 0 15 -17q0 -7 -4 -12t-12 -5h-109.5h-109.5q-17 0 -17 15q0 18 15.5 17.5t27.5 -0.5q20 0 31 8t11 30v68
q-1 73 -1 146v146q0 9 0.5 18.5t-0.5 19.5q-1 13 -12.5 20t-26 10t-25.5 3q-10 0 -13 6t-3 15q0 12 6.5 15t16.5 3q29 0 57 -1t57 -1q67 0 133.5 2t133.5 2q4 0 6 -3q1 0 4 -20t6.5 -46.5t6 -48t2.5 -26.5z" />
    <glyph glyph-name="decy" unicode="&#x434;" 
d="M595 442q0 9 -1 22.5t-6 23.5t-18 10h-124l-2 -24t-2 -25q-16 -213 -84 -417h161q19 0 37.5 0.5t36.5 0.5q4 102 3 204.5t-1 204.5zM781 -79q0 -8 -2 -15.5t-13 -7.5q-7 0 -10 4.5t-5 9.5q-8 20 -16 31t-25 25q-19 17 -51.5 25t-57.5 8h-190q-31 0 -65 -1.5t-64 -11.5
q-25 -8 -37.5 -22.5t-18 -29.5t-11 -25.5t-17.5 -10.5q-7 0 -9.5 5t-2.5 11q0 23 5 49t9 48q2 10 6.5 17t16.5 7h36q22 0 39 15t24 34q31 95 48.5 191t17.5 196q0 15 -5.5 20t-19.5 5q-7 0 -15 -0.5t-16 -0.5q-11 0 -17 4t-6 16q0 8 2.5 16t12.5 8q52 0 103.5 -0.5
t103.5 -0.5q48 0 96 1t96 1q10 0 14.5 -6.5t4.5 -14.5q0 -20 -11.5 -21t-26.5 -1q-10 0 -20 -3t-10 -17q0 -106 -2 -212.5t-2 -213.5q0 -4 0.5 -8t0.5 -9q20 0 40 0.5t40 0.5q11 0 16.5 -2t7.5 -15q4 -24 5 -49.5t1 -49.5z" />
    <glyph glyph-name="iecy" unicode="&#x435;" 
d="M624 355q-1 41 -7.5 79t-29.5 62.5t-75 24.5q-47 0 -76.5 -25.5t-46 -64.5t-24.5 -79q24 -1 48.5 -1.5t48.5 -0.5q41 0 81.5 1.5t80.5 3.5zM741 124q0 -4 -2 -6q-3 -10 -15 -24t-26 -26.5t-23 -18.5q-34 -23 -76 -37t-83 -14q-34 0 -76.5 10.5t-71.5 29.5q-57 38 -83 98
t-26 126q0 74 29.5 137.5t94.5 103.5q29 17 65.5 28.5t69.5 11.5q60 0 105.5 -24t71 -68t25.5 -105q0 -16 -7.5 -21t-22.5 -5q-20 0 -40.5 1t-40.5 2q-28 1 -56 1.5t-57 0.5h-68t-68 -2q-1 -16 -2.5 -31.5t-1.5 -31.5q0 -38 9.5 -77.5t29.5 -73t51.5 -54t75.5 -20.5
q46 0 87 14t75 45q10 9 17 19.5t17 19.5q4 4 11 4q12 0 12 -13z" />
    <glyph glyph-name="zhecy" unicode="&#x436;" 
d="M866 12q0 -10 -9 -11q-12 -1 -25 -0.5t-25 0.5q-13 0 -25.5 -0.5t-25.5 -0.5t-24 15t-17 24q-10 17 -20 35.5t-21 35.5l-107 173q-10 -10 -20 -18.5t-19 -18.5v-162q-1 -38 11.5 -47.5t47.5 -9.5q14 0 14 -11q0 -10 -4 -13t-13 -3q-21 0 -42 1t-41 1q-27 0 -53.5 -1
t-52.5 -1q-7 0 -9 4t-2 10q0 14 11 13.5t20 -0.5q26 0 35 18.5t9 40.5v163q-8 8 -16.5 15t-15.5 15l-107 -175q-10 -16 -19.5 -32t-20.5 -33q-4 -7 -9 -15.5t-11 -15.5q-6 -9 -18 -9q-25 0 -49.5 0.5t-49.5 0.5q-10 0 -10 11q0 6 2.5 8t7.5 3q16 4 28 6.5t25 14.5
q11 11 20.5 24t18.5 26q39 56 75 113.5t73 114.5l-143 163q-11 13 -19.5 17t-17.5 5.5t-24 5.5q-7 2 -8 5.5t-1 10.5q0 8 7.5 10t14.5 2h58q5 0 8.5 -5.5t5.5 -9.5q41 -64 91.5 -127t103.5 -117q-1 44 -1 88v88q0 20 -7 37.5t-31 17.5q-4 0 -8.5 -0.5t-9.5 -0.5q-7 0 -12 3
t-5 11q0 15 16 15q20 0 40 -0.5t41 -0.5q26 0 52.5 0.5t53.5 0.5q13 0 13 -12q0 -15 -13 -15t-24 -1q-25 -1 -31 -20.5t-5 -39.5v-175q47 50 89.5 105t82.5 110l12 18t12 19l5 7.5t7 4.5h60q7 0 14 -4t7 -12q0 -11 -12 -14l-33 -6t-28 -21l-127 -151q36 -58 71 -117.5
t74 -115.5q10 -13 19 -27t20 -26q13 -13 25 -16.5t29 -6.5q6 -1 8.5 -3t2.5 -9z" />
    <glyph glyph-name="zecy" unicode="&#x437;" 
d="M724 161q0 -44 -23 -75t-59 -50t-77 -28t-77 -9q-53 0 -109.5 16.5t-97.5 53.5l-6.5 6.5t-3.5 8.5q0 11 5.5 14.5t11.5 3.5q3 0 7.5 -3t6.5 -5q33 -23 62 -36.5t60.5 -19t71.5 -5.5q13 0 35 6t34 11q76 33 76 119q0 32 -17 50.5t-44 27.5t-56 11.5t-53 2.5
q-12 0 -24 -2.5t-24 -2.5q-4 0 -7.5 1t-3.5 6q0 9 3.5 19.5t14.5 10.5q14 0 28.5 -1.5t29.5 -1.5q54 0 85 35.5t31 87.5q0 32 -20 54t-49.5 33.5t-57.5 11.5q-40 0 -79 -20.5t-59 -56.5q-7 -13 -12 -27.5t-9 -29.5q-1 -4 -2 -10t-3 -10q-4 -7 -13 -7q-4 0 -8.5 2t-4.5 7
t2.5 28t6 51t6 49.5t3.5 22.5q2 5 4 7t8 2q5 0 9 -3t8 -3q13 0 25 2.5t23 6.5q27 8 53.5 13.5t54.5 5.5q26 0 60.5 -6t66.5 -19.5t53 -36.5t21 -57q0 -58 -33 -87.5t-80 -50.5q36 -6 69.5 -18.5t55 -37t21.5 -68.5z" />
    <glyph glyph-name="iicy" unicode="&#x438;" 
d="M774 17q0 -10 -3.5 -13.5t-13.5 -3.5q-21 0 -41.5 1t-40.5 1q-22 0 -44.5 -1t-44.5 -1q-7 0 -8.5 5t-1.5 10q0 14 8 13.5t18 -0.5q23 0 28 18.5t5 36.5l1 317l-269 -305v-13q0 -17 6.5 -34t28.5 -17q6 0 11.5 0.5t12.5 0.5q5 0 6.5 -4.5t1.5 -9.5q0 -18 -17 -18
q-22 0 -43 1t-43 1t-44.5 -1.5t-44.5 -1.5q-7 0 -9 5t-2 10q0 13 7.5 14.5t18.5 1t20 4.5q13 8 16 24t3 29q0 92 -0.5 183.5t-0.5 182.5q0 20 -7.5 39t-31.5 19q-6 0 -11 -0.5t-10 -0.5q-6 0 -8.5 5.5t-2.5 9.5q0 16 15 16q23 0 46.5 -0.5t46.5 -0.5q20 0 39.5 1.5t38.5 1.5
q8 0 12.5 -2.5t4.5 -10.5q0 -10 -4 -13.5t-14 -3.5q-29 0 -35.5 -17.5t-6.5 -41.5v-321l269 320q0 12 -1.5 25.5t-8 22.5t-23.5 9q-12 0 -23 -0.5t-11 15.5q0 9 1.5 12.5t11.5 3.5q25 0 50 -0.5t50 -0.5q18 0 36 1t36 1q16 0 16 -14q0 -16 -13.5 -16.5t-24.5 -2.5
q-18 -4 -21.5 -24t-3.5 -34v-363q0 -19 6 -38t30 -19q5 0 11 0.5t12 0.5q5 0 6.5 -5t1.5 -10z" />
    </font>
</defs>
</svg>
