<?xml version="1.0" standalone="no"?>
<!DOCTYPE svg PUBLIC "-//W3C//DTD SVG 1.1//EN" "http://www.w3.org/Graphics/SVG/1.1/DTD/svg11.dtd" >
<svg xmlns="http://www.w3.org/2000/svg" xmlns:xlink="http://www.w3.org/1999/xlink" version="1.1">
<metadata>
Created by FontForge 20170731 at Thu Oct 21 15:44:01 2021
 By Aleksey,,,
Copyright 2020 The Kaisei Project Authors (https://github.com/Font-Kai/Kaisei)
</metadata>
<defs>
<font id="KaiseiOpti-Medium" horiz-adv-x="1000" vert-adv-y="1000" >
  <font-face 
    font-family="Kaisei Opti Medium"
    font-weight="500"
    font-stretch="normal"
    units-per-em="1000"
    panose-1="0 0 0 0 0 0 0 0 0 0"
    ascent="880"
    descent="-120"
    x-height="535"
    cap-height="737"
    bbox="-88 -208 1057 941"
    underline-thickness="50"
    underline-position="-175"
    unicode-range="U+000D-2F920"
  />
<missing-glyph 
d="M491 582q0 4 -2 7.5t-7 3.5q-4 0 -6 -3.5t-2 -7.5q0 -11 8 -11q9 0 9 11zM641 188q0 -8 -6 -11t-14 -3q-34 0 -60 19q-3 -12 -3 -25q0 -36 21 -63v-2q0 -4 -5.5 -5t-7.5 -1q-16 0 -28.5 8.5t-23.5 8.5q-12 0 -26.5 -11.5t-13.5 -24.5q-7 -13 -21 -13q-5 0 -10 7.5
t-5 11.5q0 13 12.5 21.5t29.5 19t29.5 29t12.5 51.5q0 15 -2 22t-6.5 13t-10.5 17q-14 26 -20.5 55.5t-6.5 58.5q0 16 2.5 31t2.5 30q0 8 -2.5 16t-9.5 12h-1q-19 1 -32.5 -16t-22 -42t-12.5 -49.5t-4 -38.5q0 -44 18 -93.5t50 -81.5v-5.5t-2 -4.5q-5 -4 -14.5 -6t-16.5 -2
q-13 0 -25 2t-25 4q-2 2 -4.5 5.5t-2.5 7.5t3.5 7.5t7.5 3.5q9 0 20 -3t20 -5q1 1 1 2q0 5 -5 10t-8 9q-14 20 -23.5 45.5t-14.5 50.5q-7 -3 -15 -5.5t-16 -2.5q-13 0 -20 8v7q17 11 26.5 28t15.5 36t11 38t12 37q8 19 18.5 35t22.5 32q6 9 15.5 20.5t12.5 21.5
q2 4 2.5 10.5t0.5 10.5q0 22 -20 28t-37 6q-10 0 -19.5 -0.5t-20.5 -0.5q-1 0 -2 0.5t-2 0.5q-2 2 -2 4q4 8 12.5 12t16.5 4q9 0 17.5 -2t17.5 -2q13 0 19 7.5t15 15t28 7.5q26 0 46 -14.5t20 -42.5q0 -17 -6 -33t-6 -33q0 -16 11 -28t17 -26q11 -25 16.5 -52t5.5 -54
q0 -8 -1 -16t-1 -16q0 -25 12.5 -50t30.5 -42q5 -4 8 -9t3 -12z" />
    <glyph glyph-name=".notdef" 
d="M491 582q0 4 -2 7.5t-7 3.5q-4 0 -6 -3.5t-2 -7.5q0 -11 8 -11q9 0 9 11zM641 188q0 -8 -6 -11t-14 -3q-34 0 -60 19q-3 -12 -3 -25q0 -36 21 -63v-2q0 -4 -5.5 -5t-7.5 -1q-16 0 -28.5 8.5t-23.5 8.5q-12 0 -26.5 -11.5t-13.5 -24.5q-7 -13 -21 -13q-5 0 -10 7.5
t-5 11.5q0 13 12.5 21.5t29.5 19t29.5 29t12.5 51.5q0 15 -2 22t-6.5 13t-10.5 17q-14 26 -20.5 55.5t-6.5 58.5q0 16 2.5 31t2.5 30q0 8 -2.5 16t-9.5 12h-1q-19 1 -32.5 -16t-22 -42t-12.5 -49.5t-4 -38.5q0 -44 18 -93.5t50 -81.5v-5.5t-2 -4.5q-5 -4 -14.5 -6t-16.5 -2
q-13 0 -25 2t-25 4q-2 2 -4.5 5.5t-2.5 7.5t3.5 7.5t7.5 3.5q9 0 20 -3t20 -5q1 1 1 2q0 5 -5 10t-8 9q-14 20 -23.5 45.5t-14.5 50.5q-7 -3 -15 -5.5t-16 -2.5q-13 0 -20 8v7q17 11 26.5 28t15.5 36t11 38t12 37q8 19 18.5 35t22.5 32q6 9 15.5 20.5t12.5 21.5
q2 4 2.5 10.5t0.5 10.5q0 22 -20 28t-37 6q-10 0 -19.5 -0.5t-20.5 -0.5q-1 0 -2 0.5t-2 0.5q-2 2 -2 4q4 8 12.5 12t16.5 4q9 0 17.5 -2t17.5 -2q13 0 19 7.5t15 15t28 7.5q26 0 46 -14.5t20 -42.5q0 -17 -6 -33t-6 -33q0 -16 11 -28t17 -26q11 -25 16.5 -52t5.5 -54
q0 -8 -1 -16t-1 -16q0 -25 12.5 -50t30.5 -42q5 -4 8 -9t3 -12z" />
    <glyph glyph-name=".null" horiz-adv-x="0" vert-adv-y="0" 
 />
    <glyph glyph-name="nonmarkingreturn" horiz-adv-x="333" 
 />
    <glyph glyph-name="CR" unicode="&#xd;" horiz-adv-x="600" 
 />
    <glyph glyph-name="space" unicode=" " horiz-adv-x="250" 
 />
    <glyph glyph-name="exclam" unicode="!" horiz-adv-x="400" 
d="M276 79q0 -31 -23 -51t-53 -20t-53 20t-23 51q0 32 23 51.5t53 19.5t53 -19.5t23 -51.5zM263 690q0 -19 -3 -38t-5 -39q-10 -99 -18.5 -198.5t-18.5 -198.5h-36q-7 98 -17.5 197t-19.5 197q-2 20 -5 40.5t-3 39.5q0 29 18 42t45 13q26 0 44.5 -13t18.5 -42z" />
    <glyph glyph-name="quotedbl" unicode="&#x22;" horiz-adv-x="390" 
d="M170 725q0 -22 -5 -54t-9 -55q-4 -30 -8 -61t-11 -60q-1 -7 -5 -15t-13 -8t-12.5 8t-5.5 15q-7 31 -11.5 63.5t-8.5 63.5q-1 16 -3 31t-4 31q-1 10 -3 20.5t-2 20.5q0 23 15.5 32t35.5 9q18 0 34 -10.5t16 -30.5zM321 725q0 -25 -4.5 -51.5t-7.5 -51.5q-4 -31 -8 -64.5
t-12 -62.5q-1 -7 -5.5 -15t-12.5 -8q-10 0 -13.5 7.5t-5.5 15.5q-6 32 -10 64t-8 63q-3 32 -9 62q-1 11 -3 21t-2 20q0 24 15.5 32.5t36.5 8.5q20 0 34.5 -9.5t14.5 -31.5z" />
    <glyph glyph-name="numbersign" unicode="#" horiz-adv-x="780" 
d="M497 493h-177l-32 -175h177zM702 564l-14 -71h-134l-32 -175h138l-14 -72h-136l-45 -256h-58l46 256h-177l-47 -256h-57l49 256h-143l14 72h141l31 175h-144l14 71h142l35 200h57l-35 -200h175l36 200h56l-34 -200h136z" />
    <glyph glyph-name="dollar" unicode="$" horiz-adv-x="700" 
d="M486 184q0 39 -16.5 65.5t-43 46t-57.5 36.5v-292q56 19 86.5 50t30.5 94zM321 719q-54 -12 -83 -40t-29 -86q0 -35 17 -60t43 -43.5t52 -35.5v265zM599 197q0 -49 -19.5 -84t-53 -57t-74.5 -34.5t-83 -17.5v-75h-48v73q-28 1 -57 5t-56 14q-21 8 -41 18t-43 14
q-4 35 -13.5 76.5t-9.5 75.5q0 11 7 14.5t17 3.5q14 0 20.5 -6t8.5 -20q14 -77 49.5 -114.5t117.5 -45.5v319q-19 10 -37.5 19t-38.5 18q-31 15 -62.5 39t-52.5 55.5t-21 69.5q0 61 30.5 101t79 61.5t102.5 25.5v68h48v-69q28 -1 52 -8.5t49 -18.5q14 -7 34.5 -10t36.5 -5
q3 -30 6.5 -60.5t9.5 -59.5q1 -4 1.5 -7.5t0.5 -8.5q0 -16 -10.5 -21t-24.5 -5q-8 0 -14 2.5t-8 10.5q-4 13 -5.5 27t-6.5 28q-12 41 -46 70.5t-75 40.5v-288q40 -18 80.5 -37.5t74.5 -45.5t54.5 -62.5t20.5 -88.5z" />
    <glyph glyph-name="percent" unicode="%" horiz-adv-x="886" 
d="M323 537q0 24 -1.5 53.5t-9 57t-26 45.5t-51.5 18t-50.5 -18t-25.5 -45.5t-9.5 -57t-1.5 -53.5q0 -21 3.5 -48.5t12.5 -53.5t26 -43.5t45 -17.5q33 0 51 16t26 41.5t9.5 53.5t1.5 52zM736 184q0 24 -1.5 53.5t-9 57t-25.5 45.5t-51 18t-51 -18t-26 -45.5t-9.5 -57.5
t-1.5 -53q0 -21 3.5 -48.5t12.5 -53.5t26.5 -43.5t45.5 -17.5q33 0 51 16t25.5 41.5t9 53.5t1.5 52zM416 537q0 -34 -14.5 -68t-40 -62t-58 -44.5t-68.5 -16.5q-49 0 -89.5 27.5t-64.5 71.5t-24 92q0 34 14.5 69t39 65t56.5 48.5t68 18.5q54 0 95 -29t63.5 -75t22.5 -97z
M770 719l-628 -744l-32 24l628 744zM829 184q0 -34 -14.5 -68t-40 -62t-58 -44.5t-67.5 -16.5q-50 0 -90.5 28t-64.5 71.5t-24 91.5q0 34 14.5 69t39 65t57 48.5t68.5 18.5q54 0 94.5 -29t63 -75t22.5 -97z" />
    <glyph glyph-name="ampersand" unicode="&#x26;" horiz-adv-x="758" 
d="M449 76q-47 30 -91.5 79.5t-79.5 106t-55 107.5q-25 -34 -42.5 -76.5t-17.5 -85.5q0 -44 17 -83t50 -63t80 -24q39 0 73 7.5t66 31.5zM394 638q0 12 -6.5 27t-17 26t-23.5 11q-29 0 -48.5 -17.5t-28.5 -43t-9 -51.5q0 -30 7.5 -60t20.5 -58q23 20 47 46.5t41 57t17 62.5z
M760 46q-3 -21 -20 -34.5t-39 -19.5t-41 -6q-46 0 -93 17.5t-82 48.5q-49 -34 -102 -47.5t-113 -13.5q-56 0 -105.5 21.5t-80.5 62.5t-31 102q0 49 20.5 92.5t54 80t71.5 63.5q-14 33 -23 68.5t-9 72.5q0 30 10.5 58.5t29.5 51.5q29 36 71.5 53t87.5 17q32 0 61.5 -13
t48.5 -37t19 -59q0 -38 -20 -66t-50.5 -49.5t-63 -40t-56.5 -38.5q21 -50 51.5 -104t68 -103t77.5 -87q20 33 26 70.5t6 74.5q0 12 -5 35t-15.5 42t-25.5 19q-4 0 -8 -0.5t-9 -0.5t-5.5 3.5t-0.5 7.5q0 9 2.5 17.5t14.5 8.5q31 0 63 2.5t63 9.5q12 4 24 9t22 13q6 5 18 18.5
t24 25.5t16 12q17 0 17 -16q0 -3 -6.5 -20t-14 -34t-10.5 -22q-4 -7 -6.5 -11t-10.5 -6q-5 -1 -15 -0.5t-16 0.5q-31 0 -62 -3t-63 -5q21 -5 43.5 -20t38 -36t15.5 -45q0 -55 -16.5 -102t-59.5 -85q31 -26 75 -46.5t84 -20.5q14 0 28 4.5t27 9.5z" />
    <glyph glyph-name="quotesingle" unicode="'" horiz-adv-x="280" 
d="M189 724q0 -22 -5 -54t-8 -55q-4 -30 -8 -61t-10 -60q-1 -7 -5 -15t-13 -8t-12.5 8t-5.5 15q-7 31 -11.5 63.5t-7.5 63.5q-1 16 -3.5 31t-4.5 31q-1 10 -2.5 20.5t-1.5 20.5q0 23 15 32t35 9q18 0 33 -10.5t15 -30.5z" />
    <glyph glyph-name="parenleft" unicode="(" horiz-adv-x="450" 
d="M393 -111q-134 77 -197.5 199.5t-63.5 275.5q0 160 63 287t198 212l14 -30q-52 -39 -88 -92.5t-57.5 -116t-31 -127t-9.5 -126.5q0 -60 10 -124.5t32.5 -125.5t58.5 -113.5t88 -89.5z" />
    <glyph glyph-name="parenright" unicode=")" horiz-adv-x="450" 
d="M311 364q0 -154 -63.5 -276.5t-197.5 -199.5l-13 31q51 36 86.5 88.5t57.5 114t31.5 125.5t9.5 123q0 83 -17.5 170t-58 164t-110.5 129l14 30q135 -86 198 -213t63 -286z" />
    <glyph glyph-name="asterisk" unicode="*" horiz-adv-x="450" 
d="M397 508q0 -16 -11.5 -24t-25.5 -8q-17 0 -28 10q-24 20 -47.5 41.5t-48.5 40.5q5 -32 13 -64.5t13 -65.5v-5v-5q0 -15 -11 -24.5t-25 -9.5q-37 0 -37 36q0 10 3 19t5 18q5 26 9.5 51.5t7.5 50.5q-28 -20 -52 -43.5t-50 -44.5q-8 -7 -22 -7t-25.5 8t-11.5 23q0 11 6 20.5
t16 13.5q34 11 67.5 22t64.5 27q-46 20 -93 36q-10 3 -20.5 6t-20.5 6q-10 4 -15 13t-5 19q0 16 11.5 24t25.5 8q15 0 25 -7q26 -21 48.5 -44t49.5 -43q-4 35 -11 68t-14 67q0 2 -0.5 3.5t-0.5 2.5q0 15 11.5 25t25.5 10q15 0 26 -11t11 -26q0 -2 -1 -4q-7 -33 -13.5 -66.5
t-10.5 -67.5q26 20 49.5 42.5t48.5 44.5q11 8 25 8t25 -8.5t11 -23.5q0 -20 -17 -31q-2 -2 -4 -2q-32 -13 -65.5 -24t-65.5 -26q28 -12 56 -21t56 -20q6 -2 13.5 -3.5t11.5 -4.5q17 -11 17 -30z" />
    <glyph glyph-name="plus" unicode="+" horiz-adv-x="750" 
d="M676 336h-274v-269h-54v269h-273v53h273v262h54v-262h274v-53z" />
    <glyph glyph-name="comma" unicode="," horiz-adv-x="350" 
d="M248 52q0 -29 -12 -65t-31 -69t-40 -54l-22 7q17 29 31 70.5t14 75.5q-5 -5 -12.5 -7t-14.5 -2q-23 0 -41 19t-18 42q0 33 19.5 53t52.5 20q41 0 57.5 -26t16.5 -64z" />
    <glyph glyph-name="hyphen" unicode="-" horiz-adv-x="400" 
d="M332 290h-263v63h263v-63z" />
    <glyph glyph-name="period" unicode="." horiz-adv-x="350" 
d="M251 72q0 -31 -23 -50.5t-53 -19.5t-53 19.5t-23 50.5q0 32 23 51t53 19t53 -19t23 -51z" />
    <glyph glyph-name="slash" unicode="/" horiz-adv-x="500" 
d="M454 793l-362 -858l-46 22l361 858z" />
    <glyph glyph-name="zero" unicode="0" horiz-adv-x="590" 
d="M430 362q0 27 -1.5 69.5t-8 88.5t-20.5 87t-39 67t-65 26q-37 0 -61.5 -27t-40.5 -69.5t-24 -90t-11 -90t-3 -68.5q0 -25 2.5 -65t9.5 -83.5t21.5 -82.5t39 -63.5t60.5 -24.5q38 0 63.5 25t41 64t23.5 84t10.5 85.5t2.5 67.5zM545 375q0 -47 -8.5 -99t-27.5 -100.5
t-49 -88t-73 -62.5t-100 -23q-68 0 -114.5 33t-74.5 85.5t-40.5 113t-12.5 116.5q0 48 8.5 100.5t27 102.5t48.5 90.5t73.5 64.5t102.5 24q55 0 95.5 -22.5t68.5 -60t44.5 -84t24 -96t7.5 -94.5z" />
    <glyph glyph-name="one" unicode="1" horiz-adv-x="590" 
d="M491 15q0 -17 -18 -17q-7 0 -15.5 1t-16.5 1q-31 1 -63 2t-64 1q-59 0 -119 -3q-9 -1 -18 -1.5t-17 -0.5q-18 0 -18 17q0 10 6.5 13t14.5 4q6 0 22.5 -0.5t20.5 -0.5q14 0 32.5 3t18.5 21q0 31 0.5 85t1 115.5t0.5 113.5v143v144q0 3 -1.5 7t-5.5 4t-13.5 -3t-22.5 -8
q-17 -6 -37 -14t-36 -14t-22 -6q-11 0 -16.5 8.5t-5.5 18.5q0 7 7 10.5t12 4.5q13 4 26 8.5t26 8.5q7 3 28.5 10.5t49 17.5t52.5 18q23 8 42 13.5t20 5.5q8 0 12.5 -2.5t4.5 -14.5q0 -4 -0.5 -18.5t-1 -31.5t-0.5 -31q0 -72 -1 -147.5t-1 -145.5q-1 -66 -1 -132v-132
q0 -9 0.5 -18t0.5 -18q0 -13 16.5 -18.5t26.5 -5.5q14 0 28.5 1t29.5 1q7 0 11 -5.5t4 -12.5z" />
    <glyph glyph-name="two" unicode="2" horiz-adv-x="590" 
d="M545 154q0 -1 -3.5 -10t-4.5 -11q-3 -10 -7 -20t-6 -20q-6 -19 -9.5 -38t-9.5 -37q-2 -9 -8.5 -12t-15.5 -3q-29 0 -58.5 2t-58.5 2q-28 0 -56 -1t-57 -1h-44.5h-45.5q-23 -1 -53 -2t-44 -1q-7 0 -13 3.5t-6 11.5q0 20 4 40.5t14 39.5q18 35 47.5 71t65.5 71.5t71 68.5
t63 60q36 35 62 84t26 100q0 35 -8.5 68t-31.5 54t-65 21q-74 0 -113 -61q-14 -22 -18 -51t-6 -55q0 -17 -12 -28q-6 -5 -15 -7t-17 -2q-28 0 -43 12t-15 41q0 47 25 82t64.5 58t84.5 34.5t84 11.5q50 0 97 -20.5t77.5 -59t30.5 -93.5q0 -64 -25 -111.5t-65.5 -83.5t-88 -67
t-94.5 -63t-83 -71q-11 -13 -26.5 -36t-21.5 -38q-1 -3 -1 -9q0 -1 2 -1q29 0 58 0.5t57 1.5l126 3q54 1 91.5 17t68.5 61q2 3 4.5 5t8.5 2t11.5 -3t5.5 -10z" />
    <glyph glyph-name="three" unicode="3" horiz-adv-x="590" 
d="M542 247q0 -64 -25 -110.5t-67.5 -77t-96.5 -45t-111 -14.5q-32 0 -68 6t-67 22.5t-49 47.5q-6 11 -10 24.5t-4 26.5q0 26 16 37.5t41 11.5q7 0 15 -2t13 -7q9 -7 10 -20q4 -26 15 -52t31 -43.5t50 -17.5q101 0 144 50.5t43 150.5q0 63 -33.5 107t-100.5 44
q-13 0 -26.5 -2t-26.5 -4q-8 -1 -16.5 -4.5t-17.5 -3.5q-17 0 -17 19q0 21 8.5 22.5t22.5 1.5q19 0 40 0.5t38 5.5q56 14 79.5 50.5t23.5 92.5q0 37 -10 68.5t-34 50.5t-67 19q-64 0 -95 -41t-31 -101q0 -13 -9 -18t-21 -5q-25 0 -43 11.5t-18 39.5q0 11 9 31t16 29
q39 50 99 69.5t121 19.5q47 0 91.5 -17.5t73.5 -52.5t29 -88q0 -37 -20.5 -71.5t-47.5 -57.5q-19 -16 -42.5 -27.5t-47.5 -18.5q19 -1 41 -3t40 -9q48 -17 80 -54.5t32 -90.5z" />
    <glyph glyph-name="four" unicode="4" horiz-adv-x="590" 
d="M330 515v45.5v45.5l-243 -348h243v129v128zM576 292q0 -3 -2 -10t-4 -10q-4 -13 -9 -28.5t-8 -29.5q-1 -7 -8.5 -8t-14.5 -1l-91 1v-113v-29t6.5 -22.5t26.5 -8.5q13 0 26 1t26 1q8 0 12 -5.5t4 -12.5q0 -17 -18 -17q-8 0 -16.5 0.5t-16.5 1.5q-25 1 -50.5 2t-51.5 1
t-52 -1l-52 -2q-9 -1 -18 -1.5t-18 -0.5q-18 0 -18 17q0 16 14 16h24h25t26.5 5t11.5 19v149h-293q-9 0 -16 4.5t-7 14.5q0 5 2.5 9t4.5 8q83 121 167 240.5t165 241.5q4 5 10 10t13 5h52q4 0 9.5 -1t5.5 -6q0 -2 -2 -5t-2 -5v-464h55q25 0 35 11t17 20q3 5 6.5 9.5t8.5 4.5
q4 0 9.5 -3t5.5 -8z" />
    <glyph glyph-name="five" unicode="5" horiz-adv-x="590" 
d="M545 257q0 -46 -19.5 -99t-55.5 -85q-40 -36 -97.5 -55.5t-112.5 -19.5q-25 0 -61 6.5t-71.5 20.5t-59 37t-23.5 56q0 24 18 36.5t40 12.5q20 0 35 -9.5t16 -31.5q2 -16 5.5 -32.5t13.5 -30.5q13 -16 33.5 -23t39.5 -7q69 0 110 32t61 96q8 23 9 47.5t1 47.5
q0 45 -10 84.5t-37 64.5t-79 25q-31 0 -60 -13t-49 -37t-24 -57q0 -5 -0.5 -9.5t-3.5 -9.5q-4 -7 -15 -7q-6 0 -22.5 4.5t-31 11t-14.5 13.5q0 3 1 6l2 6q11 38 15 90t5 105t1 94q0 26 -1 52.5t-5 52.5q32 -4 63.5 -6t63.5 -2h147q14 0 36 1t44 5t34 11q7 4 15 8.5t15 4.5
q5 0 11 -2t6 -8q0 -4 -7 -20t-15 -32t-11 -21q-5 -8 -13.5 -10.5t-16.5 -2.5h-6t-6 1q-28 2 -56 2.5t-56 0.5h-176q-1 -61 -4 -124t-7 -125q43 29 83 42.5t92 13.5q38 0 76 -11.5t67 -38.5q32 -30 49.5 -74t17.5 -88z" />
    <glyph glyph-name="six" unicode="6" horiz-adv-x="590" 
d="M431 220q0 32 -4 66.5t-16 64.5t-36.5 49t-65.5 19q-22 0 -49.5 -8t-51 -22t-35.5 -33q-14 -24 -15 -51t-1 -53v-20.5t1 -21.5q2 -28 10.5 -59.5t25.5 -58t42 -43.5t58 -17q52 0 81.5 29.5t42.5 73t13 85.5zM547 244q0 -80 -35 -134.5t-95.5 -82t-137.5 -27.5
q-54 0 -100 26.5t-78 70.5t-44 95q-6 27 -8 54.5t-2 54.5q0 35 9 74.5t21 71.5q51 138 152 220t241 119q3 1 7 1q13 0 13 -12q0 -5 -7.5 -8t-11.5 -5q-45 -19 -86 -41t-76 -57q-30 -30 -59.5 -72t-50.5 -88.5t-26 -89.5q70 45 151 45q66 0 116 -25.5t78.5 -73.5t28.5 -116z
" />
    <glyph glyph-name="seven" unicode="7" horiz-adv-x="590" 
d="M543 697q-29 -30 -54.5 -71.5t-46.5 -86t-36 -83.5q-35 -91 -54 -187.5t-27 -194.5q-2 -28 -7.5 -47t-20 -28.5t-46.5 -9.5q-29 0 -39 19.5t-10 44.5q0 17 2.5 35t6.5 34q17 87 48 170.5t67 164.5q27 60 62.5 115.5t75.5 107.5q-49 -1 -98.5 -2.5t-99.5 -4.5
q-25 -1 -52 -2.5t-52 -6.5q-28 -6 -44 -24.5t-24 -41t-15 -42.5q-6 -3 -12 -3q-4 0 -10 2t-10 3q5 38 8.5 78.5t7.5 74.5q1 6 2.5 9.5t7.5 5.5q3 1 11 1h11q40 0 80.5 -0.5t80.5 -0.5h81q52 0 103.5 1t102.5 3v-33z" />
    <glyph glyph-name="eight" unicode="8" horiz-adv-x="590" 
d="M441 195q0 44 -17.5 74t-46.5 50t-64 34.5t-70 26.5q-52 -31 -82 -77t-30 -108q0 -79 38 -122t118 -43q47 0 81.5 22.5t53.5 60t19 82.5zM422 577q0 65 -35.5 97.5t-99.5 32.5q-58 0 -90 -33.5t-32 -91.5q0 -45 22 -74t56.5 -47.5t71.5 -32.5q45 21 76 59t31 90zM552 229
q0 -79 -38.5 -130.5t-101 -77t-134.5 -25.5q-60 0 -115 20.5t-90 64t-35 110.5q0 40 18 77t48 62q23 20 50.5 36.5t53.5 29.5q-31 13 -62.5 34.5t-53 51.5t-21.5 67q0 68 35 109.5t89.5 60.5t113.5 19q34 0 69.5 -9t65 -27.5t48 -47.5t18.5 -68q0 -67 -39.5 -107.5
t-97.5 -66.5q40 -12 81.5 -37t69.5 -62t28 -84z" />
    <glyph glyph-name="nine" unicode="9" horiz-adv-x="590" 
d="M432 486v21.5t-1 20.5q-1 29 -10 60t-26 57.5t-42 43.5t-58 17q-51 0 -81 -29t-43 -72.5t-13 -86.5q0 -32 4 -66.5t16 -64.5t36.5 -49t65.5 -19q22 0 49.5 8t51.5 22.5t35 33.5q14 23 15 50t1 53zM542 437q0 -35 -9 -73t-21 -70q-51 -138 -152 -219.5t-241 -119.5
q-2 0 -3.5 -0.5t-3.5 -0.5q-13 0 -13 12q0 4 6 8q3 2 6.5 3.5t6.5 2.5q22 9 43.5 19t42.5 21q21 12 40.5 26t35.5 31q31 30 60 71.5t50 87t26 88.5q-70 -45 -151 -45q-99 0 -160 57.5t-61 157.5q0 81 34.5 135t95 81.5t136.5 27.5q55 0 100.5 -26.5t77.5 -70t44 -95.5
q6 -27 8 -54.5t2 -54.5z" />
    <glyph glyph-name="colon" unicode=":" horiz-adv-x="390" 
d="M266 77q0 -29 -21 -48.5t-50 -19.5q-28 0 -49.5 19.5t-21.5 48.5t21.5 48t49.5 19t49.5 -19t21.5 -48zM266 433q0 -28 -21 -48t-50 -20q-28 0 -49.5 19.5t-21.5 48.5t21.5 48t49.5 19t49.5 -19t21.5 -48z" />
    <glyph glyph-name="semicolon" unicode=";" horiz-adv-x="390" 
d="M268 52q0 -29 -12 -65t-31 -69t-40 -54l-22 7q17 29 31 70.5t14 75.5q-5 -5 -12.5 -7t-14.5 -2q-23 0 -41 19t-18 42q0 33 19.5 53t52.5 20q41 0 57.5 -26t16.5 -64zM266 433q0 -28 -21 -48t-50 -20q-28 0 -49.5 20t-21.5 48q0 29 21.5 48t49.5 19t49.5 -19t21.5 -48z
" />
    <glyph glyph-name="less" unicode="&#x3c;" horiz-adv-x="780" 
d="M680 53l-596 306l596 303v-63l-504 -240l504 -242v-64z" />
    <glyph glyph-name="equal" unicode="=" horiz-adv-x="750" 
d="M675 260h-599v49h599v-49zM675 417h-599v49h599v-49z" />
    <glyph glyph-name="greater" unicode="&#x3e;" horiz-adv-x="780" 
d="M680 359l-596 -306v64l504 242l-504 240v63z" />
    <glyph glyph-name="question" unicode="?" horiz-adv-x="560" 
d="M357 70q0 -32 -23 -53t-55 -21q-31 0 -54.5 21t-23.5 53t23.5 52.5t54.5 20.5q32 0 55 -20.5t23 -52.5zM501 585q0 -37 -19.5 -72.5t-47.5 -58.5q-22 -18 -46.5 -33.5t-44.5 -35.5q-26 -26 -36.5 -54.5t-10.5 -65.5v-29v-29h-48q0 18 -0.5 36t-0.5 36q0 39 7 66.5t23 51
t43 50.5q35 35 53 72t18 88q0 54 -25.5 85.5t-82.5 31.5q-34 0 -63 -10.5t-47 -33.5t-18 -61q0 -14 5 -27t5 -27q0 -27 -17.5 -40t-42.5 -13q-27 0 -36.5 17t-9.5 41q0 18 6 36t15 34q32 58 87.5 85.5t119.5 27.5q52 0 101 -17t81 -54t32 -97z" />
    <glyph glyph-name="at" unicode="@" horiz-adv-x="900" 
d="M556 449q0 26 -14.5 42t-41.5 16q-36 0 -60.5 -21.5t-39.5 -54.5t-21.5 -68.5t-6.5 -63.5q0 -24 5 -49t20.5 -42t46.5 -17q20 0 32.5 9.5t22.5 25.5q8 14 18 43.5t19 65t14.5 67t5.5 47.5zM830 390q0 -45 -13.5 -89.5t-38.5 -82.5q-54 -85 -157 -85q-71 0 -93 70
q-23 -35 -52.5 -52t-72.5 -17q-28 0 -52 17.5t-38 41.5t-19 51.5t-5 55.5q0 29 9.5 62t24.5 63.5t33 52.5q26 32 59 49.5t76 17.5q26 0 50.5 -13.5t40.5 -34.5q5 11 11 21l12 20q17 -3 33.5 -6t32.5 -7q-7 -22 -20 -62t-26.5 -85t-22.5 -84t-9 -59q0 -15 10.5 -35.5
t29.5 -20.5q41 0 68.5 24t44 61.5t23.5 78t7 73.5q0 38 -8.5 76.5t-28.5 70.5q-39 65 -108 94.5t-142 29.5q-78 0 -138 -31t-101 -84t-61.5 -120t-20.5 -139q0 -86 36 -156.5t102 -112.5t155 -42q55 0 100 7t87.5 23.5t89.5 45.5q2 0 9.5 -0.5t7.5 -5.5q0 -10 -10 -19
t-18 -15q-34 -25 -80.5 -43t-95.5 -27t-91 -9q-80 0 -151 21t-125.5 68t-86.5 125q-12 31 -19.5 66t-7.5 68q0 87 33 162.5t91 132.5t134 88.5t163 31.5q160 0 249.5 -84.5t89.5 -247.5z" />
    <glyph glyph-name="A" unicode="A" horiz-adv-x="774" 
d="M473 296q-31 86 -61 172t-61 171q-30 -85 -60 -171t-59 -172h241zM769 14q0 -16 -15 -16q-10 0 -21.5 0.5t-22.5 1.5q-22 1 -44.5 1h-45.5h-22.5h-23.5q-22 0 -45 -2.5t-46 -2.5q-7 0 -10 7.5t-3 13.5q0 5 5 9t9 4l49 -1q8 0 17 3.5t9 13.5q0 2 -6.5 22.5t-16.5 49.5
t-21 58.5t-19 52t-11 29.5h-263q-3 -9 -11.5 -32t-19.5 -52t-21 -57.5t-16.5 -49t-6.5 -25.5q0 -13 14.5 -16t23.5 -3q11 0 21.5 1.5t20.5 1.5q9 0 10.5 -6.5t1.5 -13.5q-2 -6 -7 -7t-10 -1q-29 0 -59 0.5t-59 0.5q-22 0 -43.5 -1t-42.5 -1q-15 0 -15 16q0 9 9 11t20.5 1.5
t16.5 -0.5q14 0 23 8t15 19q4 9 19.5 48t37.5 98t47 127.5t49.5 136t44.5 124.5t32 94t12 42q0 2 -1.5 4.5t-1.5 4.5q0 3 3 4q23 5 49 6.5t49 4.5l260 -697q3 -8 12.5 -13.5t18.5 -5.5t17.5 0.5t17.5 0.5q11 0 13.5 -3.5t2.5 -13.5z" />
    <glyph glyph-name="B" unicode="B" horiz-adv-x="694" 
d="M536 207q0 76 -30.5 121.5t-113.5 45.5h-54q-27 1 -53.5 -0.5t-53.5 -1.5v-308q0 -22 16 -28.5t34 -6.5q19 0 37.5 0.5t37.5 1.5q82 5 131 47.5t49 128.5zM485 560q0 75 -40 108.5t-112 33.5q-51 0 -102 -3v-295h22.5h22.5q25 0 55 2t58 9.5t46 25.5q23 22 36.5 54.5
t13.5 64.5zM655 223q0 -71 -34 -122.5t-101 -77.5q-36 -14 -79 -18.5t-82 -4.5h-14h-15q-47 2 -94.5 3.5t-94.5 1.5q-27 0 -53.5 -3.5t-53.5 -3.5q-12 0 -14.5 6t-2.5 16q0 7 5 10t11 3q14 0 28.5 0.5t27.5 2.5q19 3 24.5 16t6.5 30q2 20 1.5 40.5t-0.5 40.5v252v37.5v61.5
v67.5t-1 57.5t-3 30q-6 17 -20.5 21.5t-32 4t-31.5 -0.5q-7 0 -11.5 7t-4.5 13t4 11t10 5q23 0 44.5 -2t43.5 -2q58 0 115.5 3.5t115.5 7.5q8 1 16 1.5t15 0.5q56 0 107 -14t83.5 -50.5t32.5 -102.5q0 -41 -21.5 -74t-55 -56.5t-68.5 -37.5l1 -2q48 -8 92.5 -29t73.5 -57.5
t29 -92.5z" />
    <glyph glyph-name="C" unicode="C" horiz-adv-x="725" 
d="M711 190q0 -11 -6 -22q-14 -32 -41.5 -61t-56.5 -48q-46 -30 -97.5 -42.5t-106.5 -12.5q-108 0 -187 45t-121.5 125.5t-42.5 187.5q0 106 41.5 191t120.5 135t189 50q44 0 79 -12t75 -26q22 -7 44.5 -10.5t45.5 -5.5q0 -22 2 -44.5t6 -44.5q3 -20 8 -40.5t5 -41.5
q0 -37 -38 -37q-9 0 -13 2t-8 10q-4 10 -6.5 21.5t-4.5 21.5q-8 32 -27 68.5t-45 58.5q-12 10 -35 20.5t-46.5 18t-39.5 7.5q-28 0 -58 -11.5t-53 -28.5q-45 -34 -71.5 -83t-38 -104.5t-11.5 -110.5q0 -58 13.5 -115t43 -102.5t76.5 -73t114 -27.5q28 0 63 8.5t60 18.5
q30 12 55.5 33t46.5 46q6 7 12 14.5t10 15.5q2 4 4 7.5t5 6.5q6 6 17 6q6 0 12 -3.5t6 -10.5z" />
    <glyph glyph-name="D" unicode="D" horiz-adv-x="821" 
d="M653 378q0 41 -8 87.5t-26 89.5t-48 72q-27 27 -64.5 46.5t-75.5 23.5q-11 2 -23 2h-24q-72 0 -146 -3v-611q0 -28 17.5 -37t41.5 -9q39 0 80 3t80 14t71 35q69 51 97 128t28 159zM776 392q0 -99 -42 -187.5t-128 -141.5q-35 -22 -81.5 -35.5t-94.5 -20t-90 -6.5
q-35 0 -71 2.5t-72 2.5q-29 0 -58.5 -1t-58.5 -3q-5 0 -10.5 -0.5t-10.5 -0.5q-7 0 -11 5.5t-4 11.5q0 7 10.5 10t23.5 5.5t18 5.5q17 8 22.5 25.5t5.5 34.5q0 55 0.5 110t0.5 110q0 65 -0.5 129.5t-0.5 128.5q0 19 1 38t-1 38q-1 14 -6.5 25.5t-21.5 15.5q-11 2 -25.5 1.5
t-26.5 -0.5q-8 0 -15.5 4t-7.5 14q0 18 21 18q23 0 46 -2t46 -2q74 0 147.5 5t146.5 5q108 0 186 -41.5t120 -118.5t42 -185z" />
    <glyph glyph-name="E" unicode="E" horiz-adv-x="674" 
d="M649 174q0 -18 -3.5 -36.5t-6.5 -36.5q-2 -20 -3 -40.5t-6 -40.5q-1 -7 -7.5 -13t-14.5 -6q-107 0 -214 1.5t-214 1.5q-33 0 -65.5 -2.5t-64.5 -2.5q-6 0 -13 3.5t-7 10.5q0 13 10 17t24.5 4t28.5 2t24 12.5t10 35.5l-1 569q0 23 -13 29.5t-32 6.5q-8 0 -16.5 -0.5
t-16.5 -0.5q-10 0 -18 4t-8 15q0 22 21 22q17 0 34 -1t34 -1q101 0 201.5 1.5t201.5 1.5q48 0 96 3q4 -29 10 -58.5t10 -59.5q2 -5 3 -11t1 -11q0 -12 -8.5 -16.5t-19.5 -4.5q-10 0 -15 3.5t-9 13.5q-17 58 -48 81t-92 23h-202v-294q38 1 75 1.5t74 2.5q39 2 76 7.5t75 12.5
h1.5h1.5q3 0 8.5 -2t5.5 -6q0 -7 -6.5 -25t-9.5 -24q-7 -13 -21 -13q-8 0 -16.5 0.5t-16.5 1.5q-18 2 -36 3l-36 2h-49h-49q-14 0 -32.5 -2t-31.5 -11t-13 -29v-239q0 -29 12.5 -35.5t37.5 -6.5h87q27 0 60.5 3t65 12t51.5 28q21 20 32.5 46t23.5 51q5 11 20 11q7 0 13 -3
t6 -11z" />
    <glyph glyph-name="F" unicode="F" horiz-adv-x="610" 
d="M603 595q0 -12 -8 -17t-19 -5q-12 0 -16.5 4t-8.5 14q-32 104 -139 104h-177v-296q44 1 88.5 1.5t88.5 4.5q30 3 59 8l58 10h1.5h1.5q3 0 8.5 -2t5.5 -6q0 -7 -6.5 -25t-9.5 -24q-7 -13 -22 -13q-8 0 -16 0.5t-16 1.5q-41 5 -82 5h-82q-14 0 -32.5 -2t-31.5 -11t-13 -29
v-233q0 -10 6 -20t14 -17q14 -12 34.5 -14t37.5 -2q21 0 21 -18q0 -10 -7.5 -13.5t-15.5 -3.5q-17 0 -34.5 1.5t-34.5 1.5h-40h-40q-34 0 -68 -2.5t-68 -2.5q-7 0 -13 3.5t-6 10.5q0 17 15 19q33 5 51.5 10.5t26.5 22.5t8 54v540q0 22 -15 29t-35 6.5t-34 -0.5q-10 0 -18 4
t-8 15q0 22 21 22q18 0 36.5 -1t36.5 -1h88.5h88.5q50 0 100.5 1.5t99.5 1.5t97 3q6 -30 14.5 -70.5t8.5 -69.5z" />
    <glyph glyph-name="G" unicode="G" horiz-adv-x="781" 
d="M769 308q0 -18 -19 -18h-56v-213q-36 -10 -71 -24l-70 -28q-34 -15 -71 -19t-74 -4q-31 0 -68.5 7t-73.5 20.5t-62 30.5q-77 52 -113.5 132.5t-36.5 170.5q0 79 25 147.5t72 120.5t112.5 81t146.5 29q58 0 117 -17q10 -3 29 -9t37 -11t26 -5q20 0 27.5 7.5t14 14.5
t21.5 7q14 0 15 -11q2 -12 1.5 -25t0.5 -25q1 -36 2 -72.5t1 -72.5q0 -9 -9.5 -13.5t-16.5 -4.5t-13.5 1t-11.5 7q-1 3 -5 12.5t-8 20t-6 14.5q-13 29 -32.5 55t-45.5 46q-25 20 -66 33.5t-74 13.5q-66 0 -111.5 -32.5t-73.5 -84.5t-41 -111.5t-13 -114.5q0 -57 13.5 -113
t42.5 -102t75.5 -73.5t112.5 -27.5q19 0 46.5 4t54 14t44.5 26.5t18 41.5v131q0 14 -12 18.5t-23 4.5q-16 0 -31 -1.5t-30 -1.5q-8 0 -13.5 6t-5.5 13q0 19 18 19q17 0 34.5 -0.5t34.5 -0.5h66t66 1q16 1 32.5 2t32.5 1q6 0 12 -6t6 -12z" />
    <glyph glyph-name="H" unicode="H" horiz-adv-x="837" 
d="M821 721q0 -12 -11 -15t-25 -2t-23 1q-10 0 -21.5 -6t-11.5 -18v-629q0 -13 11.5 -18.5t21.5 -5.5q11 0 21.5 1t20.5 1q15 0 15 -13q0 -7 -2 -13.5t-10 -6.5q-12 0 -23.5 1t-23.5 1q-46 3 -95 3q-40 0 -81 -3q-13 -1 -25.5 -2.5t-26.5 -1.5q-8 0 -10 5.5t-2 12.5
q0 6 3 11t10 5q12 0 23.5 -0.5t22.5 -0.5t23 5.5t12 18.5v318h-389v-317q0 -13 11.5 -18.5t21.5 -5.5q11 0 22 1t21 1q15 0 15 -13q0 -10 -1.5 -12.5t-9.5 -7.5q-35 2 -71 3.5t-71 1.5q-40 0 -81 -3q-13 -1 -25.5 -2.5t-25.5 -1.5q-9 0 -11 5.5t-2 12.5q0 6 4 11t10 5
q11 0 22.5 -0.5t22.5 -0.5t23 5.5t12 18.5q0 86 0.5 172.5t0.5 173.5q0 71 -0.5 141t-0.5 140q0 13 -12 18.5t-23 5.5t-22.5 -0.5t-22.5 -0.5q-15 0 -15 14q0 6 3 13t11 7q13 0 25.5 -1.5t25.5 -2.5q41 -3 81 -3q35 0 70 2.5t70 2.5q10 0 12 -3.5t2 -12.5q0 -17 -17 -17
q-10 0 -20.5 1t-21.5 1q-10 0 -21.5 -6t-11.5 -18v-272h389v129.5v129.5q0 20 -7 29t-28 9q-11 0 -22.5 -0.5t-23.5 -0.5q-6 0 -9.5 5.5t-3.5 11.5t2 11.5t10 5.5q14 0 26.5 -1.5t25.5 -2.5q17 -1 33.5 -1.5t33.5 -0.5h14q24 0 48 0.5t48 1.5q11 1 23 2t23 1q14 0 14 -16z
" />
    <glyph glyph-name="I" unicode="I" horiz-adv-x="413" 
d="M356 720q0 -18 -16 -18q-11 0 -22 0.5t-22 0.5q-10 0 -21.5 -7.5t-11.5 -19.5v-622q0 -12 10 -17.5t20 -5.5q11 0 22.5 0.5t22.5 0.5q16 0 16 -14q0 -8 -2 -13.5t-11 -5.5q-35 0 -70.5 2.5t-71.5 2.5q-16 0 -33 -0.5t-34 -1.5t-34.5 -3t-34.5 -2q-6 0 -10 5.5t-4 11.5
q0 7 4.5 12t11.5 5q11 0 22.5 -0.5t23.5 -0.5q10 0 24 5.5t14 18.5v623q0 18 -16 22.5t-35.5 3.5t-30.5 -1q-14 0 -14 16q0 8 1.5 13t11.5 5q32 0 64.5 -2t64.5 -2h45.5t44.5 1q14 0 28.5 1.5t27.5 1.5q7 0 11 -5t4 -11z" />
    <glyph glyph-name="J" unicode="J" horiz-adv-x="456" 
d="M452 718q0 -8 -5 -14.5t-13 -6.5q-14 0 -28 1t-28 1q-13 0 -25 -7.5t-14 -21.5q-1 -8 -0.5 -16t0.5 -16q-1 -51 -1 -102v-102v-164v-164q0 -61 -10.5 -114.5t-36.5 -94t-72 -63.5t-116 -23q-18 0 -45 1.5t-54.5 8t-46 21t-18.5 40.5q0 27 22.5 44t47.5 17q10 0 24.5 -5.5
t26.5 -15t12 -20.5q-4 -4 -7.5 -8.5t-3.5 -10.5q0 -19 14 -28t31 -9q23 0 46 10t40 28t21 41q6 32 6.5 64t0.5 63v241v240v68t-1 68q0 14 -10.5 20t-24 7.5t-24.5 1.5t-22 -1t-22 -1q-7 0 -13 6.5t-6 13.5q0 8 5.5 13.5t13.5 5.5q11 0 21 -1t20 -1q29 -1 58 -1.5t58 -0.5
q41 0 81.5 2.5t80.5 2.5q8 0 12.5 -5.5t4.5 -12.5z" />
    <glyph glyph-name="K" unicode="K" horiz-adv-x="722" 
d="M721 16q0 -16 -16 -16h-56h-56q-19 0 -40.5 0.5t-35.5 13.5l-7.5 7.5t-6.5 7.5q-61 86 -123.5 171t-129.5 167l-29 -24q0 -73 0.5 -145t0.5 -145q0 -16 15 -20.5t33 -4t28 0.5q8 0 13.5 -3t5.5 -11q0 -7 -5.5 -11.5t-11.5 -4.5q-22 0 -44.5 1.5t-45.5 1.5q-44 0 -88 -2
t-88 -2q-15 0 -15 14q0 16 14.5 15.5t24.5 -0.5q27 0 37.5 4t12.5 16t2 34v574v13.5t-1 12.5q-1 8 -11 16t-18 8h-22q-6 0 -12.5 -0.5t-12.5 -0.5q-19 0 -19 15q0 16 14 16q13 0 25.5 -1t24.5 -1q22 -1 44 -1.5t44 -0.5q32 0 63 2t62 2q19 0 19 -16q0 -7 -5 -10.5t-11 -3.5
q-11 0 -22.5 -0.5t-22.5 -0.5q-9 0 -18 -7t-9 -17v-138q0 -39 -0.5 -78t-1.5 -77q96 87 186 180q37 38 70 77.5t65 81.5q9 11 20 11q15 0 30 -0.5t29 -0.5q13 0 25.5 0.5t25.5 0.5q5 0 9.5 -5t4.5 -10q0 -6 -5 -11t-11 -5q-27 0 -50.5 -8t-43.5 -27l-245 -238
q75 -95 151.5 -191t158.5 -186q14 -15 29.5 -20t28 -5.5t17.5 -4.5q6 -4 6 -10z" />
    <glyph glyph-name="L" unicode="L" horiz-adv-x="670" 
d="M656 228q0 -7 -1 -14.5t-3 -15.5q-7 -43 -12 -85t-12 -85q0 -4 -1 -9t-4 -9q-4 -5 -10.5 -6.5t-12.5 -1.5q-10 0 -20.5 0.5t-21.5 0.5q-73 1 -145.5 1h-145.5h-48t-48 -1q-33 -1 -66.5 -3t-66.5 -2q-20 0 -20 17q0 11 5.5 13.5t14.5 2.5q8 0 16.5 -0.5t16.5 -0.5
q14 0 27.5 4t13.5 21v588q0 21 -0.5 34t-8.5 19t-32 6q-10 0 -19.5 -1t-18.5 -1q-4 0 -8.5 5.5t-4.5 9.5q0 5 2.5 12.5t9.5 7.5q36 0 72.5 -1.5t72.5 -1.5q35 0 70.5 1.5t70.5 1.5q16 0 16 -15q0 -7 -4.5 -12.5t-11.5 -5.5h-41q-13 0 -31 -4t-18 -23q0 -35 -0.5 -70.5
t-0.5 -70.5q0 -117 0.5 -234t0.5 -233q0 -15 11.5 -22t26.5 -8.5t26 -1.5h69t74 4.5t69 18t55 40.5q24 29 37 62.5t26 67.5q3 8 9 9.5t13 1.5q4 0 8 -3t4 -8z" />
    <glyph glyph-name="M" unicode="M" horiz-adv-x="947" 
d="M941 15q0 -7 -6 -11t-13 -4q-34 0 -69 0.5t-70 0.5h-36.5t-36.5 -1l-34 -2t-34 -1q-19 0 -19 20q0 10 5.5 12.5t13.5 2.5t16.5 -0.5t16.5 -0.5q24 0 33.5 4.5t10.5 16t1 32.5v584q-37 -98 -75.5 -196t-78.5 -196q-17 -41 -34 -81.5t-34 -81.5q-7 -18 -14 -36.5t-16 -35.5
q-4 -7 -11.5 -10t-15.5 -3t-15.5 3t-11.5 10q-7 16 -14 31.5t-14 31.5q-15 34 -29.5 67.5t-28.5 66.5q-43 102 -85 204.5t-85 204.5q0 -148 0.5 -296t0.5 -296q0 -17 12 -20.5t25 -3.5q12 0 24 1t23 1q6 0 8.5 -6t2.5 -11t-4 -10.5t-10 -5.5q-27 0 -54.5 1.5t-54.5 1.5
q-23 0 -47 -2t-47 -2q-10 0 -15.5 2t-5.5 16t17 14q7 0 14.5 -1t14.5 -1q14 0 31 3.5t18 22.5q1 17 0.5 35.5t-0.5 36.5v61.5v61.5q0 106 1 212.5t1 212.5q0 17 -15 23t-29 6q-9 0 -18 -1.5t-18 -1.5q-7 0 -11.5 6t-4.5 12q0 17 17 17q12 0 24 -1t24 -1q21 -1 42 -1.5
t42 -0.5q20 0 40.5 1.5t39.5 2.5l232 -553q54 139 113 276t109 277q26 0 52.5 -0.5t52.5 -0.5q29 0 59 2t59 2q7 0 11 -5.5t4 -11.5t-4 -12t-11 -6q-12 0 -24 1t-25 1q-10 0 -25.5 -5.5t-15.5 -18.5v-154v-154v-140.5v-141.5v-24t4 -23q5 -10 16.5 -11.5t20.5 -1.5
q13 0 25.5 0.5t24.5 0.5q17 0 17 -18z" />
    <glyph glyph-name="N" unicode="N" horiz-adv-x="780" 
d="M772 721q0 -13 -8.5 -16.5t-20 -3t-20.5 0.5q-25 0 -33.5 -5.5t-9 -18t-0.5 -33.5v-632q0 -4 -4.5 -8t-9.5 -4h-51q-4 23 -14.5 45t-24.5 40q-105 138 -210 275.5t-207 276.5v-291v-292q0 -17 14.5 -21t27.5 -4q11 0 21 1t20 1q14 0 14 -16q0 -10 -4 -14.5t-15 -4.5
q-10 0 -19 1.5t-19 2.5q-16 1 -32 1h-33q-26 0 -52.5 -2.5t-52.5 -2.5q-9 0 -11.5 4t-2.5 11q0 11 4 15t15 4q10 0 19 -0.5t18 -0.5q14 0 24.5 4t11.5 21q2 19 1.5 38.5t-0.5 38.5l-1 121q0 104 2 208.5t2 209.5q0 23 -15.5 28t-33.5 5q-7 0 -14 -1t-14 -1t-13 3.5t-6 10.5
q0 20 18 20q26 0 52 -1.5t51 -1.5q20 0 39.5 0.5t38.5 0.5q38 -50 77 -98.5t78 -96.5l130 -160t131 -159l1 96q0 91 -0.5 182t-0.5 182q0 12 -9 17.5t-20 5.5q-14 0 -27.5 -1t-27.5 -1q-6 0 -9.5 5.5t-3.5 10.5q0 11 2.5 14.5t14.5 3.5q26 0 53 -1t53 -1t52.5 1.5t52.5 1.5
q11 0 11 -15z" />
    <glyph glyph-name="O" unicode="O" horiz-adv-x="820" 
d="M641 372q0 55 -12 113t-39 107.5t-72 80.5t-111 31q-65 0 -110 -32t-72.5 -83t-39.5 -109.5t-12 -112.5q0 -56 11 -115t37.5 -109t72 -81t113.5 -31q69 0 114 31.5t71.5 82.5t37.5 111t11 116zM764 377q0 -111 -41 -197t-120.5 -135t-195.5 -49q-112 0 -192 47
t-122.5 131t-42.5 194q0 78 25.5 145.5t73 119t113 80.5t145.5 29q112 0 192 -45.5t122.5 -127.5t42.5 -192z" />
    <glyph glyph-name="P" unicode="P" horiz-adv-x="624" 
d="M491 553q0 77 -43 113.5t-116 36.5q-21 0 -41.5 -0.5t-40.5 -0.5q-8 0 -16 -6.5t-8 -14.5v-281q20 -15 50 -18t54 -3q84 0 122.5 46.5t38.5 127.5zM612 556q0 -66 -24 -107.5t-64.5 -64t-91.5 -31.5t-106 -9q-25 0 -49.5 3t-49.5 6v-148v-148q0 -15 11.5 -19.5t23.5 -4.5
q14 0 27 1t26 1q14 0 14 -17q0 -6 -4.5 -12t-11.5 -6q-31 0 -63.5 1.5t-64.5 1.5q-38 0 -77 -1.5t-77 -3.5q-7 3 -9 4.5t-2 11.5q0 7 3.5 12t11.5 5q9 0 18.5 -0.5t18.5 -0.5q6 0 12 0.5t12 1.5q8 3 11 8.5t4 13.5q1 14 0.5 28t-0.5 27q1 29 1 58v58q0 114 -0.5 228
t-0.5 228q0 17 -14.5 20.5t-27.5 3.5q-9 0 -18 -1t-18 -1q-13 0 -13 14q0 8 2 13t12 5q33 0 66 -2t66 -2q52 0 103.5 2t102.5 2q43 0 85.5 -9t77.5 -30t56 -55.5t21 -84.5z" />
    <glyph glyph-name="Q" unicode="Q" horiz-adv-x="820" 
d="M444 36q-6 11 -18.5 33.5t-27 47t-28.5 44t-23 25.5q-9 7 -17.5 9t-19.5 2q-15 0 -31 -12.5t-27 -30t-14 -32.5q14 -22 46 -42t68.5 -32.5t62.5 -12.5q7 0 14.5 0.5t14.5 0.5zM640 366q0 55 -12.5 115t-41 112.5t-74.5 85t-112 32.5q-51 0 -89 -22t-65 -59.5t-43.5 -82.5
t-24.5 -92.5t-8 -88.5q0 -49 6.5 -103t31.5 -98q22 32 53.5 55t72.5 23q40 0 66.5 -16t49.5 -46q21 -26 39.5 -53.5t35.5 -56.5q11 9 22 18.5t21 19.5q31 34 46.5 77t20.5 89.5t5 90.5zM807 -38q0 -3 -4 -9.5t-6 -8.5q-23 -28 -54.5 -43.5t-68.5 -15.5q-52 0 -89 13.5
t-65.5 41t-58.5 67.5q-13 -1 -26.5 -2t-26.5 -1q-78 0 -143.5 28t-113 77.5t-74 115.5t-26.5 143q0 80 25.5 148t72.5 119.5t113 80t148 28.5q115 0 194 -48.5t120 -133.5t41 -196q0 -70 -26.5 -134.5t-74 -115.5t-110.5 -82q33 -40 70 -67t92 -27q12 0 28.5 5t26.5 10
q5 3 10 9.5t12 6.5q4 0 9 -2.5t5 -6.5z" />
    <glyph glyph-name="R" unicode="R" horiz-adv-x="707" 
d="M485 555q0 65 -23 97.5t-64.5 43.5t-98.5 11q-10 0 -26.5 -0.5t-30 -6t-13.5 -20.5q0 -67 -0.5 -133.5t-0.5 -134.5v-7q11 -3 23 -3.5t23 -0.5q53 0 101 12.5t79 45.5t31 96zM717 15q0 -8 -14.5 -12.5t-35 -6t-38.5 -1.5h-24q-42 0 -68 9t-49 46q-49 79 -94 160.5
t-90 163.5l-75 -3v-158.5v-158.5q0 -13 9.5 -18t20.5 -5q14 0 27.5 1t26.5 1q7 0 11 -6.5t4 -12.5q0 -10 -7 -12.5t-15 -2.5q-45 0 -89.5 1t-89.5 1q-23 0 -46.5 -1.5t-47.5 -1.5q-6 0 -11 6t-5 12q0 15 18 15q9 0 17.5 -0.5t16.5 -0.5q14 0 29 3.5t17 20.5q2 26 1.5 59
t-0.5 60v66.5v66.5v136v135q0 26 0.5 52t-1.5 51q-1 17 -14 20t-27 3q-7 0 -15.5 -0.5t-16.5 -0.5q-21 0 -21 20q0 8 5 10.5t12 2.5q34 0 67.5 -2.5t67.5 -2.5q47 0 93 4t92 4q39 0 82.5 -7.5t81.5 -26t62 -50.5t24 -80q0 -61 -34 -104t-87 -67q-18 -9 -37.5 -13.5
t-39.5 -8.5q47 -78 96 -154.5t101 -150.5q14 -19 31 -32t41 -18q5 -1 14 -0.5t16.5 -1.5t7.5 -9z" />
    <glyph glyph-name="S" unicode="S" horiz-adv-x="594" 
d="M562 192q0 -57 -26.5 -95.5t-69.5 -61.5t-93.5 -32.5t-97.5 -9.5q-30 0 -60 5t-59 15q-22 8 -43.5 18.5t-44.5 14.5q-4 28 -9 55.5t-10 55.5q-1 8 -2.5 15t-1.5 14q0 17 7 24t25 7q15 0 21 -6t9 -20q12 -50 28.5 -87t48.5 -56.5t90 -19.5q74 0 122.5 35t48.5 115
q0 38 -19 65.5t-47.5 47.5t-58.5 34q-31 17 -62.5 32t-63.5 31q-31 15 -64 39.5t-55.5 57t-22.5 70.5q0 66 35 108t89.5 62t112.5 20q38 0 70.5 -8t67.5 -21q19 -7 38 -10t38 -5q3 -30 6 -60.5t9 -59.5l2 -8t1 -9q0 -17 -13 -22t-27 -5q-4 0 -10.5 1t-9.5 5q-2 2 -3 7t-1 8
q-13 77 -53 118t-122 41q-60 0 -93 -33t-33 -93q0 -41 22 -70t58 -50t79.5 -39.5t87 -38.5t79.5 -46.5t58 -64t22 -90.5z" />
    <glyph glyph-name="T" unicode="T" horiz-adv-x="690" 
d="M686 543q0 -7 -5 -11.5t-12 -4.5q-4 0 -9.5 1t-7.5 5q0 1 -2.5 13.5t-6 29.5t-7 32t-5.5 21q-4 14 -10.5 26.5t-16.5 23.5q-9 10 -33.5 14t-50 4.5t-38.5 0.5q-14 0 -32.5 -1t-32 -8.5t-13.5 -28.5q0 -151 0.5 -302t0.5 -302q0 -12 10 -18.5t23 -8.5t22 -2q7 0 13.5 1
t13.5 1q16 0 16 -16q0 -5 -3 -11t-10 -6q-35 0 -71 2t-72 2q-49 0 -97 -3l-24 -2t-23 -1q-16 0 -16 14q0 8 4.5 14t13.5 6q4 0 7.5 -0.5t7.5 -0.5q10 0 25 1.5t27.5 8t12.5 19.5q0 79 0.5 157.5t0.5 157.5q0 74 -0.5 147.5t-0.5 146.5q0 11 -11.5 20t-21.5 10
q-17 3 -35.5 2.5t-35.5 -0.5q-30 0 -52.5 -1t-38 -13t-26.5 -46q-3 -9 -7.5 -32.5t-9.5 -45t-8 -26.5q-3 -4 -6.5 -5t-8.5 -1q-8 0 -12.5 2t-4.5 11q0 13 2 26t3 26q2 28 3 56t1 56q0 12 2 21t18 9q10 0 19.5 -1.5t19.5 -1.5q8 -1 16.5 -1t16.5 -1q56 -1 118.5 -1.5
t119.5 -0.5q56 0 118 0.5t117 1.5q19 1 37.5 1.5t37.5 0.5q15 0 19.5 -7.5t4 -18.5t-0.5 -22q0 -25 2 -49.5t3 -49.5q0 -10 1 -20t1 -21z" />
    <glyph glyph-name="U" unicode="U" horiz-adv-x="756" 
d="M749 718q0 -10 -5.5 -12.5t-13.5 -2.5q-6 0 -12.5 0.5t-13.5 0.5q-28 0 -37.5 -8t-9.5 -23v-38q0 -89 1.5 -177.5t1.5 -177.5q0 -88 -26 -152.5t-82.5 -99.5t-150.5 -35q-134 0 -211.5 66.5t-77.5 205.5v44v111.5v110.5v90q0 14 1 29.5t-1 29.5q-1 16 -15.5 20.5t-32.5 4
t-29 -0.5q-10 0 -12.5 4.5t-2.5 12.5t6 11t13 3q11 0 22 -0.5t21 -1.5q22 -1 43.5 -1.5t43.5 -0.5q35 0 70 2t69 2q8 0 14 -3t6 -13q0 -16 -17 -16q-12 0 -24 0.5t-25 0.5q-10 0 -21.5 -6.5t-13.5 -17.5q-2 -16 -1.5 -34.5t0.5 -35.5q0 -90 -1 -180t-1 -180q0 -69 13 -118
t52.5 -74.5t116.5 -25.5q75 0 119.5 33t64.5 88.5t20 122.5q0 101 -0.5 202t-0.5 201q0 13 -12 18.5t-23 5.5q-13 0 -25 -0.5t-25 -0.5q-5 0 -8.5 5t-3.5 10q0 18 17 18q14 0 28.5 -1.5t29.5 -1.5q25 0 49.5 0.5t49.5 1.5q12 0 24.5 1t25.5 1q8 0 10.5 -5.5t2.5 -12.5z" />
    <glyph glyph-name="V" unicode="V" horiz-adv-x="754" 
d="M749 718q0 -12 -8 -14.5t-17 -2.5q-4 0 -8.5 0.5t-9.5 0.5q-13 0 -25 -6t-17 -19q-7 -18 -13 -35.5t-12 -35.5l-54 -151q-40 -114 -80.5 -228.5t-81.5 -228.5l-47 1q-12 0 -20.5 4.5t-13.5 16.5q-19 44 -35 90t-33 91q-39 104 -79 208t-78 207q-6 16 -12.5 32.5
t-16.5 29.5q-13 17 -25.5 20t-32.5 3q-7 0 -15 2t-8 12t3 14.5t13 4.5q23 0 45 -1t44 -1q45 0 90 1t90 1q7 0 12 -3.5t5 -11.5q0 -11 -7 -14.5t-17 -3.5t-20.5 1t-21.5 1q-7 0 -20 -2t-13 -12q0 -2 3 -11l6 -18l4 -12q45 -135 94.5 -268.5t98.5 -266.5q49 141 98.5 282
t93.5 284v1.5v1.5q0 14 -9.5 18.5t-20.5 4.5q-13 0 -25 -1.5t-24 -1.5q-5 0 -10 4t-5 9q0 16 6 17.5t18 1.5q26 0 51 -0.5t50 -0.5q24 0 48 1t48 1q8 0 11 -5t3 -12z" />
    <glyph glyph-name="W" unicode="W" 
d="M997 718q0 -6 -5 -12t-11 -6q-7 0 -15 1t-16 1q-15 0 -23.5 -11t-13.5 -26t-8 -27q-37 -160 -70.5 -320.5t-71.5 -320.5h-98q-37 132 -77 264t-81 263q-44 -132 -88 -264.5t-91 -263.5l-89 1q-11 44 -19.5 88.5t-18.5 88.5l-74 336q-8 38 -16.5 77t-19.5 77q-7 29 -24 32
t-41 3q-19 0 -19 21q0 16 17 16q11 0 22.5 -1t22.5 -2q23 -1 45.5 -1h45.5h61q17 0 33.5 1.5t33.5 1.5q7 0 12.5 -4.5t5.5 -12.5q0 -11 -11.5 -14t-26 -2t-23.5 1q-13 0 -22.5 -3.5t-9.5 -20.5q0 -4 0.5 -8t1.5 -9l18 -94l18 -94q17 -86 35 -172.5t34 -173.5
q35 102 68 204.5t67 205.5q14 43 26.5 85.5t27.5 85.5q4 12 9.5 16t18.5 4q11 0 18.5 -3t11.5 -14q7 -15 11.5 -32.5t8.5 -33.5q9 -34 18.5 -67t19.5 -66q29 -98 58 -196.5t57 -196.5q28 122 55.5 254.5t48.5 260.5q2 14 3.5 26.5t1.5 25.5t-10 16.5t-20 3.5
q-13 0 -26.5 -1.5t-26.5 -1.5q-16 0 -16 17q0 6 5.5 11t11.5 5q8 0 15.5 -0.5t14.5 -1.5q25 0 49.5 -0.5t49.5 -0.5q21 0 43 1.5t44 1.5q6 0 10 -7t4 -12z" />
    <glyph glyph-name="X" unicode="X" horiz-adv-x="765" 
d="M774 18q0 -10 -7.5 -14.5t-16.5 -4.5q-16 0 -31.5 1t-30.5 1q-28 1 -56.5 0.5t-56.5 -0.5q-12 0 -19 3.5t-12 14.5q-37 76 -82.5 147t-90.5 142q-6 -9 -23.5 -36t-40.5 -62t-45 -69t-36.5 -57.5t-14.5 -26.5q0 -14 15 -19t33 -5h27q6 0 10.5 -4.5t4.5 -10.5
q0 -17 -13 -17.5t-27 -0.5q-22 0 -45.5 1t-46.5 1q-35 0 -70.5 -2t-70.5 -2q-7 0 -13 4.5t-6 11.5q0 19 12 19h24q24 0 41 4t36 20q17 15 33.5 31.5t29.5 34.5q43 53 83.5 107.5t77.5 111.5q-54 82 -107 164.5t-109 162.5q-9 13 -16.5 16.5t-22.5 3.5q-11 0 -22 -1.5
t-22 -1.5q-9 0 -16.5 4.5t-7.5 14.5q0 14 13 17t27 3.5t27 1.5q29 2 59 5.5t58 3.5q14 0 23 -11t16 -21q42 -68 83 -137t81 -139q8 13 26 40t40 61.5t42.5 68t33.5 60t13 36.5q0 8 -8 9.5t-14 1.5q-12 0 -23.5 -1.5t-23.5 -1.5q-18 0 -18 18q0 8 7 11t14 3q25 0 49.5 -0.5
t49.5 -0.5q30 0 60.5 1.5t60.5 1.5q20 0 20 -17q0 -15 -16 -17.5t-36 -2.5t-34 -8q-8 -4 -17.5 -14t-15.5 -18q-45 -66 -92 -131.5t-96 -130.5q36 -50 71 -101.5t70 -102.5q24 -34 49 -69t52 -67q11 -13 25 -16t29 -3q7 0 13.5 1t13.5 1q8 0 13.5 -7t5.5 -15z" />
    <glyph glyph-name="Y" unicode="Y" horiz-adv-x="693" 
d="M704 720q0 -16 -12.5 -16.5t-23.5 -0.5q-8 0 -16.5 -0.5t-16.5 -3.5q-7 -2 -13.5 -11t-10.5 -15q-50 -87 -100.5 -173t-101.5 -172q0 -19 -0.5 -38t-0.5 -38v-42v-65.5t1 -63.5t3 -35q7 -17 27 -17q15 0 29.5 1.5t28.5 1.5q7 0 10.5 -5t3.5 -11q0 -18 -18 -18
q-34 0 -67.5 1.5t-67.5 1.5q-37 0 -74.5 -1.5t-74.5 -1.5q-19 0 -19 19q0 8 7 11t12 3q11 0 20.5 -1t19.5 -1q25 0 33.5 6t9 19t0.5 34v142q0 44 -8 78.5t-27 73.5q-33 67 -70 132t-72 130q-10 18 -24 37q-13 16 -36 16q-9 0 -18 -1.5t-19 -1.5q-16 0 -16 15q0 7 5 10.5
t11 4.5q26 4 54 7.5t56 6.5q17 3 35 3q22 0 32 -17q6 -9 11.5 -18.5t10.5 -19.5q44 -79 83.5 -160t77.5 -164q6 10 21.5 36.5t35.5 62t41 73.5t39 72.5t29.5 58.5t11.5 30q0 11 -13 11t-25.5 -1t-26.5 -1q-6 0 -11 5t-5 11q0 11 8 13t16 2q17 0 35 -0.5t36 -0.5
q30 0 58.5 1.5t58.5 1.5q17 0 17 -17z" />
    <glyph glyph-name="Z" unicode="Z" horiz-adv-x="645" 
d="M626 229q0 -12 -2.5 -23.5t-3.5 -22.5q-3 -22 -6 -44.5t-6 -45.5q-2 -19 -2 -40t-3 -41q-1 -9 -5.5 -11t-12.5 -2h-6h-6q-7 3 -15 3.5t-16 0.5q-59 0 -121 -0.5t-121 -0.5q-82 0 -165 -3q-20 -1 -40.5 -2t-40.5 -1q-16 0 -25.5 6.5t-9.5 23.5q0 10 4 18q8 14 18 27.5
t20 26.5l89 125q71 98 142.5 198t136.5 201q8 12 17 29t9 32q0 8 -10.5 11.5t-22.5 4.5t-18 1q-16 0 -44.5 -0.5t-61 -2t-59.5 -4.5t-41 -7q-34 -10 -60.5 -37.5t-39.5 -59.5q-4 -11 -6.5 -23t-5.5 -23q-2 -7 -7 -14.5t-14 -7.5q-7 0 -13.5 3t-6.5 10q0 35 3 80t3 85
q0 20 10 25.5t30 5.5q12 0 24.5 -0.5t24.5 -0.5q18 0 35.5 0.5t35.5 0.5q92 0 187.5 2.5t186.5 2.5q11 0 21 -3t10 -17q0 -9 -4 -16t-9 -13l-410 -571q-7 -10 -19 -27.5t-12 -28.5q0 -12 12.5 -16.5t28 -5t22.5 -0.5q49 0 100.5 2.5t99.5 7.5q45 6 77.5 33.5t53.5 66.5
t33 78q1 3 2 6.5t2 5.5q3 3 7.5 4t8.5 1q6 0 11.5 -2.5t5.5 -10.5z" />
    <glyph glyph-name="bracketleft" unicode="[" horiz-adv-x="450" 
d="M432 -99h-260v953h260v-40h-179v-874h179v-39z" />
    <glyph glyph-name="backslash" unicode="\" horiz-adv-x="500" 
d="M467 -62l-60 -33l-374 831l62 35z" />
    <glyph glyph-name="bracketright" unicode="]" horiz-adv-x="450" 
d="M424 -99h-259v39h178v874h-178v40h259v-953z" />
    <glyph glyph-name="asciicircum" unicode="^" horiz-adv-x="560" 
d="M520 477h-86l-155 215l-157 -215h-82l197 260h85z" />
    <glyph glyph-name="underscore" unicode="_" horiz-adv-x="500" 
d="M500 -118h-499v33h499v-33z" />
    <glyph glyph-name="grave" unicode="`" horiz-adv-x="390" 
d="M333 803l-14 -47l-262 52l19 70z" />
    <glyph glyph-name="a" unicode="a" horiz-adv-x="544" 
d="M355 116q-2 44 -2.5 89t-2.5 89h-9q-31 0 -67 -9.5t-68 -28.5t-52.5 -47t-20.5 -64q0 -44 23.5 -69.5t68.5 -25.5q20 0 45 11t48 26.5t37 28.5zM540 52q0 -7 -6.5 -16.5t-11.5 -14.5q-13 -12 -30 -16.5t-34 -4.5q-41 0 -63 20t-33 57q-37 -33 -82.5 -55t-96.5 -22
q-39 0 -72 14.5t-53.5 43.5t-20.5 70q0 40 20 70t51 51t64 34q43 18 88.5 26.5t90.5 16.5q-1 30 -3 67t-16 64q-10 21 -30.5 38.5t-45.5 17.5q-42 0 -69 -24t-35 -65q-1 -7 -1 -15t-2 -14q-2 -7 -11.5 -11t-16.5 -4q-22 0 -37.5 11.5t-15.5 35.5q0 13 4 22q6 17 21.5 32.5
t35 27t35.5 16.5q22 7 49 11.5t49 4.5q53 0 95.5 -22.5t67 -62.5t24.5 -95v-31q0 -58 -0.5 -115.5t2.5 -115.5q2 -19 8 -36.5t30 -17.5q12 0 23.5 6t20.5 6q7 0 7 -5z" />
    <glyph glyph-name="b" unicode="b" horiz-adv-x="610" 
d="M472 284q0 34 -6 70.5t-21.5 68t-42.5 51.5t-69 20q-18 0 -42.5 -11t-37.5 -23q-19 -18 -29.5 -40.5t-10.5 -48.5q0 -49 -0.5 -99.5t-0.5 -100.5q0 -11 -0.5 -36t1 -48.5t5.5 -32.5q7 -13 28.5 -19t35.5 -6q52 0 88.5 22.5t59 60t32.5 82.5t10 90zM584 283
q0 -82 -36 -146t-99.5 -101t-146.5 -37q-35 0 -71.5 10.5t-68.5 10.5q-8 0 -15.5 -1t-15.5 -1q-23 0 -23 20q0 4 0.5 7.5t0.5 7.5q5 38 5 82.5v82.5q0 116 -1 232t-2 231q0 15 -2.5 25t-21.5 10q-14 0 -27.5 -1.5t-27.5 -1.5q-6 0 -11.5 2.5t-5.5 9.5t6.5 10.5t11.5 4.5
q26 6 52.5 10.5t52.5 9.5q12 2 32 7.5t30 5.5q12 0 12 -8.5v-16.5v-269q31 25 72 41t81 16q73 0 121.5 -35.5t73 -93t24.5 -124.5z" />
    <glyph glyph-name="c" unicode="c" horiz-adv-x="540" 
d="M527 126q0 -2 -0.5 -4t-1.5 -4q-9 -14 -29 -34t-34 -31q-31 -22 -75.5 -37.5t-84.5 -15.5q-76 0 -134.5 33t-91.5 91.5t-33 134.5q0 74 30 139t94 105q29 18 64.5 28t69.5 10q20 0 39.5 -4t38.5 -12q14 -5 34 -15t33 -10q9 0 17.5 7.5t13.5 7.5q4 0 6 -4q2 -10 2 -21v-21
q2 -25 3.5 -49t2.5 -48v-4.5v-4.5q0 -10 -8.5 -14.5t-16.5 -4.5q-9 0 -13 8.5t-6 15.5q-8 30 -22.5 63t-38.5 54q-13 12 -32.5 21.5t-38.5 9.5q-46 0 -78 -24.5t-52 -63t-29 -81.5t-9 -81q0 -37 8.5 -77t27.5 -74t50 -55.5t76 -21.5q44 0 81.5 13.5t69.5 44.5q10 9 18 20
t18 21q6 6 12 6q8 0 13.5 -4.5t5.5 -12.5z" />
    <glyph glyph-name="d" unicode="d" horiz-adv-x="606" 
d="M409 373q0 32 -12 61t-35.5 48t-58.5 19q-46 0 -76.5 -23.5t-47.5 -61t-24 -79.5t-7 -79q0 -33 6 -70.5t21.5 -71.5t42 -55t68.5 -21q20 0 41.5 12t35.5 26q22 21 34 47.5t12 56.5v191zM602 39q0 -13 -19 -22t-41.5 -14t-32.5 -5q-39 0 -59 26t-33 58
q-22 -34 -58.5 -56.5t-77.5 -22.5q-31 0 -64.5 5t-59.5 21q-57 36 -86.5 97t-29.5 127q0 80 30 143.5t88.5 100.5t141.5 37q23 0 55 -11.5t51 -25.5v183q0 30 -13 34t-39 4q-10 0 -19 -0.5t-19 -0.5q-4 0 -10.5 3.5t-6.5 8.5q0 8 6 10.5t12 3.5q22 5 43.5 7.5t42.5 5.5
q22 4 43 8.5t42 10.5q3 1 8 1q15 0 15 -13q0 -119 -1 -238.5t-1 -238.5v-168q0 -16 3.5 -33.5t14 -29.5t30.5 -12q10 0 19 3.5t16 3.5q5 0 7 -3.5t2 -7.5z" />
    <glyph glyph-name="e" unicode="e" horiz-adv-x="545" 
d="M397 354q0 28 -2.5 56t-12 51.5t-29.5 38t-56 14.5q-45 0 -72.5 -25t-42.5 -62.5t-22 -74.5q22 -1 44.5 -1.5t44.5 -0.5q37 0 74 1.5t74 2.5zM525 122q0 -3 -2 -7q-5 -9 -18 -22.5t-27.5 -25.5t-23.5 -19q-34 -24 -75 -37.5t-83 -13.5q-35 0 -75.5 11.5t-70.5 30.5
q-56 37 -81.5 96.5t-25.5 124.5q0 74 29 138t93 104q29 18 66 29t71 11q60 0 105.5 -24t71.5 -68.5t26 -105.5q0 -19 -9.5 -23.5t-26.5 -4.5q-20 0 -40 1l-40 2q-27 1 -53.5 1.5t-52.5 0.5h-64.5t-64.5 -1q-1 -16 -2 -31t-1 -31q0 -35 8 -73.5t25.5 -71.5t46.5 -54t72 -21
q44 0 83 13t72 42q10 9 17.5 19t15.5 20q6 8 16 8q7 0 12.5 -5.5t5.5 -12.5z" />
    <glyph glyph-name="f" unicode="f" horiz-adv-x="390" 
d="M413 637q0 -10 -8.5 -17t-19.5 -7q-8 0 -14.5 2.5t-9.5 10.5q-6 14 -11.5 28t-10.5 28q-7 18 -20 30.5t-34 12.5q-35 0 -52 -26.5t-17 -58.5q0 -34 0.5 -67.5t1.5 -66.5l18 -1q26 0 52 1t52 1q8 0 14.5 -5.5t6.5 -13.5q0 -20 -21 -20q-19 -1 -37.5 0t-37.5 1h-43v-387
q0 -19 8.5 -37t30.5 -18q12 0 23 1t22 1q7 0 10.5 -5.5t3.5 -10.5q0 -13 -10.5 -14t-18.5 -1q-34 0 -67.5 1.5t-67.5 1.5h-31.5t-31.5 -1q-13 0 -25 -1.5t-25 -1.5q-7 0 -14 2.5t-7 12.5q0 12 10.5 14.5t23.5 1.5t20 -1q26 0 33 16.5t7 38.5v388h-59q-16 0 -18 -7t-13 -7
t-11 10q0 4 2.5 16t3.5 15q4 9 19.5 8t24.5 -1h49q-1 20 -1 40.5v40.5q0 94 50 130t137 36q29 0 54 -10.5t53 -10.5q1 -23 3.5 -46.5t2.5 -46.5z" />
    <glyph glyph-name="g" unicode="g" horiz-adv-x="552" 
d="M404 -31q0 39 -20.5 56.5t-51 23t-59.5 7.5l-105 8q-20 -23 -29.5 -46t-9.5 -55q0 -46 21.5 -67t55 -26.5t69.5 -5.5q35 0 64 10t47 33t18 62zM355 368q0 21 -3 46.5t-11.5 49.5t-25.5 39t-45 15q-42 0 -64 -23t-30 -57.5t-8 -69.5q0 -36 6.5 -70.5t28.5 -56.5t67 -22
q28 0 45 15t25.5 38.5t11.5 49t3 46.5zM544 530q0 -23 -12.5 -30t-32.5 -7q-24 0 -48 0.5t-48 1.5q31 -23 44 -59t13 -74q0 -50 -28 -88t-71.5 -59t-90.5 -21q-15 0 -29.5 1t-28.5 2q-13 -10 -27.5 -25t-14.5 -33q0 -14 14 -21t32 -9t28 -3l123 -10q35 -2 68 -13t55 -34.5
t22 -64.5q0 -42 -24.5 -71.5t-62.5 -47t-79.5 -25.5t-75.5 -8q-27 0 -66 2.5t-77 12.5t-63.5 31.5t-25.5 59.5q0 39 27 72.5t55 56.5q-12 5 -29 16t-17 25q0 16 8.5 26.5t17.5 20.5q15 17 31 32l32 30q-51 24 -76 61.5t-25 94.5q0 53 30.5 91t77.5 58.5t95 20.5
q23 0 53.5 -5t51.5 -16q5 -1 9 -1h8q36 0 70 10.5t62 32.5q2 2 4.5 3.5t5.5 1.5q11 0 13 -15.5t2 -23.5z" />
    <glyph glyph-name="h" unicode="h" horiz-adv-x="636" 
d="M632 12q0 -7 -7.5 -9.5t-12.5 -2.5q-25 0 -51 1t-52 1q-29 0 -58.5 -1.5t-58.5 -1.5q-4 0 -8.5 4t-4.5 8q0 5 2.5 10.5t9.5 5.5q11 0 21.5 -0.5t20.5 -0.5q11 0 16.5 8.5t6.5 18.5q2 35 2 70.5v69.5q0 20 0.5 55.5t0 75.5t-3 73.5t-8.5 49.5q-8 24 -30 39.5t-48 15.5
q-33 0 -64 -18.5t-52 -43.5q-25 -28 -35.5 -48t-12.5 -42.5t-2 -59.5q-1 -46 -1 -91.5v-91.5v-26.5t1 -27.5q1 -8 4.5 -17.5t13.5 -9.5h4q9 0 18 1t18 1q16 0 16 -17q0 -5 -5.5 -8t-10.5 -3q-34 0 -67 1t-66 1q-17 0 -35 0.5t-35 -1.5q-4 -1 -8 -1.5t-9 -0.5q-7 0 -11 5
t-4 12q0 6 5.5 9.5t10.5 3.5q7 0 14 -0.5t14 -0.5q14 0 25.5 4.5t12.5 20.5q2 32 1.5 65t-0.5 64v126v125q0 63 -0.5 126t-1.5 126q0 9 -1.5 22t-14.5 13q-14 0 -29 -2t-29 -2q-5 0 -10.5 2t-5.5 8q0 11 11 14q23 6 45.5 9.5t44.5 8.5q17 5 36 10.5t35 5.5q15 0 15 -13
v-155.5t-1 -154.5q22 22 52.5 42t64.5 33.5t65 13.5q99 0 137 -42.5t38 -139.5q0 -76 -1 -152t-1 -153q0 -27 28 -27q8 0 16 1t15 1q6 0 10.5 -5t4.5 -11z" />
    <glyph glyph-name="i" unicode="i" horiz-adv-x="344" 
d="M323 15q0 -6 -5.5 -11t-11.5 -5q-35 0 -70 1.5t-70 1.5q-29 0 -58.5 -1.5t-58.5 -1.5q-5 0 -9 5.5t-4 9.5q0 12 11 13q12 2 25.5 1t25.5 -1q13 0 22 6.5t9 19.5v130l1 274q0 14 -4.5 23.5t-21.5 9.5q-13 0 -26.5 -2t-27.5 -2q-4 0 -10 2.5t-6 7.5q0 13 10 15q13 4 26 5.5
t26 3.5q28 5 55.5 11.5t55.5 12.5q6 2 11 2q18 0 18 -15q0 -119 -1 -238.5t-1 -239.5q0 -18 17 -21.5t30 -3.5q8 0 15.5 0.5t14.5 0.5q4 0 8 -5t4 -9zM241 708q0 -28 -20 -45t-47 -17t-47 17t-20 45t20 45t47 17t47 -17t20 -45z" />
    <glyph glyph-name="j" unicode="j" horiz-adv-x="380" 
d="M278 534v-226.5v-226.5q0 -25 -1.5 -57t-7 -63t-18.5 -54q-28 -52 -77.5 -72.5t-105.5 -20.5q-25 0 -53 8t-48 25q-7 6 -14 16.5t-7 19.5q0 23 14.5 36t36.5 13q14 0 16.5 -10t5.5 -20q5 -16 18.5 -34t32.5 -18q43 0 71.5 27.5t28.5 70.5v511q0 9 -2.5 18t-11.5 13
q-3 2 -6.5 2h-7.5q-13 0 -26.5 -2.5t-24.5 -2.5q-4 0 -10.5 2.5t-6.5 8.5q0 14 10 16q14 5 29.5 6t28.5 3q29 4 57 9.5t56 11.5q6 2 10 2q13 0 13 -12zM274 708q0 -28 -20 -45t-47 -17q-26 0 -46 17t-20 45t20 45t46 17q27 0 47 -17t20 -45z" />
    <glyph glyph-name="k" unicode="k" horiz-adv-x="592" 
d="M593 17q0 -8 -16 -12t-34 -4.5t-25 -0.5q-34 0 -56.5 4.5t-42.5 35.5q-43 68 -84.5 137t-84.5 138l-51 -37v-228q0 -9 5 -16t15 -7t19.5 1t19.5 1q6 0 11.5 -3t5.5 -11q0 -7 -5.5 -10.5t-11.5 -3.5q-36 0 -71.5 1t-70.5 1q-19 0 -38 -1.5t-38 -1.5q-5 0 -9 5.5t-4 9.5
q0 9 9 11.5t20 1.5t16 -1q15 0 21.5 3.5t6.5 19.5v637q0 17 -4.5 27.5t-24.5 10.5q-10 0 -21 -2t-22 -2t-11 11q0 7 2.5 9t9.5 3q19 4 38.5 6.5t38.5 6.5q8 2 26 5.5t35 7t22 3.5q10 0 10 -8v-448q47 35 92 73t88 77q16 15 31 31t28 34q5 5 10 6.5t12 1.5q11 0 20.5 -0.5
t19.5 -0.5q14 0 27 0.5t26 0.5q9 0 13 -2.5t4 -12.5t-13 -12t-29.5 -3.5t-29.5 -11.5q-44 -32 -87.5 -65.5t-86.5 -68.5q17 -31 36.5 -61t38.5 -59q27 -40 53.5 -80.5t54.5 -79.5q12 -17 32 -34t41 -22q5 -1 9 -2.5t4 -8.5z" />
    <glyph glyph-name="l" unicode="l" horiz-adv-x="346" 
d="M321 15q0 -6 -5.5 -11t-11.5 -5q-31 0 -63 1.5t-64 1.5h-37.5t-37.5 -1q-11 -1 -22 -1.5t-22 -0.5q-6 0 -9.5 6t-3.5 11q0 10 11 13q9 2 19.5 1t20.5 -1q12 0 21.5 6.5t9.5 19.5q0 77 1 155t1 155q0 78 -1 156t-1 156q0 11 -3.5 21.5t-17.5 10.5q-17 0 -34 -5t-35 -5
q-3 0 -9 2t-6 6q0 13 9 16q12 5 25 6.5t24 4.5q32 8 63.5 17t62.5 19q3 1 5.5 1.5t5.5 0.5q14 0 14 -15v-56.5v-57.5v-268q0 -79 0.5 -159.5t0.5 -160.5q0 -13 12 -19.5t23 -6.5t21.5 1t20.5 1q4 0 8 -6t4 -10z" />
    <glyph glyph-name="m" unicode="m" horiz-adv-x="920" 
d="M915 15q0 -7 -5.5 -11.5t-12.5 -4.5q-10 0 -19.5 0.5t-20.5 1.5q-19 1 -37 1h-37q-30 0 -59.5 -1.5t-58.5 -1.5q-4 0 -8.5 5t-4.5 9q0 11 10.5 13.5t23.5 1.5t20 -1q26 0 26 26q0 64 1 127.5t1 127.5q0 20 -1 51.5t-4 62t-11 47.5q-8 20 -26 28.5t-39 8.5t-46 -13
t-48.5 -31t-38.5 -32q2 -13 2 -27.5v-28.5q0 -29 0.5 -58.5t0.5 -58.5q0 -51 -0.5 -102t-0.5 -102q0 -13 11.5 -19.5t23.5 -6.5q8 0 15.5 1t15.5 1q5 0 9 -5t4 -9q0 -7 -5.5 -11.5t-12.5 -4.5q-10 0 -19.5 0.5t-20.5 1.5q-19 1 -37.5 1h-36.5q-29 0 -57.5 -1.5t-57.5 -1.5
q-4 0 -8.5 5t-4.5 9q0 12 11 14q10 2 20.5 1t20.5 -1q26 0 26 26q0 67 0.5 133.5t0.5 133.5q0 20 -0.5 48t-4 56t-11.5 45q-7 16 -22 25.5t-33 9.5q-13 0 -27 -3q-16 -4 -37.5 -18t-41.5 -30.5t-32 -29.5v-185v-185q0 -13 10 -19.5t21 -6.5q8 0 15 1t14 1q5 0 9 -5t4 -9
q0 -7 -5.5 -11.5t-12.5 -4.5q-9 0 -18 0.5t-19 1.5q-18 1 -36 1h-36q-29 0 -59 -1.5t-60 -1.5q-5 0 -9 5t-4 9q0 12 11 14t22.5 1t22.5 -1q27 0 27 26q0 101 -0.5 202.5t-0.5 202.5q0 14 -4 25.5t-21 11.5q-13 0 -25 -3t-25 -3q-15 0 -15 15q0 8 10 11q5 2 11.5 2t12.5 1
q14 2 27.5 4.5t26.5 4.5q18 3 36 8t37 5q12 0 17 -7q7 -11 9 -32.5t3 -34.5q31 26 70.5 51.5t81.5 25.5q50 0 88 -15t63 -61q33 29 75 53.5t87 24.5q67 0 103 -18t50.5 -57t14.5 -103q0 -78 -1.5 -156.5t-1.5 -156.5q0 -15 9.5 -20t23 -5h23.5q8 0 15 -2t7 -12z" />
    <glyph glyph-name="n" unicode="n" horiz-adv-x="632" 
d="M620 14q0 -9 -6 -12t-14 -3q-31 0 -63 1t-64 1q-25 0 -51.5 -1t-52.5 -1q-4 0 -8 5t-4 9q0 13 10 15q11 2 21.5 1t20.5 -1q26 0 27 26q2 23 1.5 46t-0.5 45v124q0 21 -0.5 56.5t-2.5 70t-8 52.5q-17 51 -68 51q-30 0 -49.5 -8.5t-44.5 -25.5q-15 -11 -29.5 -24t-26.5 -28
v-179.5v-178.5q0 -13 11 -19.5t22 -6.5q8 0 15.5 1t14.5 1q4 0 8 -5t4 -9q0 -7 -5.5 -11.5t-11.5 -4.5q-31 0 -62 1t-62 1q-25 0 -50 -1t-50 -1q-6 0 -10 4.5t-4 9.5q0 11 10 13.5t22 1.5t19 -1q24 0 26 26q1 14 1 28v27q0 86 -0.5 173t-1.5 174q0 11 -4 25t-18 14
q-13 0 -25 -4t-25 -4t-13 12q0 7 2 9t9 3q18 5 37 7.5t38 6.5q17 4 34 8.5t34 4.5q12 0 17 -7t7.5 -22t4 -30t1.5 -24q33 31 78 57.5t91 26.5q35 0 70 -8t60.5 -29.5t31.5 -62.5q2 -17 4 -35.5t2 -35.5v-156v-156q0 -17 9 -23t25 -6q8 0 15.5 1t15.5 1q6 0 10.5 -5.5
t4.5 -10.5z" />
    <glyph glyph-name="o" unicode="o" horiz-adv-x="620" 
d="M465 266q0 41 -6 84t-23 80t-48.5 59.5t-83.5 22.5q-48 0 -78.5 -24t-46.5 -62.5t-22.5 -81t-6.5 -80.5q0 -42 6.5 -83.5t23.5 -76.5t49 -56t83 -21q50 0 80.5 22t46 58t21 78t5.5 81zM579 262q0 -76 -36.5 -136t-98 -94.5t-137.5 -34.5q-75 0 -135 34.5t-95.5 94.5
t-35.5 134q0 77 35 141t96 102.5t139 38.5q86 0 145.5 -35t91 -98t31.5 -147z" />
    <glyph glyph-name="p" unicode="p" horiz-adv-x="608" 
d="M461 285q0 32 -3.5 69.5t-15.5 70.5t-37 54t-68 21q-13 0 -26 -3t-25 -8q-25 -10 -51 -35.5t-28 -55.5q-2 -31 -2 -63.5v-64.5q0 -27 0.5 -54t1.5 -54q2 -49 30.5 -85t80.5 -36q51 0 80 23.5t42.5 60.5t17 79.5t3.5 80.5zM575 284q0 -80 -28.5 -142.5t-84.5 -98
t-141 -35.5q-29 0 -61.5 13.5t-54.5 32.5v-100.5v-100.5q0 -9 6 -13q2 -2 9.5 -2.5t11.5 -0.5q9 0 18 0.5t18 0.5q8 0 13 -2.5t5 -11.5q0 -10 -5.5 -13t-14.5 -3q-27 0 -54 2t-55 2h-34.5t-34.5 -1q-24 -3 -50 -3q-14 0 -14 15q0 16 17 16q8 0 15 -0.5t14 -0.5q6 0 19 1.5
t13 10.5q0 104 0.5 207.5t0.5 206.5v93.5t-2 92.5q0 18 -5 27.5t-25 9.5q-10 0 -20 -2.5t-20 -2.5q-6 0 -11 3t-5 10q0 6 4.5 9.5t9.5 4.5q8 2 17.5 3.5t18.5 2.5q13 2 37 7.5t47 10t32 4.5q14 0 17 -11q4 -12 3.5 -28.5t-0.5 -28.5v-4q28 32 71 52.5t86 20.5
q71 0 119.5 -36t73 -94t24.5 -124z" />
    <glyph glyph-name="q" unicode="q" horiz-adv-x="608" 
d="M419 285v42.5t-1 42.5q-2 58 -35.5 99t-95.5 41q-45 0 -73 -25t-43 -63.5t-20.5 -80.5t-5.5 -77q0 -32 6.5 -70t22 -71.5t42.5 -55t68 -21.5q33 0 63 14.5t50 40.5t21 61q2 31 1.5 61.5t-0.5 61.5zM608 -176q0 -6 -5.5 -11t-11.5 -5q-31 0 -61 2t-61 2t-62.5 -2t-63.5 -2
q-5 0 -9 5.5t-4 9.5q0 11 10 13q8 2 24 1t25 -1q12 0 21 6.5t9 19.5q0 45 0.5 89.5t0.5 88.5v25q-25 -22 -63 -38t-73 -16q-33 0 -65.5 6.5t-61.5 24.5q-57 35 -88 92t-31 123q0 82 30.5 145t89 98.5t142.5 35.5q38 0 78.5 -14t65.5 -45q6 10 16.5 24t23 25t23.5 11t14.5 -4
t3.5 -15q0 -19 -2 -38t-2 -38q0 -145 1 -290t1 -290q0 -13 11 -19.5t23 -6.5q10 0 19 1.5t19 1.5q5 0 9 -5t4 -10z" />
    <glyph glyph-name="r" unicode="r" horiz-adv-x="444" 
d="M440 448q0 -14 -9 -22t-23 -8q-18 0 -25.5 10t-12 23t-12 23t-26.5 10t-40.5 -17t-40.5 -42t-31.5 -50t-13.5 -41q-1 -21 -1 -42.5v-42.5q0 -48 0.5 -96.5t0.5 -96.5q0 -13 12 -19.5t23 -6.5q10 0 19 1t19 1q5 0 9 -5t4 -9q0 -6 -4.5 -12.5t-10.5 -6.5q-32 0 -64 1.5
t-64 1.5q-31 0 -62 -1t-63 -1q-5 0 -8.5 6t-3.5 10q0 13 10 15q11 2 24 1t24 -1q28 0 29 26q3 46 3 92v92v74q0 35 -0.5 70t-3.5 70q-1 17 -9 25.5t-26 8.5q-8 0 -16 -2t-16 -2q-16 0 -16 14q0 9 9 12q10 4 21.5 5t21.5 3q40 6 77 15q3 0 17 3.5t15 3.5q14 0 21 -12
q2 -3 3 -19t1 -36.5v-38v-23.5q22 34 49.5 64t62 49t77.5 19q28 0 35.5 -14.5t10.5 -37.5q2 -10 3 -21.5t1 -22.5z" />
    <glyph glyph-name="s" unicode="s" horiz-adv-x="446" 
d="M417 148q0 -45 -20 -74t-52.5 -45t-70.5 -22.5t-75 -6.5q-19 0 -37.5 3t-36.5 6q-15 3 -30.5 4t-29.5 5q-7 24 -12.5 48.5t-13.5 47.5q-1 5 -5.5 17.5t-4.5 16.5q0 10 9.5 13t16.5 3q5 0 9.5 -4t6.5 -8q5 -7 8 -15t7 -16q7 -12 13.5 -23.5t16.5 -20.5q18 -18 42.5 -29.5
t49.5 -11.5q47 0 77.5 18.5t30.5 70.5q0 31 -19.5 52.5t-50.5 38t-65.5 32t-65.5 35t-50.5 47t-19.5 67.5q0 49 26 81t66.5 47.5t83.5 15.5q29 0 52.5 -6.5t50.5 -16.5q12 -4 28 -4h10.5t10.5 1q3 -26 7.5 -53.5t4.5 -53.5q0 -10 -6 -17.5t-17 -7.5q-17 0 -23 14
q-4 9 -6.5 19t-5.5 20q-12 33 -43 54t-66 21q-47 0 -66 -28.5t-19 -71.5q0 -16 7 -29t18 -24q10 -10 22 -17t25 -13q29 -13 65.5 -28.5t70 -35.5t55 -48.5t21.5 -67.5z" />
    <glyph glyph-name="t" unicode="t" horiz-adv-x="372" 
d="M371 52q0 -12 -14 -22t-34 -17.5t-38.5 -11.5t-28.5 -4q-52 0 -82 12.5t-42.5 43t-12.5 82.5q0 83 1 167l2 168h-44h-7.5t-8.5 -1q-6 0 -11.5 -3t-11.5 -3q-3 0 -6.5 2.5t-3.5 5.5q0 4 6.5 17.5t8.5 17.5q3 -1 11 -1h69l1 126q24 14 43 34t38 39q7 5 13 5q4 0 9.5 -2
t4.5 -7l-5 -194q29 1 58.5 2t58.5 1q19 0 19 -18q0 -21 -21 -21h-115q-1 -68 -1.5 -136t-0.5 -136v-54.5t1 -54.5q1 -22 18.5 -33t38.5 -11q19 0 42.5 9t32.5 9q12 0 12 -11z" />
    <glyph glyph-name="u" unicode="u" horiz-adv-x="628" 
d="M624 31q0 -13 -18.5 -20t-40 -9.5t-31.5 -2.5q-34 0 -54.5 24t-31.5 53q-34 -40 -86 -60t-104 -20q-92 0 -128.5 48t-36.5 135q0 74 0.5 148.5t1.5 149.5q0 12 -4.5 19.5t-18.5 7.5q-8 0 -16 -1t-16 -1q-4 0 -8.5 4t-4.5 7q0 9 4 11t12 3q10 2 20 2t20 1q18 2 35.5 3
t35.5 2l16 2t16 1q5 0 9 -8.5t4 -13.5q0 -86 -2 -172.5t-2 -172.5q0 -19 1 -40t8 -39q11 -27 39.5 -38t55.5 -11q29 0 59.5 11.5t52.5 33.5t25 54q2 19 2 38.5v38.5v261q0 10 -6.5 16t-16.5 6t-19.5 -1t-19.5 -1q-15 0 -15 13q0 7 3.5 9.5t9.5 3.5q12 2 25 2.5t26 1.5
q22 2 51 6t49 4q5 0 10.5 -6t4.5 -11q-1 -107 -2 -215t-1 -216q0 -22 10 -38t35 -16q8 0 16 2.5t16 2.5q10 0 10 -12z" />
    <glyph glyph-name="v" unicode="v" horiz-adv-x="574" 
d="M586 529q0 -12 -13.5 -12.5t-21.5 -0.5q-18 0 -25 -17q-5 -12 -9.5 -24.5t-9.5 -25.5q-10 -26 -19 -52.5t-18 -53.5q-31 -86 -60.5 -172t-61.5 -172l-103 -4l-46 138t-47 137q-17 47 -33.5 94t-34.5 93q-3 8 -11 20t-16 15q-11 5 -20 5h-20q-6 0 -11.5 2.5t-5.5 9.5
q0 10 12 13q20 4 44 6t44 5q11 2 23 4t24 2q16 0 22 -13q4 -10 7 -21l6 -22l18 -54l18 -54q26 -77 52 -155t51 -156q36 97 68 195t62 197q2 6 6.5 22.5t4.5 22.5q0 10 -5 13t-14 3t-18 -0.5t-18 -0.5q-5 0 -10.5 3t-5.5 8q0 12 14 12h22q21 0 42.5 0.5t42.5 0.5q15 0 30 1
t30 1q14 0 14 -13z" />
    <glyph glyph-name="w" unicode="w" horiz-adv-x="852" 
d="M854 528q0 -15 -12 -15.5t-23 -0.5t-20 -3.5t-14 -14.5q-3 -8 -6 -18t-5 -19q-7 -22 -14.5 -44.5t-14.5 -45.5q-28 -91 -57 -182.5t-60 -182.5l-96 -3q-28 97 -57.5 193.5t-58.5 193.5q-29 -97 -61 -193t-65 -191l-100 -3q-21 79 -39.5 158.5t-38.5 158.5q-7 26 -13 52.5
t-13 52.5q-4 12 -6.5 24.5t-7.5 24.5q-2 6 -5 13.5t-8 11.5q-4 4 -9 5t-10 1q-7 0 -14 -1t-15 -1q-4 0 -8 4t-4 8q0 8 2.5 10.5t9.5 3.5q5 1 11.5 1t12.5 1q15 2 30.5 4t31.5 4q12 2 25 4t26 2q8 0 11 -3.5t5 -9.5q4 -10 6 -23t5 -24l24 -106l34 -152t33 -153
q25 78 48.5 155.5t47.5 155.5q8 24 14.5 48.5t13.5 48.5q2 11 4.5 23t6.5 23q5 13 23 13.5t29 0.5q6 0 10.5 -1t8.5 -7q2 -3 8 -23t13 -45.5t12 -45t6 -22.5q23 -81 45.5 -162.5t45.5 -162.5q35 104 64.5 210.5t53.5 213.5q1 2 1 7q0 11 -7 12.5t-16 1.5q-7 0 -15 -0.5
t-16 -0.5q-16 0 -16 15q0 6 5 9t11 3q22 0 44.5 -0.5t44.5 -0.5q21 0 41.5 0.5t41.5 0.5q5 0 10 -3t5 -9z" />
    <glyph glyph-name="x" unicode="x" horiz-adv-x="572" 
d="M572 10q0 -11 -15 -11q-28 0 -55.5 1t-54.5 1q-7 0 -13.5 -0.5t-13.5 -0.5t-13 1.5t-9 8.5q-30 53 -63 104t-66 103q-22 -33 -45 -66t-45 -66q-12 -18 -25.5 -37t-21.5 -39q-3 -7 -7 -8t-10 -1h-100q-11 0 -11 12q0 7 7 10q2 1 5.5 1h5.5q19 0 33 4t30 17q10 9 19 19.5
t17 20.5q32 41 63.5 83t59.5 85q-7 11 -23 37t-37 58.5t-42 64t-38 54.5t-25 29q-10 7 -24.5 7h-25.5q-7 0 -13.5 1t-6.5 11t9 11q15 3 36.5 4.5t37.5 3.5q17 2 35 5t34 3q14 0 20 -11q32 -52 63.5 -105t62.5 -106q5 8 18 27.5t29.5 45t32 50.5t26 43.5t10.5 22.5
q0 8 -8.5 9.5t-18 0.5t-14.5 -1q-15 0 -15 12q0 4 3 7.5t7 3.5q29 0 58 -0.5t57 -0.5q14 0 28 1t28 1q6 0 11.5 -2t5.5 -10q0 -14 -14 -13.5t-24 0.5q-11 0 -23 -7q-5 -3 -22 -24t-40 -50.5t-46 -60.5t-41 -55.5t-25 -33.5q41 -59 82.5 -117.5t85.5 -115.5q22 -28 59 -28
q15 0 15 -14z" />
    <glyph glyph-name="y" unicode="y" horiz-adv-x="594" 
d="M606 528q0 -13 -7.5 -14.5t-17.5 -1.5q-16 0 -24 -6t-16 -20q-15 -31 -29 -62l-28 -62q-31 -64 -61.5 -128.5t-63.5 -127.5q-21 -40 -41 -80t-41 -80q-10 -22 -21.5 -44.5t-24.5 -42.5q-18 -28 -41.5 -46t-58.5 -18q-20 0 -40.5 6t-34.5 20.5t-14 39.5q0 22 16.5 38
t38.5 16q15 0 25 -5q-3 -12 -3 -25t9.5 -20.5t20.5 -7.5q23 0 40.5 17.5t30.5 41t20 41.5q8 20 11.5 32.5t3.5 34.5q0 6 -2 18t-5 25t-5 18q-19 50 -41.5 99.5t-44.5 98.5q-18 44 -37 87t-39 86q-3 5 -5.5 10t-5.5 10q-12 18 -26.5 19.5t-32.5 1.5q-13 0 -13 13q0 8 10 10
q2 1 23.5 4t49 6.5t49.5 6.5t24 3q10 0 15 -4q3 -3 14.5 -30.5t28 -69t35 -89t35.5 -92t29.5 -78t17.5 -46.5q6 11 19 39.5t30 66.5t35 79.5t33 79t24 65t9 36.5q0 14 -11 14.5t-21 0.5q-7 0 -14.5 -0.5t-15.5 -0.5q-5 0 -9.5 4t-4.5 9t3 10t9 5q23 0 45.5 -0.5t44.5 -0.5
q23 0 45 1t44 1q12 0 12 -12z" />
    <glyph glyph-name="z" unicode="z" horiz-adv-x="480" 
d="M474 158q0 -10 -3.5 -26t-5.5 -28q-2 -17 -4 -34.5t-4 -34.5q-1 -5 -0.5 -11.5t-1.5 -11.5q-1 -10 -14 -10q-56 0 -112.5 1.5t-112.5 1.5q-47 0 -95 -1.5t-95 -1.5q-5 0 -10.5 3t-5.5 9q0 4 1.5 7t2.5 6q6 9 13.5 18t14.5 18q14 20 29.5 39t28.5 39q52 77 104.5 156
t97.5 155q4 8 7.5 15.5t3.5 15.5q0 15 -14.5 19.5t-32 4.5h-27.5q-25 0 -52 -1t-50 -7q-17 -4 -29.5 -16t-21.5 -26q-5 -10 -8.5 -21.5t-5.5 -22.5q-1 -3 -1.5 -7.5t-1.5 -7.5q-5 -7 -15 -7q-3 0 -8.5 1.5t-5.5 6.5q0 8 0.5 16t1.5 16q1 22 1.5 44t0.5 44q0 16 17 16
q20 0 40 -1t40 -1q77 0 156.5 0.5t156.5 0.5q5 0 10.5 -4t5.5 -9q0 -4 -17 -29.5t-45 -64t-61.5 -85t-67.5 -93.5t-62 -89t-45 -71.5t-17 -40.5t8 -14q4 -1 20.5 -2t34 -1h22.5q18 0 36.5 1.5t36.5 2.5q29 3 50 10.5t42 29.5q10 11 17 25t12 27q4 8 6.5 17.5t6.5 17.5
q4 7 13 7q5 0 9.5 -2.5t4.5 -8.5z" />
    <glyph glyph-name="braceleft" unicode="{" horiz-adv-x="450" 
d="M342 -93q-38 6 -75.5 24.5t-62 50t-24.5 74.5q0 51 1 101.5t1 101.5q0 89 -83 119q83 32 83 120q0 51 -1 102.5t-1 102.5q0 44 24.5 75.5t62 50.5t75.5 24v-16q-35 -11 -52 -35.5t-22.5 -55.5t-5.5 -64v-94v-94q0 -30 -22 -56.5t-46 -40.5q-10 -5 -13 -5.5t-14 -5.5
q-4 -2 -8.5 -4t-9.5 -4q5 -1 9.5 -3t8.5 -4q20 -8 42 -24.5t37.5 -38t15.5 -45.5v-92.5v-93.5q0 -33 5.5 -64t22.5 -54.5t52 -35.5v-16z" />
    <glyph glyph-name="bar" unicode="|" horiz-adv-x="250" 
d="M163 -78h-76v882h76v-882z" />
    <glyph glyph-name="braceright" unicode="}" horiz-adv-x="450" 
d="M350 378q-82 -29 -82 -119q0 -51 0.5 -101.5t0.5 -101.5q0 -43 -24.5 -74.5t-61.5 -50t-76 -24.5v16q36 12 53 35.5t22 54.5t5 64q0 47 0.5 93.5t0.5 92.5q0 24 15.5 45.5t37.5 38t42 24.5q5 2 9.5 4t8.5 3q-4 2 -8.5 4t-9.5 4q-11 5 -13.5 5.5t-13.5 5.5
q-24 14 -46 40.5t-22 56.5q0 47 -0.5 94t-0.5 94q0 33 -5.5 64t-22.5 55.5t-52 35.5v16q39 -5 76.5 -24t61.5 -50.5t24 -75.5q0 -51 -0.5 -102.5t-0.5 -102.5q0 -88 82 -120z" />
    <glyph glyph-name="asciitilde" unicode="~" horiz-adv-x="700" 
d="M668 291q-30 -35 -73.5 -59.5t-90.5 -24.5q-46 0 -89 17.5t-83 40.5t-78 40.5t-74 17.5q-37 0 -74 -12t-67 -34l-18 25q19 21 47.5 41t60 33t60.5 13q51 0 93.5 -17.5t82 -40t79 -40t82.5 -17.5q35 0 67 13.5t59 33.5z" />
    <glyph glyph-name="uni00A0" unicode="&#xa0;" horiz-adv-x="250" 
 />
    <glyph glyph-name="exclamdown" unicode="&#xa1;" horiz-adv-x="400" 
d="M263 -150q0 -29 -18 -42t-45 -13q-26 0 -44.5 13.5t-18.5 41.5q0 19 3 38.5t5 38.5q11 101 19 203.5t18 203.5h36q8 -101 17.5 -202t19.5 -202q2 -20 5 -40t3 -40zM276 475q0 -32 -23 -52.5t-54 -20.5t-54.5 20.5t-23.5 52.5t23.5 52.5t54.5 20.5t54 -20.5t23 -52.5z" />
    <glyph glyph-name="cent" unicode="&#xa2;" horiz-adv-x="700" 
d="M333 601q-43 -17 -73 -57.5t-45.5 -90t-15.5 -93.5q0 -43 15 -89.5t45 -82.5t74 -50v463zM605 217q0 -2 -0.5 -4t-1.5 -4q-5 -9 -18 -21t-27 -23t-23 -17q-31 -20 -71 -35t-77 -18v-118h-54v119q-67 7 -123 41.5t-89 90t-33 125.5q0 72 31.5 132t87 99t126.5 48v121h54
v-120q16 -1 32 -3t32 -8q15 -5 36.5 -14t36.5 -9q9 0 18 2.5t18 6.5q2 -35 5 -70.5t3 -70.5q0 -26 -28 -26q-10 0 -13.5 10t-5.5 17q-11 37 -25.5 67.5t-39.5 50t-69 23.5v-477q43 2 78.5 16.5t67.5 41.5q17 14 28 26q3 3 5.5 6.5t5.5 5.5q7 5 14 5q6 0 12.5 -4t6.5 -12z
" />
    <glyph glyph-name="sterling" unicode="&#xa3;" horiz-adv-x="700" 
d="M198 111q-17 7 -33 7q-15 0 -32 -9t-17 -27q0 -10 10.5 -14t18.5 -4q18 0 32.5 15.5t20.5 31.5zM649 127q0 -1 -0.5 -2t-0.5 -2q-10 -36 -35 -65t-59 -46t-72 -17q-46 0 -85.5 13.5t-79.5 35.5q-17 10 -34.5 19t-34.5 19q-19 -31 -50.5 -55.5t-70.5 -24.5q-28 0 -49 13.5
t-21 44.5t18.5 49t46 25.5t52.5 7.5q18 0 34 -3q6 23 8 47t2 47q0 36 -4 71.5t-12 70.5h-132v46h121q-5 32 -12 63.5t-7 63.5q0 60 27 102t73.5 64.5t103.5 22.5q47 0 87 -13q24 -9 48.5 -17.5t49.5 -10.5q2 -32 6 -63.5t4 -63.5q0 -29 -29 -29q-8 0 -15 3t-11 10
q-3 5 -4 12t-3 13q-9 50 -35.5 83t-81.5 33q-41 0 -67 -20t-38.5 -52t-12.5 -69q0 -34 6.5 -66.5t11.5 -65.5h216l-2 -46h-206q2 -20 3.5 -40.5t1.5 -40.5q0 -41 -8 -87.5t-27 -84.5q50 -26 100.5 -43.5t108.5 -17.5q47 0 80.5 16.5t64.5 50.5q2 3 5.5 6t7.5 3q12 0 12 -10z
" />
    <glyph glyph-name="currency" unicode="&#xa4;" horiz-adv-x="550" 
d="M455 311q0 49 -23.5 88.5t-63.5 63t-88 23.5t-88 -23.5t-63.5 -63t-23.5 -88.5q0 -48 23.5 -88t63.5 -63.5t88 -23.5t88 23.5t63.5 63.5t23.5 88zM514 521l-67 -64q28 -36 40.5 -68.5t12.5 -79.5q0 -45 -13.5 -77t-39.5 -68l66 -61l-31 -32l-67 64q-32 -19 -63.5 -31.5
t-69.5 -12.5q-40 0 -77.5 15t-69.5 39l-64 -63l-33 32l67 64q-20 30 -32.5 64t-12.5 71q0 36 12 69.5t33 62.5l-69 64l35 32l64 -63q32 23 68 38.5t76 15.5q37 0 71 -12.5t65 -32.5l65 65z" />
    <glyph glyph-name="yen" unicode="&#xa5;" horiz-adv-x="700" 
d="M682 718q0 -16 -13 -16h-24t-19.5 -2t-16.5 -11q-6 -6 -11 -12t-9 -13q-37 -64 -77 -124.5t-83 -120.5h203v-37h-226v-105h226v-36h-227l1 -186q0 -17 15 -21t28 -4q10 0 19 1t19 1q18 0 18 -19q0 -10 -7 -12.5t-15 -2.5q-13 0 -25.5 1t-25.5 2q-19 1 -38 1h-38
q-23 0 -46.5 -0.5t-46.5 -1.5q-13 -1 -25.5 -1.5t-25.5 -0.5q-6 0 -10 6t-4 11q0 7 4 12t11 5q9 0 17.5 -0.5t17.5 -0.5q26 0 35.5 4.5t10.5 17t1 35.5v153h-215v36h215v105h-215v37h199q-37 67 -76.5 131.5t-80.5 128.5q-16 24 -42 24q-9 0 -18 -0.5t-18 -0.5q-13 0 -13 15
q0 16 17 16q26 0 52 -0.5t51 -0.5h18h19q6 0 11.5 -1.5t9.5 -6.5q2 -3 3 -6l2 -6q38 -76 80.5 -150t84.5 -148q42 62 81 127.5t74 131.5q2 4 3 8.5t1 8.5q0 11 -7.5 14t-16.5 3q-10 0 -20 -1t-21 -1q-10 0 -15 1.5t-5 13.5q0 9 4 11t12 2q25 0 50.5 -1t50.5 -1
q24 0 47.5 1.5t47.5 1.5q10 0 13.5 -3t3.5 -13z" />
    <glyph glyph-name="brokenbar" unicode="&#xa6;" horiz-adv-x="400" 
d="M240 -102h-80v409h80v-409zM240 392h-80v409h80v-409z" />
    <glyph glyph-name="section" unicode="&#xa7;" horiz-adv-x="650" 
d="M456 351q0 38 -24 62t-58 39.5t-63 27.5q-26 -3 -53.5 -12.5t-46 -28.5t-18.5 -51q0 -30 18.5 -52t46 -37t57.5 -25.5t52 -19.5q39 9 64 31.5t25 65.5zM536 364q0 -37 -19.5 -62t-49 -41.5t-60.5 -26.5q53 -23 88 -61.5t35 -100.5q0 -53 -29 -85t-73.5 -46t-89.5 -14
q-37 0 -77 4.5t-74 21t-57 51.5q-6 10 -11 21.5t-5 23.5q0 23 9.5 40t35.5 17q17 0 29.5 -9t16.5 -26q2 -10 2.5 -19.5t3.5 -19.5q8 -25 28.5 -42t46.5 -26.5t50 -9.5q49 0 84 30.5t35 81.5q0 33 -20 57t-46 41q-25 17 -54 29.5t-58 24.5q-35 14 -67 32t-51.5 46t-19.5 72
q0 34 16.5 62.5t44 47.5t60.5 23q-49 21 -81 56t-32 92q0 45 24 77t62.5 49t79.5 17q42 0 90 -13t76 -47q11 -13 20.5 -30.5t9.5 -35.5q0 -25 -17 -39.5t-42 -14.5q-9 0 -19.5 7t-12.5 16q-2 6 -3 13l-2 14q-5 41 -28.5 70t-67.5 29t-73.5 -30.5t-29.5 -74.5
q0 -35 23.5 -57.5t60 -38.5t77.5 -31t77.5 -35t60 -51t23.5 -79z" />
    <glyph glyph-name="dieresis" unicode="&#xa8;" horiz-adv-x="500" 
d="M195 713q0 -25 -17.5 -41t-41.5 -16t-41 16t-17 41q0 24 17 40t41 16t41.5 -16t17.5 -40zM422 713q0 -25 -17 -41t-41 -16t-41.5 16t-17.5 41q0 24 17.5 40t41.5 16t41 -16t17 -40z" />
    <glyph glyph-name="copyright" unicode="&#xa9;" horiz-adv-x="740" 
d="M553 252q0 -2 -2 -6q-17 -25 -45.5 -45t-61 -31.5t-63.5 -11.5q-58 0 -102.5 25t-69.5 69.5t-25 102.5q0 59 24 107.5t68 77.5t105 29q22 0 42.5 -7t38.5 -14.5t31 -7.5q12 0 26 7q2 -27 4.5 -54t2.5 -54q0 -9 -5.5 -11t-13.5 -2q-7 0 -12 6q-1 2 -2 5t-2 5q-7 25 -19 49
t-31.5 39.5t-49.5 15.5q-35 0 -59 -18t-39 -46.5t-22 -60.5t-7 -61q0 -37 12 -77t39 -67.5t72 -27.5q39 0 65.5 12t43 27t26.5 27t16 12q5 0 10 -4t5 -10zM666 374q0 61 -23 114.5t-64 94.5t-94.5 64t-114.5 23t-114.5 -23.5t-93.5 -65t-63 -95t-23 -114.5t23 -114t64 -93.5
t94.5 -63.5t114.5 -23t114.5 23t93.5 64t63 94.5t23 114.5zM692 374q0 -67 -25 -125.5t-69.5 -103t-102.5 -70t-125 -25.5t-125 25.5t-102.5 70t-69.5 103t-25 125.5q0 66 25 125t69.5 103.5t103 70t124.5 25.5q67 0 125 -25.5t102.5 -70t69.5 -103.5t25 -125z" />
    <glyph glyph-name="ordfeminine" unicode="&#xaa;" horiz-adv-x="390" 
d="M239 473q-1 28 -2 56.5t-2 56.5h-4q-25 0 -54 -11t-49.5 -32t-20.5 -51q0 -27 14 -43.5t42 -16.5q17 0 40.5 14.5t35.5 26.5zM352 428q0 -3 -4.5 -8.5t-6.5 -7.5q-7 -7 -17.5 -10.5t-21.5 -3.5q-25 0 -38 12.5t-21 35.5q-22 -20 -49 -33t-57 -13q-37 0 -64 20.5t-27 60.5
q0 37 25.5 61t56.5 37q26 11 53.5 16t54.5 11q-1 20 -2 40.5t-10 38.5q-6 12 -17.5 24t-27.5 12q-25 0 -42.5 -16.5t-21.5 -40.5q-1 -4 -1 -7.5t-1 -6.5q-4 -11 -15 -11t-22.5 6.5t-11.5 19.5q0 26 22 42t51 23.5t49 7.5q50 0 80.5 -29.5t30.5 -79.5v-67v-66q0 -6 0.5 -24.5
t4 -35t11.5 -16.5q12 0 20 7t12 7q7 0 7 -6z" />
    <glyph glyph-name="guillemetleft" unicode="&#xab;" horiz-adv-x="500" 
d="M280 440l-166 -190l166 -192h-81l-155 192l156 190h80zM457 440l-168 -190l168 -192h-83l-154 192l154 190h83z" />
    <glyph glyph-name="logicalnot" unicode="&#xac;" horiz-adv-x="580" 
d="M523 126h-69v195h-404v58h473v-253z" />
    <glyph glyph-name="softhyphen" unicode="&#xad;" horiz-adv-x="750" 
d="M676 336h-601v53h601v-53z" />
    <glyph glyph-name="registered" unicode="&#xae;" horiz-adv-x="740" 
d="M445 469q0 35 -13.5 50.5t-36.5 20t-52 4.5q-7 0 -21 -2t-14 -12q0 -34 -1 -68t-1 -69q17 -3 32 -3q26 0 50.5 6.5t40.5 24t16 48.5zM566 189q0 -13 -16.5 -14.5t-25.5 -1.5q-26 0 -44 2.5t-34 27.5q-25 41 -49.5 83t-47.5 84h-41v-162q0 -8 7.5 -10t13.5 -2t12 0.5
t11 0.5q6 0 7 -4t1 -8q0 -10 -11 -10h-144q-3 0 -5.5 5t-2.5 7q0 10 10.5 10h16.5q7 0 16 1.5t9 10.5v322q0 13 -16 13h-24q-9 0 -9 12q0 8 4.5 8.5t8.5 0.5q17 0 33.5 -1t32.5 -1q25 0 49 2.5t49 2.5q28 0 58 -8t51 -27.5t21 -53.5q0 -48 -31 -71.5t-73 -31.5
q24 -40 49.5 -79t53.5 -76q8 -9 17.5 -15.5t21.5 -8.5q5 -1 13 -1t8 -7zM666 374q0 61 -23 114.5t-64 94.5t-94.5 64t-114.5 23t-114.5 -23.5t-93.5 -65t-63 -95t-23 -114.5t23 -114t64 -93.5t94.5 -63.5t114.5 -23t114.5 23t93.5 64t63 94.5t23 114.5zM692 374
q0 -67 -25 -125.5t-69.5 -103t-102.5 -70t-125 -25.5t-125 25.5t-102.5 70t-69.5 103t-25 125.5q0 66 25 125t69.5 103.5t103 70t124.5 25.5q67 0 125 -25.5t102.5 -70t69.5 -103.5t25 -125z" />
    <glyph glyph-name="macron" unicode="&#xaf;" horiz-adv-x="500" 
d="M382 675h-264v49h264v-49z" />
    <glyph glyph-name="degree" unicode="&#xb0;" horiz-adv-x="350" 
d="M236 669q0 26 -18 44.5t-43 18.5q-26 0 -43.5 -19.5t-17.5 -44.5t18 -43.5t43 -18.5q26 0 43.5 19t17.5 44zM284 668q0 -46 -32 -76t-77 -30q-46 0 -77.5 30.5t-31.5 76.5q0 47 32.5 76.5t77.5 29.5t76.5 -31t31.5 -76z" />
    <glyph glyph-name="plusminus" unicode="&#xb1;" horiz-adv-x="750" 
d="M665 48h-579v49h579v-49zM665 404h-265v-237h-50v237h-264v49h264v208h50v-208h265v-49z" />
    <glyph glyph-name="twosuperior" unicode="&#xb2;" horiz-adv-x="390" 
d="M346 478q0 -1 -1 -5t-1 -5q-1 -3 -4.5 -16.5t-8 -30t-7.5 -29l-3 -12.5v-4q-15 0 -29.5 1t-29.5 1q-38 0 -77 -1.5t-77 -1.5q-16 0 -32.5 -1t-32.5 -1q-3 0 -4.5 4t-1.5 6q0 24 11 46q15 28 43 57t59 56t55 49q22 21 38.5 48t16.5 58q0 34 -15 60.5t-54 26.5
q-82 0 -90 -84v-7.5t-1 -7.5q-1 -13 -5.5 -19t-18.5 -6q-16 0 -24.5 10t-8.5 25q0 28 16 48.5t40.5 34t52 20t50.5 6.5q31 0 60.5 -12t48.5 -35.5t19 -57.5q0 -39 -15.5 -66t-40.5 -46t-54 -35.5t-56 -34.5q-10 -7 -29.5 -23t-37 -32.5t-21.5 -27.5q-1 -2 -1 -5v-5t3 -2
q79 0 157 3q20 1 40.5 4.5t33.5 18.5q4 4 9 13t10.5 17.5t8.5 8.5q9 0 9 -9z" />
    <glyph glyph-name="threesuperior" unicode="&#xb3;" horiz-adv-x="390" 
d="M349 511q0 -53 -29 -84.5t-72.5 -45t-89.5 -13.5q-31 0 -61 9.5t-48 36.5q-10 17 -10 32q0 13 9 23.5t22 10.5q18 0 22 -19q2 -8 3 -15.5t5 -15.5q10 -23 31.5 -31t43.5 -8q53 0 80 34.5t27 83.5q0 40 -26.5 63.5t-64.5 23.5q-15 0 -30 -3t-30 -3q-10 0 -10 12q0 5 2 9.5
t7 4.5h35q44 0 69.5 22t25.5 67q0 35 -18.5 60t-56.5 25q-66 0 -84 -62q-2 -8 -2.5 -21.5t-5.5 -19.5q-5 -5 -10 -5q-16 0 -27.5 10.5t-11.5 26.5q0 11 5 21.5t12 18.5q26 29 63 39.5t74 10.5q31 0 60.5 -10t49 -32t19.5 -58q0 -26 -15.5 -46t-38.5 -33t-45 -22
q13 0 27 -1.5t26 -5.5q30 -10 49 -33.5t19 -56.5z" />
    <glyph glyph-name="acute" unicode="&#xb4;" horiz-adv-x="500" 
d="M390 725l-257 -80l-23 42l249 102z" />
    <glyph glyph-name="micro" unicode="&#xb5;" horiz-adv-x="600" 
d="M600 35q0 -12 -17.5 -19.5t-37.5 -11t-30 -3.5q-33 0 -53.5 22.5t-30.5 51.5q-33 -40 -82.5 -58t-99.5 -18q-31 0 -59.5 9.5t-48.5 34.5l-6 -86t-7 -87q-2 -24 -18 -30t-36 -6q-10 0 -25 2t-15 15q0 8 5 19.5t7 18.5q8 27 16 55t12 56q10 60 11.5 120t2.5 121l2 234
q0 12 -4.5 19t-17.5 7q-8 0 -16 -1t-16 -1q-4 0 -8 4.5t-4 7.5q0 8 3.5 10.5t10.5 3.5q25 5 52 5.5t52 2.5l18 2t18 1q7 0 10.5 -8t3.5 -14q0 -86 -2 -172t-2 -172q0 -19 1 -40t8 -39q11 -27 38.5 -38t54.5 -11q30 0 58 11.5t48 34t23 53.5q2 17 2 34v34q0 68 -1 136t-1 135
q0 10 -6.5 16t-16.5 6t-19 -1.5t-19 -1.5q-14 0 -14 14q0 7 2 9t9 3q12 3 25 3.5t26 1.5q24 2 48.5 6t49.5 4q5 0 10 -6t5 -11v-168q0 -65 -0.5 -130.5t-0.5 -130.5q0 -22 9.5 -38t34.5 -16q8 0 15.5 2t14.5 2q8 0 8 -9z" />
    <glyph glyph-name="paragraph" unicode="&#xb6;" horiz-adv-x="800" 
d="M626 765h-72v-813h-58v813h-79v-813h-56v492q-52 5 -98 22.5t-74.5 53t-28.5 95.5q0 44 21 78.5t58 58.5q29 19 69 31t74 12h244v-30z" />
    <glyph glyph-name="periodcentered" unicode="&#xb7;" horiz-adv-x="300" 
d="M229 308q0 -33 -23 -56t-56 -23t-56 23t-23 56t23 56t56 23t56 -23t23 -56z" />
    <glyph glyph-name="cedilla" unicode="&#xb8;" horiz-adv-x="500" 
d="M365 -98q0 -27 -15 -42.5t-38.5 -23t-48 -9.5t-44.5 -2q-21 0 -44 7t-43 16q-7 3 -22 12t-15 17q0 5 4.5 7t8.5 2q6 0 16 -4t17 -6q39 -11 76 -11q10 0 28.5 3t33.5 11t15 22q0 12 -10 18.5t-23 9.5t-22 3q-22 0 -45 -6.5t-43 -13.5q15 29 29 59t27 60l45 -7
q-10 -17 -20.5 -34.5t-20.5 -35.5q13 2 25.5 3t25.5 1q19 0 43 -3.5t42 -15.5t18 -37z" />
    <glyph glyph-name="onesuperior" unicode="&#xb9;" horiz-adv-x="390" 
d="M311 384q0 -10 -10 -10q-25 0 -51 0.5t-52 0.5q-23 0 -46.5 -1t-46.5 -1q-11 0 -11 9q0 8 6.5 9.5t11.5 1.5t10 -0.5t9 -0.5q11 0 23.5 7t12.5 20q0 41 0.5 82t0.5 82v174q0 6 -4 6q-19 0 -42 -13t-44 -13q-4 0 -7.5 4.5t-3.5 8.5q0 10 9 13q10 4 20 6l20 4q21 6 41.5 13
t40.5 14q5 2 14.5 6.5t14.5 4.5t6.5 -5.5t1.5 -9.5q0 -47 -0.5 -95t-0.5 -95v-183q0 -18 8.5 -23.5t24.5 -5.5q8 0 16.5 0.5t16.5 0.5q11 0 11 -11z" />
    <glyph glyph-name="ordmasculine" unicode="&#xba;" horiz-adv-x="390" 
d="M269 567q0 21 -3 46.5t-11.5 49t-25.5 38.5t-45 15q-27 0 -43 -16t-25 -40t-12 -49.5t-3 -45.5q0 -29 6 -62.5t25 -57.5t56 -24q27 0 43.5 14.5t24.5 37.5t10.5 48t2.5 46zM342 564q0 -46 -19.5 -83t-55 -59t-82.5 -22q-46 0 -80.5 22t-53.5 59.5t-19 81.5
q0 46 18.5 85.5t53.5 64.5t84 25q53 0 87 -23t50.5 -62.5t16.5 -88.5z" />
    <glyph glyph-name="guillemetright" unicode="&#xbb;" horiz-adv-x="500" 
d="M280 250l-154 -192h-83l168 192l-168 190h83zM456 250l-155 -192h-81l166 192l-166 190h80z" />
    <glyph glyph-name="onequarter" unicode="&#xbc;" 
d="M619 89h155q0 53 0.5 106t0.5 106zM358 376q0 -10 -10 -10q-25 0 -51 0.5t-52 0.5q-23 0 -46.5 -1t-46.5 -1q-11 0 -11 9q0 8 6.5 9.5t11.5 1.5t10 -0.5t9 -0.5q11 0 23.5 7t12.5 20q0 41 0.5 82t0.5 82v174q0 7 -4 7q-19 0 -42 -13t-44 -13q-4 0 -7.5 4t-3.5 8
q0 10 9 13q10 4 20.5 6t20.5 5q41 11 81 26q6 2 15 6.5t14 4.5q8 0 8 -11v-16q0 -16 0.5 -31t0.5 -31q0 -31 -1 -61t-1 -61v-177q0 -18 8.5 -23.5t24.5 -5.5q8 0 16.5 0.5t16.5 0.5q11 0 11 -11zM830 766l-643 -877l-41 31l644 876zM920 106q0 -12 -4 -23.5t-6 -23.5h-73
v-81q0 -11 8 -16.5t18 -5.5q8 0 17 1t17 1q4 0 7.5 -4t3.5 -8q0 -7 -4.5 -8.5t-9.5 -1.5q-23 0 -46 1t-46 1q-21 0 -42 -0.5t-42 -0.5q-4 0 -8 2t-4 6q0 11 12.5 11h19.5q11 0 23.5 3t12.5 18v82h-193q-2 2 -2 10q0 10 6 17q53 68 101.5 139t100.5 139q7 8 17.5 11.5
t20.5 3.5q9 0 10.5 -3t1.5 -11v-276h31q18 0 23.5 5.5t8.5 11t11 5.5q2 0 5.5 -1t3.5 -4z" />
    <glyph glyph-name="onehalf" unicode="&#xbd;" 
d="M358 376q0 -10 -10 -10q-25 0 -51 0.5t-52 0.5q-23 0 -46.5 -1t-46.5 -1q-11 0 -11 9q0 8 6.5 9.5t11.5 1.5t10 -0.5t9 -0.5q11 0 23.5 7t12.5 20q0 41 0.5 82t0.5 82v174q0 7 -4 7q-19 0 -42 -13t-44 -13q-4 0 -7.5 4t-3.5 8q0 10 9 13q10 4 20.5 6t20.5 5q41 11 81 26
q6 2 15 6.5t14 4.5q8 0 8 -11v-16q0 -16 0.5 -31t0.5 -31q0 -31 -1 -61t-1 -61v-177q0 -18 8.5 -23.5t24.5 -5.5q8 0 16.5 0.5t16.5 0.5q11 0 11 -11zM830 766l-643 -877l-41 31l644 876zM916 41q0 -3 -3.5 -15l-7 -24t-5.5 -17q-3 -10 -5 -19.5t-4 -19.5q-1 -7 -7 -7
q-13 0 -27 1t-28 1q-38 0 -77 -1.5t-77 -1.5q-16 0 -32 -1t-33 -1q-2 0 -5 4t-3 6q0 25 12 46q15 27 43 56.5t59 57t54 48.5q23 20 39.5 47t16.5 58q0 33 -15 60t-53 27q-7 0 -20 -3t-20 -5q-29 -13 -37 -38t-11 -53q-1 -14 -6.5 -19.5t-20.5 -5.5q-16 0 -25.5 9.5
t-9.5 25.5q0 29 16 49t41.5 33.5t53 19.5t51.5 6q31 0 60.5 -11.5t49 -34.5t19.5 -58q0 -39 -15.5 -66t-40.5 -46t-54 -35t-56 -34q-10 -7 -29 -23t-36 -32.5t-22 -27.5q-1 -3 -1.5 -6t-0.5 -6q0 -1 1 -1q79 0 157 3q20 1 39.5 5t33.5 19q4 4 9 13t10.5 17t10.5 8q3 0 7 -2
t4 -6z" />
    <glyph glyph-name="threequarters" unicode="&#xbe;" 
d="M619 85h155q0 53 0.5 106t0.5 106zM830 766l-643 -877l-41 31l644 876zM409 509q0 -54 -29.5 -85t-74 -44t-90.5 -13q-31 0 -62 9t-48 36q-4 8 -7.5 16t-3.5 16q0 14 10 24t24 10q19 0 23 -19q2 -8 3.5 -16t4.5 -16q11 -22 31.5 -30t42.5 -8q51 0 77.5 35t26.5 83
q0 39 -25.5 62.5t-63.5 23.5q-15 0 -29.5 -3t-29.5 -3q-12 0 -12 12q0 5 2.5 10t8.5 5h35q42 0 67.5 22.5t25.5 65.5q0 35 -18.5 59.5t-55.5 24.5q-31 0 -52 -16t-29 -46q-2 -7 -2.5 -13.5t-1.5 -13.5t-5 -12.5t-12 -5.5q-16 0 -28.5 10t-12.5 26q0 11 5 21.5t12 18.5
q26 29 64.5 40t75.5 11q31 0 61 -10t49.5 -32t19.5 -58q0 -26 -15 -46t-37.5 -33.5t-45.5 -20.5q30 -2 58 -11.5t45.5 -30t17.5 -55.5zM920 102q0 -12 -4 -23.5t-6 -23.5h-73v-81q0 -11 8 -16.5t18 -5.5q8 0 17 1t17 1q4 0 7.5 -4t3.5 -8q0 -7 -4.5 -8.5t-9.5 -1.5
q-23 0 -46 1t-46 1q-21 0 -42 -0.5t-42 -0.5q-4 0 -8 2t-4 6q0 11 12.5 11h19.5q11 0 23.5 3t12.5 18v82h-193q-2 2 -2 10q0 10 6 17q53 68 101.5 139t100.5 139q7 8 17.5 11.5t20.5 3.5q9 0 10.5 -3t1.5 -11v-276h31q18 0 23.5 5.5t8.5 11t11 5.5q2 0 5.5 -1t3.5 -4z" />
    <glyph glyph-name="questiondown" unicode="&#xbf;" horiz-adv-x="560" 
d="M501 -25q0 -18 -6 -36.5t-15 -33.5q-31 -58 -86.5 -85.5t-120.5 -27.5q-52 0 -101 17t-81 54.5t-32 96.5q0 37 19.5 72.5t47.5 58.5q23 18 47.5 33t43.5 36q26 26 36.5 54.5t10.5 65.5v28.5v29.5h48q0 -18 0.5 -36t0.5 -37q0 -38 -7 -65.5t-23 -51t-43 -50.5
q-35 -35 -53 -72.5t-18 -87.5q0 -55 25.5 -86t82.5 -31q34 0 63 10t47 33.5t18 61.5q0 14 -5 27t-5 27q0 27 17.5 40t42.5 13q27 0 36.5 -17t9.5 -41zM359 475q0 -32 -23.5 -52.5t-54.5 -20.5t-54.5 20.5t-23.5 52.5t23.5 52.5t54.5 20.5t54.5 -20.5t23.5 -52.5z" />
    <glyph glyph-name="Agrave" unicode="&#xc0;" horiz-adv-x="774" 
d="M473 296q-31 86 -61 172t-61 171q-30 -85 -60 -171t-59 -172h241zM769 14q0 -16 -15 -16q-10 0 -21.5 0.5t-22.5 1.5q-22 1 -44.5 1h-45.5h-22.5h-23.5q-22 0 -45 -2.5t-46 -2.5q-7 0 -10 7.5t-3 13.5q0 5 5 9t9 4l49 -1q8 0 17 3.5t9 13.5q0 2 -6.5 22.5t-16.5 49.5
t-21 58.5t-19 52t-11 29.5h-263q-3 -9 -11.5 -32t-19.5 -52t-21 -57.5t-16.5 -49t-6.5 -25.5q0 -13 14.5 -16t23.5 -3q11 0 21.5 1.5t20.5 1.5q9 0 10.5 -6.5t1.5 -13.5q-2 -6 -7 -7t-10 -1q-29 0 -59 0.5t-59 0.5q-22 0 -43.5 -1t-42.5 -1q-15 0 -15 16q0 9 9 11t20.5 1.5
t16.5 -0.5q14 0 23 8t15 19q4 9 19.5 48t37.5 98t47 127.5t49.5 136t44.5 124.5t32 94t12 42q0 2 -1.5 4.5t-1.5 4.5q0 3 3 4q23 5 49 6.5t49 4.5l260 -697q3 -8 12.5 -13.5t18.5 -5.5t17.5 0.5t17.5 0.5q11 0 13.5 -3.5t2.5 -13.5zM527 829l-14 -49l-266 52l19 72z" />
    <glyph glyph-name="Aacute" unicode="&#xc1;" horiz-adv-x="774" 
d="M473 296q-31 86 -61 172t-61 171q-30 -85 -60 -171t-59 -172h241zM769 14q0 -16 -15 -16q-10 0 -21.5 0.5t-22.5 1.5q-22 1 -44.5 1h-45.5h-22.5h-23.5q-22 0 -45 -2.5t-46 -2.5q-7 0 -10 7.5t-3 13.5q0 5 5 9t9 4l49 -1q8 0 17 3.5t9 13.5q0 2 -6.5 22.5t-16.5 49.5
t-21 58.5t-19 52t-11 29.5h-263q-3 -9 -11.5 -32t-19.5 -52t-21 -57.5t-16.5 -49t-6.5 -25.5q0 -13 14.5 -16t23.5 -3q11 0 21.5 1.5t20.5 1.5q9 0 10.5 -6.5t1.5 -13.5q-2 -6 -7 -7t-10 -1q-29 0 -59 0.5t-59 0.5q-22 0 -43.5 -1t-42.5 -1q-15 0 -15 16q0 9 9 11t20.5 1.5
t16.5 -0.5q14 0 23 8t15 19q4 9 19.5 48t37.5 98t47 127.5t49.5 136t44.5 124.5t32 94t12 42q0 2 -1.5 4.5t-1.5 4.5q0 3 3 4q23 5 49 6.5t49 4.5l260 -697q3 -8 12.5 -13.5t18.5 -5.5t17.5 0.5t17.5 0.5q11 0 13.5 -3.5t2.5 -13.5zM527 834l-266 -52l-14 48l261 76z" />
    <glyph glyph-name="Acircumflex" unicode="&#xc2;" horiz-adv-x="774" 
d="M473 296q-31 86 -61 172t-61 171q-30 -85 -60 -171t-59 -172h241zM769 14q0 -16 -15 -16q-10 0 -21.5 0.5t-22.5 1.5q-22 1 -44.5 1h-45.5h-22.5h-23.5q-22 0 -45 -2.5t-46 -2.5q-7 0 -10 7.5t-3 13.5q0 5 5 9t9 4l49 -1q8 0 17 3.5t9 13.5q0 2 -6.5 22.5t-16.5 49.5
t-21 58.5t-19 52t-11 29.5h-263q-3 -9 -11.5 -32t-19.5 -52t-21 -57.5t-16.5 -49t-6.5 -25.5q0 -13 14.5 -16t23.5 -3q11 0 21.5 1.5t20.5 1.5q9 0 10.5 -6.5t1.5 -13.5q-2 -6 -7 -7t-10 -1q-29 0 -59 0.5t-59 0.5q-22 0 -43.5 -1t-42.5 -1q-15 0 -15 16q0 9 9 11t20.5 1.5
t16.5 -0.5q14 0 23 8t15 19q4 9 19.5 48t37.5 98t47 127.5t49.5 136t44.5 124.5t32 94t12 42q0 2 -1.5 4.5t-1.5 4.5q0 3 3 4q23 5 49 6.5t49 4.5l260 -697q3 -8 12.5 -13.5t18.5 -5.5t17.5 0.5t17.5 0.5q11 0 13.5 -3.5t2.5 -13.5zM561 821l-8 -41l-168 54l-162 -52l-10 41
l174 80z" />
    <glyph glyph-name="Atilde" unicode="&#xc3;" horiz-adv-x="774" 
d="M473 296q-31 86 -61 172t-61 171q-30 -85 -60 -171t-59 -172h241zM769 14q0 -16 -15 -16q-10 0 -21.5 0.5t-22.5 1.5q-22 1 -44.5 1h-45.5h-22.5h-23.5q-22 0 -45 -2.5t-46 -2.5q-7 0 -10 7.5t-3 13.5q0 5 5 9t9 4l49 -1q8 0 17 3.5t9 13.5q0 2 -6.5 22.5t-16.5 49.5
t-21 58.5t-19 52t-11 29.5h-263q-3 -9 -11.5 -32t-19.5 -52t-21 -57.5t-16.5 -49t-6.5 -25.5q0 -13 14.5 -16t23.5 -3q11 0 21.5 1.5t20.5 1.5q9 0 10.5 -6.5t1.5 -13.5q-2 -6 -7 -7t-10 -1q-29 0 -59 0.5t-59 0.5q-22 0 -43.5 -1t-42.5 -1q-15 0 -15 16q0 9 9 11t20.5 1.5
t16.5 -0.5q14 0 23 8t15 19q4 9 19.5 48t37.5 98t47 127.5t49.5 136t44.5 124.5t32 94t12 42q0 2 -1.5 4.5t-1.5 4.5q0 3 3 4q23 5 49 6.5t49 4.5l260 -697q3 -8 12.5 -13.5t18.5 -5.5t17.5 0.5t17.5 0.5q11 0 13.5 -3.5t2.5 -13.5zM548 865q-22 -24 -43 -46.5t-58 -22.5
q-25 0 -47.5 11t-42 22t-37.5 11q-19 0 -36.5 -17t-28.5 -31l-29 20q21 30 45.5 56.5t65.5 26.5q24 0 44.5 -10.5t40.5 -21t42 -10.5q19 0 33 13t26 26z" />
    <glyph glyph-name="Adieresis" unicode="&#xc4;" horiz-adv-x="774" 
d="M473 296q-31 86 -61 172t-61 171q-30 -85 -60 -171t-59 -172h241zM769 14q0 -16 -15 -16q-10 0 -21.5 0.5t-22.5 1.5q-22 1 -44.5 1h-45.5h-22.5h-23.5q-22 0 -45 -2.5t-46 -2.5q-7 0 -10 7.5t-3 13.5q0 5 5 9t9 4l49 -1q8 0 17 3.5t9 13.5q0 2 -6.5 22.5t-16.5 49.5
t-21 58.5t-19 52t-11 29.5h-263q-3 -9 -11.5 -32t-19.5 -52t-21 -57.5t-16.5 -49t-6.5 -25.5q0 -13 14.5 -16t23.5 -3q11 0 21.5 1.5t20.5 1.5q9 0 10.5 -6.5t1.5 -13.5q-2 -6 -7 -7t-10 -1q-29 0 -59 0.5t-59 0.5q-22 0 -43.5 -1t-42.5 -1q-15 0 -15 16q0 9 9 11t20.5 1.5
t16.5 -0.5q14 0 23 8t15 19q4 9 19.5 48t37.5 98t47 127.5t49.5 136t44.5 124.5t32 94t12 42q0 2 -1.5 4.5t-1.5 4.5q0 3 3 4q23 5 49 6.5t49 4.5l260 -697q3 -8 12.5 -13.5t18.5 -5.5t17.5 0.5t17.5 0.5q11 0 13.5 -3.5t2.5 -13.5zM332 840q0 -25 -17.5 -41t-41.5 -16
t-41 16t-17 41q0 24 17 40t41 16t41.5 -16t17.5 -40zM559 840q0 -25 -17 -41t-41 -16t-41.5 16t-17.5 41q0 24 17.5 40t41.5 16t41 -16t17 -40z" />
    <glyph glyph-name="Aring" unicode="&#xc5;" horiz-adv-x="774" 
d="M473 296q-31 86 -61 172t-61 171q-30 -85 -60 -171t-59 -172h241zM432 855q0 18 -14 30.5t-31 12.5q-18 0 -31.5 -13t-13.5 -31t13.5 -30.5t31.5 -12.5t31.5 12.5t13.5 31.5zM769 14q0 -16 -15 -16q-10 0 -21.5 0.5t-22.5 1.5q-22 1 -44.5 1h-45.5h-22.5h-23.5
q-22 0 -45 -2.5t-46 -2.5q-7 0 -10 7.5t-3 13.5q0 5 5 9t9 4l49 -1q8 0 17 3.5t9 13.5q0 2 -6.5 22.5t-16.5 49.5t-21 58.5t-19 52t-11 29.5h-263q-3 -9 -11.5 -32t-19.5 -52t-21 -57.5t-16.5 -49t-6.5 -25.5q0 -13 14.5 -16t23.5 -3q11 0 21.5 1.5t20.5 1.5q9 0 10.5 -6.5
t1.5 -13.5q-2 -6 -7 -7t-10 -1q-29 0 -59 0.5t-59 0.5q-22 0 -43.5 -1t-42.5 -1q-15 0 -15 16q0 9 9 11t20.5 1.5t16.5 -0.5q14 0 23 8t15 19q4 9 19.5 48t37.5 98t47 127.5t49.5 136t44.5 124.5t32 94t12 42q0 2 -1.5 4.5t-1.5 4.5q0 3 3 4q23 5 49 6.5t49 4.5l260 -697
q3 -8 12.5 -13.5t18.5 -5.5t17.5 0.5t17.5 0.5q11 0 13.5 -3.5t2.5 -13.5zM479 854q0 -38 -28.5 -60.5t-63.5 -22.5q-36 0 -64 23t-28 61t28.5 60t64.5 22q35 0 63 -23t28 -60z" />
    <glyph glyph-name="AE" unicode="&#xc6;" horiz-adv-x="930" 
d="M449 368v298q0 9 -8.5 13t-14.5 5q-37 -79 -74.5 -157.5t-74.5 -158.5h172zM875 177q0 -19 -3.5 -37t-6.5 -37t-4 -40.5t-5 -40.5q-4 -18 -22 -18q-82 0 -165 1.5t-166 1.5q-33 0 -65.5 -2.5t-65.5 -2.5q-5 0 -12 4t-7 10q0 8 5.5 14t12.5 6q20 0 38 2t29.5 12.5
t11.5 35.5l-1 244h-190q-4 -10 -18.5 -40.5t-33 -71t-36.5 -79t-29.5 -65.5t-11.5 -29q0 -13 14.5 -15.5t24.5 -2.5t20 1.5t20 1.5q9 0 10.5 -7t1.5 -14q0 -5 -6.5 -6t-10.5 -1q-31 0 -61 0.5t-61 0.5q-20 0 -40.5 -1t-41.5 -1q-15 0 -15 15q0 9 8 11t15 2q6 0 11.5 -0.5
t10.5 -0.5q14 0 24 9t17 20q5 8 9 16l8 16q74 149 145.5 298t141.5 300q-9 -1 -18.5 -1h-18.5q-10 0 -19 5t-9 16q0 8 7 14t14 6q26 0 52 -1t51 -1h135q47 0 92.5 1.5t91.5 1.5q48 0 96 3q4 -29 9.5 -58.5t10.5 -59.5q2 -5 3 -11t1 -12q0 -12 -8.5 -16t-19.5 -4t-15.5 3.5
t-8.5 13.5q-19 59 -48.5 81.5t-91.5 22.5h-123v-293q32 0 64 0.5t63 4.5q25 3 49 9q11 2 26 6t26 4q4 0 9 -2t5 -7q0 -3 -3 -13.5t-7 -21t-6 -14.5q-7 -12 -21 -12q-8 0 -16.5 0.5t-16.5 1.5q-28 3 -57 4t-58 1q-22 0 -39.5 -7.5t-17.5 -34.5v-235q0 -28 12 -35t37 -7h85
q23 0 36.5 3t29.5 18q29 28 44 56t34 62q7 12 20 12q7 0 13 -3t6 -11z" />
    <glyph glyph-name="Ccedilla" unicode="&#xc7;" horiz-adv-x="725" 
d="M706 192q0 -11 -6 -23q-13 -31 -41 -60.5t-57 -47.5q-46 -30 -97.5 -42.5t-106.5 -12.5q-13 0 -25.5 0.5t-25.5 1.5q-8 -13 -16.5 -27t-16.5 -28q13 2 26 3t26 1q19 0 43 -3.5t42 -15.5t18 -37q0 -27 -15 -42.5t-38.5 -23t-48 -9.5t-44.5 -2q-21 0 -44.5 7t-42.5 16
q-7 3 -22 12t-15 17q0 5 4.5 7t8.5 2q7 0 16.5 -4t16.5 -6q19 -5 38 -8t38 -3q10 0 28.5 3t33.5 11t15 22q0 12 -10 18.5t-23 9.5t-22 3q-22 0 -45 -6.5t-43 -13.5q13 26 25 52t24 53q-85 19 -142.5 69t-86 122.5t-28.5 156.5q0 106 41.5 191t120.5 135t189 50q44 0 79 -12
t75 -26q22 -8 44.5 -11t45.5 -5q0 -22 2 -44.5t6 -44.5q3 -20 8 -40.5t5 -41.5q0 -37 -38 -37q-9 0 -13 2t-8 10q-4 10 -6.5 21.5t-4.5 21.5q-8 32 -27 68.5t-45 58.5q-13 10 -35.5 20.5t-46 18t-39.5 7.5q-28 0 -58 -11.5t-53 -28.5q-45 -34 -71.5 -83t-38 -104.5
t-11.5 -110.5q0 -58 13.5 -115t43 -102.5t76.5 -73t114 -27.5q28 0 63 8.5t60 18.5q30 12 56 33t46 46q6 7 12 14.5t10 15.5q2 4 4 7.5t5 6.5q6 6 17 6q6 0 12 -3.5t6 -10.5z" />
    <glyph glyph-name="Egrave" unicode="&#xc8;" horiz-adv-x="674" 
d="M649 174q0 -18 -3.5 -36.5t-6.5 -36.5q-2 -20 -3 -40.5t-6 -40.5q-1 -7 -7.5 -13t-14.5 -6q-107 0 -214 1.5t-214 1.5q-33 0 -65.5 -2.5t-64.5 -2.5q-6 0 -13 3.5t-7 10.5q0 13 10 17t24.5 4t28.5 2t24 12.5t10 35.5l-1 569q0 23 -13 29.5t-32 6.5q-8 0 -16.5 -0.5
t-16.5 -0.5q-10 0 -18 4t-8 15q0 22 21 22q17 0 34 -1t34 -1q101 0 201.5 1.5t201.5 1.5q48 0 96 3q4 -29 10 -58.5t10 -59.5q2 -5 3 -11t1 -11q0 -12 -8.5 -16.5t-19.5 -4.5q-10 0 -15 3.5t-9 13.5q-17 58 -48 81t-92 23h-202v-294q38 1 75 1.5t74 2.5q39 2 76 7.5t75 12.5
h1.5h1.5q3 0 8.5 -2t5.5 -6q0 -7 -6.5 -25t-9.5 -24q-7 -13 -21 -13q-8 0 -16.5 0.5t-16.5 1.5q-18 2 -36 3l-36 2h-49h-49q-14 0 -32.5 -2t-31.5 -11t-13 -29v-239q0 -29 12.5 -35.5t37.5 -6.5h87q27 0 60.5 3t65 12t51.5 28q21 20 32.5 46t23.5 51q5 11 20 11q7 0 13 -3
t6 -11zM477 829l-14 -49l-266 52l19 72z" />
    <glyph glyph-name="Eacute" unicode="&#xc9;" horiz-adv-x="674" 
d="M649 174q0 -18 -3.5 -36.5t-6.5 -36.5q-2 -20 -3 -40.5t-6 -40.5q-1 -7 -7.5 -13t-14.5 -6q-107 0 -214 1.5t-214 1.5q-33 0 -65.5 -2.5t-64.5 -2.5q-6 0 -13 3.5t-7 10.5q0 13 10 17t24.5 4t28.5 2t24 12.5t10 35.5l-1 569q0 23 -13 29.5t-32 6.5q-8 0 -16.5 -0.5
t-16.5 -0.5q-10 0 -18 4t-8 15q0 22 21 22q17 0 34 -1t34 -1q101 0 201.5 1.5t201.5 1.5q48 0 96 3q4 -29 10 -58.5t10 -59.5q2 -5 3 -11t1 -11q0 -12 -8.5 -16.5t-19.5 -4.5q-10 0 -15 3.5t-9 13.5q-17 58 -48 81t-92 23h-202v-294q38 1 75 1.5t74 2.5q39 2 76 7.5t75 12.5
h1.5h1.5q3 0 8.5 -2t5.5 -6q0 -7 -6.5 -25t-9.5 -24q-7 -13 -21 -13q-8 0 -16.5 0.5t-16.5 1.5q-18 2 -36 3l-36 2h-49h-49q-14 0 -32.5 -2t-31.5 -11t-13 -29v-239q0 -29 12.5 -35.5t37.5 -6.5h87q27 0 60.5 3t65 12t51.5 28q21 20 32.5 46t23.5 51q5 11 20 11q7 0 13 -3
t6 -11zM477 831l-266 -52l-14 48l261 76z" />
    <glyph glyph-name="Ecircumflex" unicode="&#xca;" horiz-adv-x="674" 
d="M649 174q0 -18 -3.5 -36.5t-6.5 -36.5q-2 -20 -3 -40.5t-6 -40.5q-1 -7 -7.5 -13t-14.5 -6q-107 0 -214 1.5t-214 1.5q-33 0 -65.5 -2.5t-64.5 -2.5q-6 0 -13 3.5t-7 10.5q0 13 10 17t24.5 4t28.5 2t24 12.5t10 35.5l-1 569q0 23 -13 29.5t-32 6.5q-8 0 -16.5 -0.5
t-16.5 -0.5q-10 0 -18 4t-8 15q0 22 21 22q17 0 34 -1t34 -1q101 0 201.5 1.5t201.5 1.5q48 0 96 3q4 -29 10 -58.5t10 -59.5q2 -5 3 -11t1 -11q0 -12 -8.5 -16.5t-19.5 -4.5q-10 0 -15 3.5t-9 13.5q-17 58 -48 81t-92 23h-202v-294q38 1 75 1.5t74 2.5q39 2 76 7.5t75 12.5
h1.5h1.5q3 0 8.5 -2t5.5 -6q0 -7 -6.5 -25t-9.5 -24q-7 -13 -21 -13q-8 0 -16.5 0.5t-16.5 1.5q-18 2 -36 3l-36 2h-49h-49q-14 0 -32.5 -2t-31.5 -11t-13 -29v-239q0 -29 12.5 -35.5t37.5 -6.5h87q27 0 60.5 3t65 12t51.5 28q21 20 32.5 46t23.5 51q5 11 20 11q7 0 13 -3
t6 -11zM511 821l-8 -41l-168 54l-162 -52l-10 41l174 80z" />
    <glyph glyph-name="Edieresis" unicode="&#xcb;" horiz-adv-x="674" 
d="M649 174q0 -18 -3.5 -36.5t-6.5 -36.5q-2 -20 -3 -40.5t-6 -40.5q-1 -7 -7.5 -13t-14.5 -6q-107 0 -214 1.5t-214 1.5q-33 0 -65.5 -2.5t-64.5 -2.5q-6 0 -13 3.5t-7 10.5q0 13 10 17t24.5 4t28.5 2t24 12.5t10 35.5l-1 569q0 23 -13 29.5t-32 6.5q-8 0 -16.5 -0.5
t-16.5 -0.5q-10 0 -18 4t-8 15q0 22 21 22q17 0 34 -1t34 -1q101 0 201.5 1.5t201.5 1.5q48 0 96 3q4 -29 10 -58.5t10 -59.5q2 -5 3 -11t1 -11q0 -12 -8.5 -16.5t-19.5 -4.5q-10 0 -15 3.5t-9 13.5q-17 58 -48 81t-92 23h-202v-294q38 1 75 1.5t74 2.5q39 2 76 7.5t75 12.5
h1.5h1.5q3 0 8.5 -2t5.5 -6q0 -7 -6.5 -25t-9.5 -24q-7 -13 -21 -13q-8 0 -16.5 0.5t-16.5 1.5q-18 2 -36 3l-36 2h-49h-49q-14 0 -32.5 -2t-31.5 -11t-13 -29v-239q0 -29 12.5 -35.5t37.5 -6.5h87q27 0 60.5 3t65 12t51.5 28q21 20 32.5 46t23.5 51q5 11 20 11q7 0 13 -3
t6 -11zM282 837q0 -25 -17.5 -41t-41.5 -16t-41 16t-17 41q0 24 17 40t41 16t41.5 -16t17.5 -40zM509 837q0 -25 -17 -41t-41 -16t-41.5 16t-17.5 41q0 24 17.5 40t41.5 16t41 -16t17 -40z" />
    <glyph glyph-name="Igrave" unicode="&#xcc;" horiz-adv-x="413" 
d="M356 720q0 -18 -16 -18q-11 0 -22 0.5t-22 0.5q-10 0 -21.5 -7.5t-11.5 -19.5v-622q0 -12 10 -17.5t20 -5.5q11 0 22.5 0.5t22.5 0.5q16 0 16 -14q0 -8 -2 -13.5t-11 -5.5q-35 0 -70.5 2.5t-71.5 2.5q-16 0 -33 -0.5t-34 -1.5t-34.5 -3t-34.5 -2q-6 0 -10 5.5t-4 11.5
q0 7 4.5 12t11.5 5q11 0 22.5 -0.5t23.5 -0.5q10 0 24 5.5t14 18.5v623q0 18 -16 22.5t-35.5 3.5t-30.5 -1q-14 0 -14 16q0 8 1.5 13t11.5 5q32 0 64.5 -2t64.5 -2h45.5t44.5 1q14 0 28.5 1.5t27.5 1.5q7 0 11 -5t4 -11zM346 829l-13 -49l-266 52l18 72z" />
    <glyph glyph-name="Iacute" unicode="&#xcd;" horiz-adv-x="413" 
d="M356 720q0 -18 -16 -18q-11 0 -22 0.5t-22 0.5q-10 0 -21.5 -7.5t-11.5 -19.5v-622q0 -12 10 -17.5t20 -5.5q11 0 22.5 0.5t22.5 0.5q16 0 16 -14q0 -8 -2 -13.5t-11 -5.5q-35 0 -70.5 2.5t-71.5 2.5q-16 0 -33 -0.5t-34 -1.5t-34.5 -3t-34.5 -2q-6 0 -10 5.5t-4 11.5
q0 7 4.5 12t11.5 5q11 0 22.5 -0.5t23.5 -0.5q10 0 24 5.5t14 18.5v623q0 18 -16 22.5t-35.5 3.5t-30.5 -1q-14 0 -14 16q0 8 1.5 13t11.5 5q32 0 64.5 -2t64.5 -2h45.5t44.5 1q14 0 28.5 1.5t27.5 1.5q7 0 11 -5t4 -11zM344 831l-266 -52l-14 48l261 76z" />
    <glyph glyph-name="Icircumflex" unicode="&#xce;" horiz-adv-x="413" 
d="M356 720q0 -18 -16 -18q-11 0 -22 0.5t-22 0.5q-10 0 -21.5 -7.5t-11.5 -19.5v-622q0 -12 10 -17.5t20 -5.5q11 0 22.5 0.5t22.5 0.5q16 0 16 -14q0 -8 -2 -13.5t-11 -5.5q-35 0 -70.5 2.5t-71.5 2.5q-16 0 -33 -0.5t-34 -1.5t-34.5 -3t-34.5 -2q-6 0 -10 5.5t-4 11.5
q0 7 4.5 12t11.5 5q11 0 22.5 -0.5t23.5 -0.5q10 0 24 5.5t14 18.5v623q0 18 -16 22.5t-35.5 3.5t-30.5 -1q-14 0 -14 16q0 8 1.5 13t11.5 5q32 0 64.5 -2t64.5 -2h45.5t44.5 1q14 0 28.5 1.5t27.5 1.5q7 0 11 -5t4 -11zM381 825l-9 -41l-167 53l-163 -52l-10 41l175 80z
" />
    <glyph glyph-name="Idieresis" unicode="&#xcf;" horiz-adv-x="413" 
d="M356 720q0 -18 -16 -18q-11 0 -22 0.5t-22 0.5q-10 0 -21.5 -7.5t-11.5 -19.5v-622q0 -12 10 -17.5t20 -5.5q11 0 22.5 0.5t22.5 0.5q16 0 16 -14q0 -8 -2 -13.5t-11 -5.5q-35 0 -70.5 2.5t-71.5 2.5q-16 0 -33 -0.5t-34 -1.5t-34.5 -3t-34.5 -2q-6 0 -10 5.5t-4 11.5
q0 7 4.5 12t11.5 5q11 0 22.5 -0.5t23.5 -0.5q10 0 24 5.5t14 18.5v623q0 18 -16 22.5t-35.5 3.5t-30.5 -1q-14 0 -14 16q0 8 1.5 13t11.5 5q32 0 64.5 -2t64.5 -2h45.5t44.5 1q14 0 28.5 1.5t27.5 1.5q7 0 11 -5t4 -11zM152 839q0 -25 -17.5 -41t-41.5 -16t-41.5 16
t-17.5 41q0 24 17.5 40t41.5 16t41.5 -16t17.5 -40zM379 839q0 -25 -17.5 -41t-41.5 -16t-41.5 16t-17.5 41q0 24 17.5 40t41.5 16t41.5 -16t17.5 -40z" />
    <glyph glyph-name="Eth" unicode="&#xd0;" horiz-adv-x="821" 
d="M658 378q0 41 -8 87t-26 88.5t-48 71.5q-27 27 -64.5 46.5t-75.5 23.5q-11 2 -23 2h-24q-74 0 -149 -3v-291h104v-47h-104v-271q0 -28 17.5 -37t41.5 -9q39 0 80.5 3t81.5 14t72 35q69 51 97 128t28 159zM781 392q0 -99 -42 -187.5t-128 -141.5q-35 -22 -81.5 -35.5
t-94.5 -20t-90 -6.5q-36 0 -72.5 2.5t-73.5 2.5q-29 0 -58.5 -1t-58.5 -3q-5 0 -10.5 -0.5t-10.5 -0.5q-7 0 -11 5.5t-4 11.5q0 7 10.5 10t23.5 5.5t18 5.5q17 8 22.5 25.5t5.5 34.5q0 54 0.5 108.5t0.5 109.5v39h-93v47h93v24q0 37 -0.5 74t-0.5 74q0 19 1 38t-1 38
q-1 14 -6.5 25.5t-21.5 15.5q-11 2 -25.5 1.5t-26.5 -0.5q-8 0 -15.5 4t-7.5 14q0 18 21 18q23 0 46 -2t46 -2q74 0 148.5 5t148.5 5q108 0 186 -41t120 -117.5t42 -184.5z" />
    <glyph glyph-name="Ntilde" unicode="&#xd1;" horiz-adv-x="780" 
d="M772 721q0 -13 -8.5 -16.5t-20 -3t-20.5 0.5q-25 0 -33.5 -5.5t-9 -18t-0.5 -33.5v-632q0 -4 -4.5 -8t-9.5 -4h-51q-4 23 -14.5 45t-24.5 40q-105 138 -210 275.5t-207 276.5v-291v-292q0 -17 14.5 -21t27.5 -4q11 0 21 1t20 1q14 0 14 -16q0 -10 -4 -14.5t-15 -4.5
q-10 0 -19 1.5t-19 2.5q-16 1 -32 1h-33q-26 0 -52.5 -2.5t-52.5 -2.5q-9 0 -11.5 4t-2.5 11q0 11 4 15t15 4q10 0 19 -0.5t18 -0.5q14 0 24.5 4t11.5 21q2 19 1.5 38.5t-0.5 38.5l-1 121q0 104 2 208.5t2 209.5q0 23 -15.5 28t-33.5 5q-7 0 -14 -1t-14 -1t-13 3.5t-6 10.5
q0 20 18 20q26 0 52 -1.5t51 -1.5q20 0 39.5 0.5t38.5 0.5q38 -50 77 -98.5t78 -96.5l130 -160t131 -159l1 96q0 91 -0.5 182t-0.5 182q0 12 -9 17.5t-20 5.5q-14 0 -27.5 -1t-27.5 -1q-6 0 -9.5 5.5t-3.5 10.5q0 11 2.5 14.5t14.5 3.5q26 0 53 -1t53 -1t52.5 1.5t52.5 1.5
q11 0 11 -15zM550 862q-22 -24 -43.5 -46.5t-57.5 -22.5q-25 0 -48 11t-42.5 22t-36.5 11q-19 0 -37 -17t-29 -31l-29 20q22 30 46.5 56.5t64.5 26.5q24 0 44.5 -10.5l41 -21t42.5 -10.5q18 0 32.5 13t25.5 26z" />
    <glyph glyph-name="Ograve" unicode="&#xd2;" horiz-adv-x="820" 
d="M641 372q0 55 -12 113t-39 107.5t-72 80.5t-111 31q-65 0 -110 -32t-72.5 -83t-39.5 -109.5t-12 -112.5q0 -56 11 -115t37.5 -109t72 -81t113.5 -31q69 0 114 31.5t71.5 82.5t37.5 111t11 116zM764 377q0 -111 -41 -197t-120.5 -135t-195.5 -49q-112 0 -192 47
t-122.5 131t-42.5 194q0 78 25.5 145.5t73 119t113 80.5t145.5 29q112 0 192 -45.5t122.5 -127.5t42.5 -192zM550 829l-14 -49l-266 52l19 72z" />
    <glyph glyph-name="Oacute" unicode="&#xd3;" horiz-adv-x="820" 
d="M641 372q0 55 -12 113t-39 107.5t-72 80.5t-111 31q-65 0 -110 -32t-72.5 -83t-39.5 -109.5t-12 -112.5q0 -56 11 -115t37.5 -109t72 -81t113.5 -31q69 0 114 31.5t71.5 82.5t37.5 111t11 116zM764 377q0 -111 -41 -197t-120.5 -135t-195.5 -49q-112 0 -192 47
t-122.5 131t-42.5 194q0 78 25.5 145.5t73 119t113 80.5t145.5 29q112 0 192 -45.5t122.5 -127.5t42.5 -192zM550 831l-266 -52l-14 48l261 76z" />
    <glyph glyph-name="Ocircumflex" unicode="&#xd4;" horiz-adv-x="820" 
d="M641 372q0 55 -12 113t-39 107.5t-72 80.5t-111 31q-65 0 -110 -32t-72.5 -83t-39.5 -109.5t-12 -112.5q0 -56 11 -115t37.5 -109t72 -81t113.5 -31q69 0 114 31.5t71.5 82.5t37.5 111t11 116zM764 377q0 -111 -41 -197t-120.5 -135t-195.5 -49q-112 0 -192 47
t-122.5 131t-42.5 194q0 78 25.5 145.5t73 119t113 80.5t145.5 29q112 0 192 -45.5t122.5 -127.5t42.5 -192zM584 819l-8 -41l-168 54l-162 -52l-10 41l174 80z" />
    <glyph glyph-name="Otilde" unicode="&#xd5;" horiz-adv-x="820" 
d="M641 372q0 55 -12 113t-39 107.5t-72 80.5t-111 31q-65 0 -110 -32t-72.5 -83t-39.5 -109.5t-12 -112.5q0 -56 11 -115t37.5 -109t72 -81t113.5 -31q69 0 114 31.5t71.5 82.5t37.5 111t11 116zM764 377q0 -111 -41 -197t-120.5 -135t-195.5 -49q-112 0 -192 47
t-122.5 131t-42.5 194q0 78 25.5 145.5t73 119t113 80.5t145.5 29q112 0 192 -45.5t122.5 -127.5t42.5 -192zM571 864q-22 -24 -43 -46.5t-58 -22.5q-25 0 -47.5 11t-42 22t-37.5 11q-19 0 -36.5 -17t-28.5 -31l-29 20q21 30 45.5 56.5t65.5 26.5q24 0 44.5 -10.5t40.5 -21
t42 -10.5q19 0 33 13t26 26z" />
    <glyph glyph-name="Odieresis" unicode="&#xd6;" horiz-adv-x="820" 
d="M641 372q0 55 -12 113t-39 107.5t-72 80.5t-111 31q-65 0 -110 -32t-72.5 -83t-39.5 -109.5t-12 -112.5q0 -56 11 -115t37.5 -109t72 -81t113.5 -31q69 0 114 31.5t71.5 82.5t37.5 111t11 116zM764 377q0 -111 -41 -197t-120.5 -135t-195.5 -49q-112 0 -192 47
t-122.5 131t-42.5 194q0 78 25.5 145.5t73 119t113 80.5t145.5 29q112 0 192 -45.5t122.5 -127.5t42.5 -192zM355 839q0 -25 -17.5 -41t-41.5 -16t-41 16t-17 41q0 24 17 40t41 16t41.5 -16t17.5 -40zM582 839q0 -25 -17 -41t-41 -16t-41.5 16t-17.5 41q0 24 17.5 40
t41.5 16t41 -16t17 -40z" />
    <glyph glyph-name="multiply" unicode="&#xd7;" horiz-adv-x="750" 
d="M637 140l-36 -37l-224 221l-228 -225l-36 38l228 226l-221 217l36 37l220 -219l219 217l38 -38l-219 -216z" />
    <glyph glyph-name="Oslash" unicode="&#xd8;" horiz-adv-x="820" 
d="M652 372q0 47 -7 93.5t-24 89.5l-393 -405q30 -54 78.5 -83t110.5 -29q68 0 113.5 30.5t72 80t38 108.5t11.5 115zM597 603q-30 50 -75.5 77t-104.5 27q-65 0 -110.5 -32t-73.5 -84t-40.5 -111t-12.5 -113q0 -43 6.5 -87t21.5 -85zM774 714l-84 -87q44 -52 63 -117.5
t19 -133.5q0 -111 -41 -195t-120 -130.5t-194 -46.5q-67 0 -131.5 19.5t-115.5 65.5l-90 -91l-34 26l93 98q-43 52 -60.5 115.5t-17.5 129.5q0 78 25.5 145.5t72.5 119t112.5 80t145.5 28.5q64 0 125.5 -17.5t111.5 -59.5l84 88z" />
    <glyph glyph-name="Ugrave" unicode="&#xd9;" horiz-adv-x="756" 
d="M742 718q0 -10 -5 -12.5t-13 -2.5q-7 0 -13.5 0.5t-12.5 0.5q-29 0 -38.5 -8t-9.5 -23v-38q0 -89 1.5 -177.5t1.5 -177.5q0 -88 -26 -152.5t-82.5 -99.5t-150.5 -35q-134 0 -211.5 66.5t-77.5 205.5v44q0 56 0.5 111.5t0.5 110.5v90q0 14 0.5 29.5t-1.5 29.5
q-1 16 -15.5 20.5t-32.5 4t-29 -0.5q-10 0 -12 4.5t-2 12.5t5.5 11t12.5 3q11 0 22 -0.5t21 -1.5q22 -1 44 -1.5t44 -0.5q35 0 69.5 2t69.5 2q8 0 13.5 -3t5.5 -13q0 -16 -16 -16q-13 0 -25 0.5t-25 0.5q-10 0 -21 -6.5t-13 -17.5q-3 -16 -2 -34.5t1 -35.5q0 -90 -1.5 -180
t-1.5 -180q0 -69 13 -118t52.5 -74.5t116.5 -25.5q75 0 120 33t64.5 88.5t19.5 122.5q0 101 -0.5 202t-0.5 201q0 13 -12 18.5t-23 5.5q-12 0 -24.5 -0.5t-24.5 -0.5q-6 0 -9.5 5t-3.5 10q0 18 17 18q15 0 29.5 -1.5t28.5 -1.5q25 0 49.5 0.5t49.5 1.5q13 0 25 1t25 1
q8 0 10.5 -5.5t2.5 -12.5zM518 829l-14 -49l-266 52l19 72z" />
    <glyph glyph-name="Uacute" unicode="&#xda;" horiz-adv-x="756" 
d="M742 718q0 -10 -5 -12.5t-13 -2.5q-7 0 -13.5 0.5t-12.5 0.5q-29 0 -38.5 -8t-9.5 -23v-38q0 -89 1.5 -177.5t1.5 -177.5q0 -88 -26 -152.5t-82.5 -99.5t-150.5 -35q-134 0 -211.5 66.5t-77.5 205.5v44q0 56 0.5 111.5t0.5 110.5v90q0 14 0.5 29.5t-1.5 29.5
q-1 16 -15.5 20.5t-32.5 4t-29 -0.5q-10 0 -12 4.5t-2 12.5t5.5 11t12.5 3q11 0 22 -0.5t21 -1.5q22 -1 44 -1.5t44 -0.5q35 0 69.5 2t69.5 2q8 0 13.5 -3t5.5 -13q0 -16 -16 -16q-13 0 -25 0.5t-25 0.5q-10 0 -21 -6.5t-13 -17.5q-3 -16 -2 -34.5t1 -35.5q0 -90 -1.5 -180
t-1.5 -180q0 -69 13 -118t52.5 -74.5t116.5 -25.5q75 0 120 33t64.5 88.5t19.5 122.5q0 101 -0.5 202t-0.5 201q0 13 -12 18.5t-23 5.5q-12 0 -24.5 -0.5t-24.5 -0.5q-6 0 -9.5 5t-3.5 10q0 18 17 18q15 0 29.5 -1.5t28.5 -1.5q25 0 49.5 0.5t49.5 1.5q13 0 25 1t25 1
q8 0 10.5 -5.5t2.5 -12.5zM518 831l-266 -52l-14 48l261 76z" />
    <glyph glyph-name="Ucircumflex" unicode="&#xdb;" horiz-adv-x="756" 
d="M742 718q0 -10 -5 -12.5t-13 -2.5q-7 0 -13.5 0.5t-12.5 0.5q-29 0 -38.5 -8t-9.5 -23v-38q0 -89 1.5 -177.5t1.5 -177.5q0 -88 -26 -152.5t-82.5 -99.5t-150.5 -35q-134 0 -211.5 66.5t-77.5 205.5v44q0 56 0.5 111.5t0.5 110.5v90q0 14 0.5 29.5t-1.5 29.5
q-1 16 -15.5 20.5t-32.5 4t-29 -0.5q-10 0 -12 4.5t-2 12.5t5.5 11t12.5 3q11 0 22 -0.5t21 -1.5q22 -1 44 -1.5t44 -0.5q35 0 69.5 2t69.5 2q8 0 13.5 -3t5.5 -13q0 -16 -16 -16q-13 0 -25 0.5t-25 0.5q-10 0 -21 -6.5t-13 -17.5q-3 -16 -2 -34.5t1 -35.5q0 -90 -1.5 -180
t-1.5 -180q0 -69 13 -118t52.5 -74.5t116.5 -25.5q75 0 120 33t64.5 88.5t19.5 122.5q0 101 -0.5 202t-0.5 201q0 13 -12 18.5t-23 5.5q-12 0 -24.5 -0.5t-24.5 -0.5q-6 0 -9.5 5t-3.5 10q0 18 17 18q15 0 29.5 -1.5t28.5 -1.5q25 0 49.5 0.5t49.5 1.5q13 0 25 1t25 1
q8 0 10.5 -5.5t2.5 -12.5zM552 822l-8 -41l-168 54l-162 -52l-10 41l174 80z" />
    <glyph glyph-name="Udieresis" unicode="&#xdc;" horiz-adv-x="756" 
d="M742 718q0 -10 -5 -12.5t-13 -2.5q-7 0 -13.5 0.5t-12.5 0.5q-29 0 -38.5 -8t-9.5 -23v-38q0 -89 1.5 -177.5t1.5 -177.5q0 -88 -26 -152.5t-82.5 -99.5t-150.5 -35q-134 0 -211.5 66.5t-77.5 205.5v44q0 56 0.5 111.5t0.5 110.5v90q0 14 0.5 29.5t-1.5 29.5
q-1 16 -15.5 20.5t-32.5 4t-29 -0.5q-10 0 -12 4.5t-2 12.5t5.5 11t12.5 3q11 0 22 -0.5t21 -1.5q22 -1 44 -1.5t44 -0.5q35 0 69.5 2t69.5 2q8 0 13.5 -3t5.5 -13q0 -16 -16 -16q-13 0 -25 0.5t-25 0.5q-10 0 -21 -6.5t-13 -17.5q-3 -16 -2 -34.5t1 -35.5q0 -90 -1.5 -180
t-1.5 -180q0 -69 13 -118t52.5 -74.5t116.5 -25.5q75 0 120 33t64.5 88.5t19.5 122.5q0 101 -0.5 202t-0.5 201q0 13 -12 18.5t-23 5.5q-12 0 -24.5 -0.5t-24.5 -0.5q-6 0 -9.5 5t-3.5 10q0 18 17 18q15 0 29.5 -1.5t28.5 -1.5q25 0 49.5 0.5t49.5 1.5q13 0 25 1t25 1
q8 0 10.5 -5.5t2.5 -12.5zM323 840q0 -25 -17.5 -41t-41.5 -16t-41 16t-17 41q0 24 17 40t41 16t41.5 -16t17.5 -40zM550 840q0 -25 -17 -41t-41 -16t-41.5 16t-17.5 41q0 24 17.5 40t41.5 16t41 -16t17 -40z" />
    <glyph glyph-name="Yacute" unicode="&#xdd;" horiz-adv-x="693" 
d="M704 720q0 -16 -12.5 -16.5t-23.5 -0.5q-8 0 -16.5 -0.5t-16.5 -3.5q-7 -2 -13.5 -11t-10.5 -15q-50 -87 -100.5 -173t-101.5 -172q0 -19 -0.5 -38t-0.5 -38v-42v-65.5t1 -63.5t3 -35q7 -17 27 -17q15 0 29.5 1.5t28.5 1.5q7 0 10.5 -5t3.5 -11q0 -18 -18 -18
q-34 0 -67.5 1.5t-67.5 1.5q-37 0 -74.5 -1.5t-74.5 -1.5q-19 0 -19 19q0 8 7 11t12 3q11 0 20.5 -1t19.5 -1q25 0 33.5 6t9 19t0.5 34v142q0 44 -8 78.5t-27 73.5q-33 67 -70 132t-72 130q-10 18 -24 37q-13 16 -36 16q-9 0 -18 -1.5t-19 -1.5q-16 0 -16 15q0 7 5 10.5
t11 4.5q26 4 54 7.5t56 6.5q17 3 35 3q22 0 32 -17q6 -9 11.5 -18.5t10.5 -19.5q44 -79 83.5 -160t77.5 -164q6 10 21.5 36.5t35.5 62t41 73.5t39 72.5t29.5 58.5t11.5 30q0 11 -13 11t-25.5 -1t-26.5 -1q-6 0 -11 5t-5 11q0 11 8 13t16 2q17 0 35 -0.5t36 -0.5
q30 0 58.5 1.5t58.5 1.5q17 0 17 -17zM486 831l-266 -52l-13 48l261 76z" />
    <glyph glyph-name="Thorn" unicode="&#xde;" horiz-adv-x="742" 
d="M554 415q0 54 -23.5 86.5t-63.5 47.5t-88 15h-38q-21 0 -43 -3.5t-43 -6.5v-280q24 -15 58 -19.5t62 -4.5q79 0 129 41.5t50 123.5zM669 416q0 -64 -26.5 -103.5t-70.5 -61t-96.5 -29.5t-103.5 -8q-29 0 -58 3.5t-58 7.5q0 -27 0.5 -53.5t0.5 -53.5q0 -14 3.5 -30.5
t13 -28t27.5 -11.5q8 0 17 0.5t17 0.5q9 0 15.5 -4t6.5 -14q0 -16 -9.5 -19.5t-22.5 -3.5q-28 0 -56 1.5t-57 1.5q-34 0 -69 -2t-70 -2q-12 0 -15.5 5t-3.5 16t8.5 14t19.5 3.5t18 0.5q34 2 44.5 23t10.5 52q0 80 0.5 160t0.5 159q0 56 -0.5 113t-0.5 113q0 19 -11.5 25.5
t-28.5 6.5t-34 -0.5t-28.5 3.5t-11.5 19q0 8 4.5 13.5t12.5 5.5h137q35 0 70 1.5t70 1.5q15 0 15 -14v-7t-2 -6q-4 -6 -18.5 -6h-31.5t-29.5 -5t-12.5 -20q0 -22 -0.5 -44.5t-0.5 -45.5q44 0 89 2t90 2q60 0 114 -16.5t87.5 -56t33.5 -109.5z" />
    <glyph glyph-name="germandbls" unicode="&#xdf;" horiz-adv-x="615" 
d="M574 206q0 -55 -17 -102.5t-54.5 -77t-99.5 -29.5q-43 0 -75 22.5t-46 62.5q2 20 2.5 40t0.5 40q0 4 3.5 8t7.5 4q8 0 9 -6t2 -11q2 -20 12.5 -46t28.5 -45t42 -19q29 0 45 21.5t23.5 53t9 63.5t1.5 52q0 56 -24 101t-81 63q-13 4 -24.5 11t-11.5 23q0 11 6 19t13 15
q26 26 35 58.5t9 67.5q0 32 -6.5 59.5t-25.5 44.5t-57 17q-39 0 -61.5 -23t-32.5 -57.5t-12.5 -71.5t-2.5 -65v-414q0 -15 5.5 -34.5t25.5 -19.5q9 0 18 0.5t18 0.5q10 -5 10 -16q0 -5 -3.5 -9t-8.5 -6q-28 2 -56 3t-56 1h-32t-32 -1q-11 0 -22 -1.5t-22 -1.5q-7 0 -13 3
t-6 11q0 11 8 14t17 3q6 0 11.5 -0.5t11.5 -0.5q24 0 29.5 17.5t5.5 36.5v318q-16 0 -32.5 -1t-32.5 -1q-19 0 -19 15q0 11 6 13.5t15 2.5q16 0 31.5 -0.5t31.5 -0.5q-1 16 -2.5 32.5t-1.5 32.5q0 63 22.5 119t68 91.5t114.5 35.5q42 0 81 -16t64.5 -47t25.5 -77
q0 -41 -20.5 -86.5t-55.5 -68.5q-5 -4 -11 -6.5t-11 -6.5q1 -4 8 -5.5t11 -3.5q86 -25 132.5 -75t46.5 -144z" />
    <glyph glyph-name="agrave" unicode="&#xe0;" horiz-adv-x="544" 
d="M355 116q-2 44 -2.5 89t-2.5 89h-9q-31 0 -67 -9.5t-68 -28.5t-52.5 -47t-20.5 -64q0 -44 23.5 -69.5t68.5 -25.5q20 0 45 11t48 26.5t37 28.5zM540 52q0 -7 -6.5 -16.5t-11.5 -14.5q-13 -12 -30 -16.5t-34 -4.5q-41 0 -63 20t-33 57q-37 -33 -82.5 -55t-96.5 -22
q-39 0 -72 14.5t-53.5 43.5t-20.5 70q0 40 20 70t51 51t64 34q43 18 88.5 26.5t90.5 16.5q-1 30 -3 67t-16 64q-10 21 -30.5 38.5t-45.5 17.5q-42 0 -69 -24t-35 -65q-1 -7 -1 -15t-2 -14q-2 -7 -11.5 -11t-16.5 -4q-22 0 -37.5 11.5t-15.5 35.5q0 13 4 22q6 17 21.5 32.5
t35 27t35.5 16.5q22 7 49 11.5t49 4.5q53 0 95.5 -22.5t67 -62.5t24.5 -95v-31q0 -58 -0.5 -115.5t2.5 -115.5q2 -19 8 -36.5t30 -17.5q12 0 23.5 6t20.5 6q7 0 7 -5zM412 687l-14 -48l-266 52l19 72z" />
    <glyph glyph-name="aacute" unicode="&#xe1;" horiz-adv-x="544" 
d="M355 116q-2 44 -2.5 89t-2.5 89h-9q-31 0 -67 -9.5t-68 -28.5t-52.5 -47t-20.5 -64q0 -44 23.5 -69.5t68.5 -25.5q20 0 45 11t48 26.5t37 28.5zM540 52q0 -7 -6.5 -16.5t-11.5 -14.5q-13 -12 -30 -16.5t-34 -4.5q-41 0 -63 20t-33 57q-37 -33 -82.5 -55t-96.5 -22
q-39 0 -72 14.5t-53.5 43.5t-20.5 70q0 40 20 70t51 51t64 34q43 18 88.5 26.5t90.5 16.5q-1 30 -3 67t-16 64q-10 21 -30.5 38.5t-45.5 17.5q-42 0 -69 -24t-35 -65q-1 -7 -1 -15t-2 -14q-2 -7 -11.5 -11t-16.5 -4q-22 0 -37.5 11.5t-15.5 35.5q0 13 4 22q6 17 21.5 32.5
t35 27t35.5 16.5q22 7 49 11.5t49 4.5q53 0 95.5 -22.5t67 -62.5t24.5 -95v-31q0 -58 -0.5 -115.5t2.5 -115.5q2 -19 8 -36.5t30 -17.5q12 0 23.5 6t20.5 6q7 0 7 -5zM412 691l-266 -52l-14 48l261 76z" />
    <glyph glyph-name="acircumflex" unicode="&#xe2;" horiz-adv-x="544" 
d="M355 116q-2 44 -2.5 89t-2.5 89h-9q-31 0 -67 -9.5t-68 -28.5t-52.5 -47t-20.5 -64q0 -44 23.5 -69.5t68.5 -25.5q20 0 45 11t48 26.5t37 28.5zM540 52q0 -7 -6.5 -16.5t-11.5 -14.5q-13 -12 -30 -16.5t-34 -4.5q-41 0 -63 20t-33 57q-37 -33 -82.5 -55t-96.5 -22
q-39 0 -72 14.5t-53.5 43.5t-20.5 70q0 40 20 70t51 51t64 34q43 18 88.5 26.5t90.5 16.5q-1 30 -3 67t-16 64q-10 21 -30.5 38.5t-45.5 17.5q-42 0 -69 -24t-35 -65q-1 -7 -1 -15t-2 -14q-2 -7 -11.5 -11t-16.5 -4q-22 0 -37.5 11.5t-15.5 35.5q0 13 4 22q6 17 21.5 32.5
t35 27t35.5 16.5q22 7 49 11.5t49 4.5q53 0 95.5 -22.5t67 -62.5t24.5 -95v-31q0 -58 -0.5 -115.5t2.5 -115.5q2 -19 8 -36.5t30 -17.5q12 0 23.5 6t20.5 6q7 0 7 -5zM446 680l-8 -41l-168 54l-162 -52l-10 41l174 79z" />
    <glyph glyph-name="atilde" unicode="&#xe3;" horiz-adv-x="544" 
d="M355 116q-2 44 -2.5 89t-2.5 89h-9q-31 0 -67 -9.5t-68 -28.5t-52.5 -47t-20.5 -64q0 -44 23.5 -69.5t68.5 -25.5q20 0 45 11t48 26.5t37 28.5zM540 52q0 -7 -6.5 -16.5t-11.5 -14.5q-13 -12 -30 -16.5t-34 -4.5q-41 0 -63 20t-33 57q-37 -33 -82.5 -55t-96.5 -22
q-39 0 -72 14.5t-53.5 43.5t-20.5 70q0 40 20 70t51 51t64 34q43 18 88.5 26.5t90.5 16.5q-1 30 -3 67t-16 64q-10 21 -30.5 38.5t-45.5 17.5q-42 0 -69 -24t-35 -65q-1 -7 -1 -15t-2 -14q-2 -7 -11.5 -11t-16.5 -4q-22 0 -37.5 11.5t-15.5 35.5q0 13 4 22q6 17 21.5 32.5
t35 27t35.5 16.5q22 7 49 11.5t49 4.5q53 0 95.5 -22.5t67 -62.5t24.5 -95v-31q0 -58 -0.5 -115.5t2.5 -115.5q2 -19 8 -36.5t30 -17.5q12 0 23.5 6t20.5 6q7 0 7 -5zM433 724q-22 -23 -43 -45.5t-58 -22.5q-25 0 -47.5 11t-42 22t-37.5 11q-19 0 -36.5 -17t-28.5 -31
l-29 20q21 30 45.5 56.5t65.5 26.5q24 0 44.5 -10.5t40.5 -21t42 -10.5q19 0 33 13t26 25z" />
    <glyph glyph-name="adieresis" unicode="&#xe4;" horiz-adv-x="544" 
d="M355 116q-2 44 -2.5 89t-2.5 89h-9q-31 0 -67 -9.5t-68 -28.5t-52.5 -47t-20.5 -64q0 -44 23.5 -69.5t68.5 -25.5q20 0 45 11t48 26.5t37 28.5zM540 52q0 -7 -6.5 -16.5t-11.5 -14.5q-13 -12 -30 -16.5t-34 -4.5q-41 0 -63 20t-33 57q-37 -33 -82.5 -55t-96.5 -22
q-39 0 -72 14.5t-53.5 43.5t-20.5 70q0 40 20 70t51 51t64 34q43 18 88.5 26.5t90.5 16.5q-1 30 -3 67t-16 64q-10 21 -30.5 38.5t-45.5 17.5q-42 0 -69 -24t-35 -65q-1 -7 -1 -15t-2 -14q-2 -7 -11.5 -11t-16.5 -4q-22 0 -37.5 11.5t-15.5 35.5q0 13 4 22q6 17 21.5 32.5
t35 27t35.5 16.5q22 7 49 11.5t49 4.5q53 0 95.5 -22.5t67 -62.5t24.5 -95v-31q0 -58 -0.5 -115.5t2.5 -115.5q2 -19 8 -36.5t30 -17.5q12 0 23.5 6t20.5 6q7 0 7 -5zM217 693q0 -24 -17.5 -40t-41.5 -16t-41 16t-17 40q0 25 17 41t41 16t41.5 -16t17.5 -41zM444 693
q0 -24 -17 -40t-41 -16t-41.5 16t-17.5 40q0 25 17.5 41t41.5 16t41 -16t17 -41z" />
    <glyph glyph-name="aring" unicode="&#xe5;" horiz-adv-x="544" 
d="M355 116q-2 44 -2.5 89t-2.5 89h-9q-31 0 -67 -9.5t-68 -28.5t-52.5 -47t-20.5 -64q0 -44 23.5 -69.5t68.5 -25.5q20 0 45 11t48 26.5t37 28.5zM320 683q0 20 -14.5 33t-33.5 13t-33.5 -13.5t-14.5 -33.5q0 -19 14.5 -32.5t33.5 -13.5t33.5 14t14.5 33zM540 52
q0 -7 -6.5 -16.5t-11.5 -14.5q-13 -12 -30 -16.5t-34 -4.5q-41 0 -63 20t-33 57q-37 -33 -82.5 -55t-96.5 -22q-39 0 -72 14.5t-53.5 43.5t-20.5 70q0 40 20 70t51 51t64 34q43 18 88.5 26.5t90.5 16.5q-1 30 -3 67t-16 64q-10 21 -30.5 38.5t-45.5 17.5q-42 0 -69 -24
t-35 -65q-1 -7 -1 -15t-2 -14q-2 -7 -11.5 -11t-16.5 -4q-22 0 -37.5 11.5t-15.5 35.5q0 13 4 22q6 17 21.5 32.5t35 27t35.5 16.5q22 7 49 11.5t49 4.5q53 0 95.5 -22.5t67 -62.5t24.5 -95v-31q0 -58 -0.5 -115.5t2.5 -115.5q2 -19 8 -36.5t30 -17.5q12 0 23.5 6t20.5 6
q7 0 7 -5zM361 682q0 -36 -27.5 -57.5t-61.5 -21.5t-61.5 21.5t-27.5 58.5q0 38 28 59t62 21q35 0 61.5 -22.5t26.5 -58.5z" />
    <glyph glyph-name="ae" unicode="&#xe6;" horiz-adv-x="869" 
d="M365 126q-8 43 -8.5 86.5t-2.5 86.5h-9q-31 0 -67 -9.5t-68 -28.5t-52.5 -46.5t-20.5 -63.5q0 -45 24.5 -69.5t69.5 -24.5q20 0 45.5 11.5t50 28t38.5 29.5zM699 354q0 27 -2.5 55.5t-12 52t-29.5 38t-55 14.5q-44 0 -72 -25t-43.5 -62.5t-22.5 -74.5q23 -1 45.5 -1h44.5
q74 0 147 3zM825 123q0 -2 -2 -6q-10 -16 -33 -37t-38 -32q-70 -49 -153 -49q-25 0 -57 5t-64 15.5t-56.5 28.5t-35.5 44q-13 -11 -34 -25t-43 -26.5t-38 -18.5q-19 -8 -40 -11.5t-42 -3.5q-38 0 -72 14.5t-55 42.5t-21 70q0 40 20 69.5t51 50.5t64 34q43 17 88.5 25
t90.5 17q-1 31 -3 63.5t-16 60.5q-11 21 -31 38.5t-45 17.5q-45 0 -71.5 -24t-37.5 -65q-1 -5 -2.5 -10t-3.5 -10q-4 -7 -9.5 -12t-13.5 -5q-19 0 -36 9t-17 31q0 13 4 22q6 17 22.5 32.5t36.5 27t36 16.5q22 8 51 12t52 4q44 0 85.5 -17t66.5 -55q36 34 84.5 54t97.5 20
q90 0 146 -52t56 -144q0 -19 -9.5 -24t-26.5 -5q-20 0 -40.5 1.5t-40.5 2.5q-26 2 -52 2h-52q-32 0 -64.5 -0.5t-64.5 -1.5l-2 -30t-1 -30q0 -35 8 -73t25.5 -71.5t47 -54t71.5 -20.5q43 0 79 13t68 41q10 9 19 20t19 19q8 6 17 6q6 0 11.5 -4.5t5.5 -11.5z" />
    <glyph glyph-name="ccedilla" unicode="&#xe7;" horiz-adv-x="540" 
d="M527 127q0 -2 -0.5 -4t-1.5 -4q-8 -14 -28.5 -32.5t-34.5 -29.5q-37 -27 -85 -41.5t-95 -11.5q-8 -13 -18 -26.5t-19 -27.5q14 2 28 3t28 1q19 0 42.5 -3.5t41.5 -15.5t18 -37q0 -27 -15 -42.5t-38.5 -23t-48 -9.5t-44.5 -2q-21 0 -44 6.5t-42 15.5q-7 3 -22.5 12.5
t-15.5 17.5q0 5 4.5 7t8.5 2q7 0 17 -4t17 -6q38 -11 75 -11q11 0 29 3t33 11t15 22q0 12 -10 18.5t-23 9.5t-22 3q-22 0 -44.5 -6.5t-43.5 -13.5q11 26 24 51.5t25 50.5q-62 14 -105.5 50t-66.5 88.5t-23 114.5q0 74 30 139t94 105q29 18 64.5 28t69.5 10q20 0 40 -4
t39 -12q14 -5 35 -14.5t34 -9.5q8 0 17.5 3.5t16.5 6.5q2 -34 4 -67l4 -66v-4.5v-4.5q0 -12 -7.5 -14.5t-16.5 -2.5t-13.5 7.5t-6.5 14.5q-8 30 -20.5 60t-37.5 51q-13 12 -34 21.5t-40 9.5q-46 0 -78 -24.5t-52 -63t-29 -81.5t-9 -81q0 -37 8.5 -77t27.5 -74t50 -55.5
t76 -21.5q44 0 81 13.5t70 44.5q7 6 13.5 12.5t12.5 13.5q2 3 4.5 6.5t5.5 5.5q4 4 13 4q7 0 12.5 -3.5t5.5 -11.5z" />
    <glyph glyph-name="egrave" unicode="&#xe8;" horiz-adv-x="545" 
d="M386 354q0 28 -2.5 56t-12 51.5t-29.5 38t-56 14.5q-45 0 -72.5 -25t-42.5 -62.5t-23 -74.5q23 -1 45.5 -1.5t44.5 -0.5q37 0 74 1.5t74 2.5zM513 122q0 -5 -1 -7q-5 -9 -18 -22.5t-27.5 -25.5t-23.5 -19q-34 -24 -75 -37.5t-83 -13.5q-35 0 -75.5 11.5t-70.5 30.5
q-57 37 -82 96.5t-25 124.5q0 74 29 138t93 104q29 18 66 29t71 11q60 0 105.5 -24t71.5 -68.5t26 -105.5q0 -19 -9.5 -23.5t-26.5 -4.5q-20 0 -40 1l-40 2q-27 1 -53.5 1.5t-53.5 0.5h-63.5t-64.5 -1q-1 -16 -2 -31t-1 -31q0 -35 8 -73.5t25.5 -71.5t46.5 -54t71 -21
q44 0 83 13t72 42q10 9 17.5 19t16.5 20q6 8 16 8q7 0 12 -5.5t5 -12.5zM398 691l-14 -49l-266 52l19 72z" />
    <glyph glyph-name="eacute" unicode="&#xe9;" horiz-adv-x="545" 
d="M386 354q0 28 -2.5 56t-12 51.5t-29.5 38t-56 14.5q-45 0 -72.5 -25t-42.5 -62.5t-23 -74.5q23 -1 45.5 -1.5t44.5 -0.5q37 0 74 1.5t74 2.5zM513 122q0 -5 -1 -7q-5 -9 -18 -22.5t-27.5 -25.5t-23.5 -19q-34 -24 -75 -37.5t-83 -13.5q-35 0 -75.5 11.5t-70.5 30.5
q-57 37 -82 96.5t-25 124.5q0 74 29 138t93 104q29 18 66 29t71 11q60 0 105.5 -24t71.5 -68.5t26 -105.5q0 -19 -9.5 -23.5t-26.5 -4.5q-20 0 -40 1l-40 2q-27 1 -53.5 1.5t-53.5 0.5h-63.5t-64.5 -1q-1 -16 -2 -31t-1 -31q0 -35 8 -73.5t25.5 -71.5t46.5 -54t71 -21
q44 0 83 13t72 42q10 9 17.5 19t16.5 20q6 8 16 8q7 0 12 -5.5t5 -12.5zM398 698l-266 -52l-14 48l261 76z" />
    <glyph glyph-name="ecircumflex" unicode="&#xea;" horiz-adv-x="545" 
d="M386 354q0 28 -2.5 56t-12 51.5t-29.5 38t-56 14.5q-45 0 -72.5 -25t-42.5 -62.5t-23 -74.5q23 -1 45.5 -1.5t44.5 -0.5q37 0 74 1.5t74 2.5zM513 122q0 -5 -1 -7q-5 -9 -18 -22.5t-27.5 -25.5t-23.5 -19q-34 -24 -75 -37.5t-83 -13.5q-35 0 -75.5 11.5t-70.5 30.5
q-57 37 -82 96.5t-25 124.5q0 74 29 138t93 104q29 18 66 29t71 11q60 0 105.5 -24t71.5 -68.5t26 -105.5q0 -19 -9.5 -23.5t-26.5 -4.5q-20 0 -40 1l-40 2q-27 1 -53.5 1.5t-53.5 0.5h-63.5t-64.5 -1q-1 -16 -2 -31t-1 -31q0 -35 8 -73.5t25.5 -71.5t46.5 -54t71 -21
q44 0 83 13t72 42q10 9 17.5 19t16.5 20q6 8 16 8q7 0 12 -5.5t5 -12.5zM432 668l-8 -41l-168 53l-162 -52l-10 41l174 80z" />
    <glyph glyph-name="edieresis" unicode="&#xeb;" horiz-adv-x="545" 
d="M386 354q0 28 -2.5 56t-12 51.5t-29.5 38t-56 14.5q-45 0 -72.5 -25t-42.5 -62.5t-23 -74.5q23 -1 45.5 -1.5t44.5 -0.5q37 0 74 1.5t74 2.5zM513 122q0 -5 -1 -7q-5 -9 -18 -22.5t-27.5 -25.5t-23.5 -19q-34 -24 -75 -37.5t-83 -13.5q-35 0 -75.5 11.5t-70.5 30.5
q-57 37 -82 96.5t-25 124.5q0 74 29 138t93 104q29 18 66 29t71 11q60 0 105.5 -24t71.5 -68.5t26 -105.5q0 -19 -9.5 -23.5t-26.5 -4.5q-20 0 -40 1l-40 2q-27 1 -53.5 1.5t-53.5 0.5h-63.5t-64.5 -1q-1 -16 -2 -31t-1 -31q0 -35 8 -73.5t25.5 -71.5t46.5 -54t71 -21
q44 0 83 13t72 42q10 9 17.5 19t16.5 20q6 8 16 8q7 0 12 -5.5t5 -12.5zM203 693q0 -24 -17.5 -40t-41.5 -16t-41.5 16t-17.5 40q0 25 17.5 41t41.5 16t41.5 -16t17.5 -41zM430 693q0 -24 -17 -40t-41 -16t-41.5 16t-17.5 40q0 25 17.5 41t41.5 16t41 -16t17 -41z" />
    <glyph glyph-name="igrave" unicode="&#xec;" horiz-adv-x="344" 
d="M317 15q0 -6 -5.5 -11t-11.5 -5q-35 0 -70 1.5t-70 1.5q-29 0 -58.5 -1.5t-59.5 -1.5q-4 0 -8 5.5t-4 9.5q0 12 11 13q12 2 25 1t26 -1q12 0 21.5 6.5t9.5 19.5v404q0 14 -4.5 23.5t-20.5 9.5q-13 0 -26.5 -2t-27.5 -2q-4 0 -10.5 2.5t-6.5 7.5q0 12 11 15q13 4 26 5.5
t25 3.5q29 5 56 11.5t55 12.5q3 1 6 1.5t6 0.5q17 0 17 -15q0 -119 -0.5 -238.5t-0.5 -239.5q0 -18 16.5 -21.5t29.5 -3.5q8 0 15.5 0.5t14.5 0.5q5 0 9 -5t4 -9zM312 691l-14 -49l-266 52l19 72z" />
    <glyph glyph-name="iacute" unicode="&#xed;" horiz-adv-x="344" 
d="M317 15q0 -6 -5.5 -11t-11.5 -5q-35 0 -70 1.5t-70 1.5q-29 0 -58.5 -1.5t-59.5 -1.5q-4 0 -8 5.5t-4 9.5q0 12 11 13q12 2 25 1t26 -1q12 0 21.5 6.5t9.5 19.5v404q0 14 -4.5 23.5t-20.5 9.5q-13 0 -26.5 -2t-27.5 -2q-4 0 -10.5 2.5t-6.5 7.5q0 12 11 15q13 4 26 5.5
t25 3.5q29 5 56 11.5t55 12.5q3 1 6 1.5t6 0.5q17 0 17 -15q0 -119 -0.5 -238.5t-0.5 -239.5q0 -18 16.5 -21.5t29.5 -3.5q8 0 15.5 0.5t14.5 0.5q5 0 9 -5t4 -9zM312 698l-266 -52l-14 48l261 76z" />
    <glyph glyph-name="icircumflex" unicode="&#xee;" horiz-adv-x="344" 
d="M317 15q0 -6 -5.5 -11t-11.5 -5q-35 0 -70 1.5t-70 1.5q-29 0 -58.5 -1.5t-59.5 -1.5q-4 0 -8 5.5t-4 9.5q0 12 11 13q12 2 25 1t26 -1q12 0 21.5 6.5t9.5 19.5v404q0 14 -4.5 23.5t-20.5 9.5q-13 0 -26.5 -2t-27.5 -2q-4 0 -10.5 2.5t-6.5 7.5q0 12 11 15q13 4 26 5.5
t25 3.5q29 5 56 11.5t55 12.5q3 1 6 1.5t6 0.5q17 0 17 -15q0 -119 -0.5 -238.5t-0.5 -239.5q0 -18 16.5 -21.5t29.5 -3.5q8 0 15.5 0.5t14.5 0.5q5 0 9 -5t4 -9zM346 668l-8 -41l-168 53l-162 -52l-10 41l174 80z" />
    <glyph glyph-name="idieresis" unicode="&#xef;" horiz-adv-x="344" 
d="M317 15q0 -6 -5.5 -11t-11.5 -5q-35 0 -70 1.5t-70 1.5q-29 0 -58.5 -1.5t-59.5 -1.5q-4 0 -8 5.5t-4 9.5q0 12 11 13q12 2 25 1t26 -1q12 0 21.5 6.5t9.5 19.5v404q0 14 -4.5 23.5t-20.5 9.5q-13 0 -26.5 -2t-27.5 -2q-4 0 -10.5 2.5t-6.5 7.5q0 12 11 15q13 4 26 5.5
t25 3.5q29 5 56 11.5t55 12.5q3 1 6 1.5t6 0.5q17 0 17 -15q0 -119 -0.5 -238.5t-0.5 -239.5q0 -18 16.5 -21.5t29.5 -3.5q8 0 15.5 0.5t14.5 0.5q5 0 9 -5t4 -9zM127 693q0 -24 -17.5 -40t-41.5 -16t-41 16t-17 40q0 25 17 41t41 16t41.5 -16t17.5 -41zM334 693
q0 -24 -17 -40t-41 -16t-41.5 16t-17.5 40q0 25 17.5 41t41.5 16t41 -16t17 -41z" />
    <glyph glyph-name="eth" unicode="&#xf0;" horiz-adv-x="620" 
d="M459 268q0 40 -5.5 83t-21.5 80t-47 60t-82 23q-48 0 -77.5 -24.5t-44.5 -63t-20.5 -81.5t-5.5 -79q0 -40 5.5 -82t21 -77t46.5 -56.5t82 -21.5q50 0 79.5 22.5t44.5 58.5t20 77.5t5 80.5zM572 286q0 -79 -32.5 -144t-92 -104t-141.5 -39q-75 0 -133 35.5t-91.5 95.5
t-33.5 133q0 75 32.5 139t91.5 103t137 39q41 0 77 -13t68 -38q-7 34 -26.5 75t-43.5 80.5t-45 66.5l-104 -70l-33 38l102 72q-22 23 -49 41.5t-54 34.5q-5 3 -10 5.5t-10 6.5q-2 2 -4.5 5t-2.5 6q0 11 8 17t18 6q17 0 30 -6q29 -12 61.5 -38t54.5 -49l96 67l34 -43l-93 -63
q55 -63 97.5 -137.5t67 -155.5t24.5 -166z" />
    <glyph glyph-name="ntilde" unicode="&#xf1;" horiz-adv-x="632" 
d="M620 14q0 -9 -6 -12t-14 -3q-31 0 -63 1t-64 1q-25 0 -51.5 -1t-52.5 -1q-4 0 -8 5t-4 9q0 13 10 15q11 2 21.5 1t20.5 -1q26 0 27 26q2 23 1.5 46t-0.5 45v124q0 21 -0.5 56.5t-2.5 70t-8 52.5q-17 51 -68 51q-30 0 -49.5 -8.5t-44.5 -25.5q-15 -11 -29.5 -24t-26.5 -28
v-179.5v-178.5q0 -13 11 -19.5t22 -6.5q8 0 15.5 1t14.5 1q4 0 8 -5t4 -9q0 -7 -5.5 -11.5t-11.5 -4.5q-31 0 -62 1t-62 1q-25 0 -50 -1t-50 -1q-6 0 -10 4.5t-4 9.5q0 11 10 13.5t22 1.5t19 -1q24 0 26 26q1 14 1 28v27q0 86 -0.5 173t-1.5 174q0 11 -4 25t-18 14
q-13 0 -25 -4t-25 -4t-13 12q0 7 2 9t9 3q18 5 37 7.5t38 6.5q17 4 34 8.5t34 4.5q12 0 17 -7t7.5 -22t4 -30t1.5 -24q33 31 78 57.5t91 26.5q35 0 70 -8t60.5 -29.5t31.5 -62.5q2 -17 4 -35.5t2 -35.5v-156v-156q0 -17 9 -23t25 -6q8 0 15.5 1t15.5 1q6 0 10.5 -5.5
t4.5 -10.5zM478 697q-22 -24 -43.5 -46.5t-58.5 -22.5q-25 0 -47.5 11t-42 22t-37.5 11q-19 0 -36.5 -16.5t-28.5 -30.5l-29 19q14 20 29 39.5t35 32t47 12.5q24 0 44.5 -10.5t41 -21.5t42.5 -11q18 0 32.5 13t25.5 26z" />
    <glyph glyph-name="ograve" unicode="&#xf2;" horiz-adv-x="620" 
d="M465 266q0 41 -6 84t-23 80t-48.5 59.5t-83.5 22.5q-48 0 -78.5 -24t-46.5 -62.5t-22.5 -81t-6.5 -80.5q0 -42 6.5 -83.5t23.5 -76.5t49 -56t83 -21q50 0 80.5 22t46 58t21 78t5.5 81zM579 262q0 -76 -36.5 -136t-98 -94.5t-137.5 -34.5q-75 0 -135 34.5t-95.5 94.5
t-35.5 134q0 77 35 141t96 102.5t139 38.5q86 0 145.5 -35t91 -98t31.5 -147zM450 685l-14 -49l-266 52l19 72z" />
    <glyph glyph-name="oacute" unicode="&#xf3;" horiz-adv-x="620" 
d="M465 266q0 41 -6 84t-23 80t-48.5 59.5t-83.5 22.5q-48 0 -78.5 -24t-46.5 -62.5t-22.5 -81t-6.5 -80.5q0 -42 6.5 -83.5t23.5 -76.5t49 -56t83 -21q50 0 80.5 22t46 58t21 78t5.5 81zM579 262q0 -76 -36.5 -136t-98 -94.5t-137.5 -34.5q-75 0 -135 34.5t-95.5 94.5
t-35.5 134q0 77 35 141t96 102.5t139 38.5q86 0 145.5 -35t91 -98t31.5 -147zM450 692l-266 -52l-14 49l261 75z" />
    <glyph glyph-name="ocircumflex" unicode="&#xf4;" horiz-adv-x="620" 
d="M465 266q0 41 -6 84t-23 80t-48.5 59.5t-83.5 22.5q-48 0 -78.5 -24t-46.5 -62.5t-22.5 -81t-6.5 -80.5q0 -42 6.5 -83.5t23.5 -76.5t49 -56t83 -21q50 0 80.5 22t46 58t21 78t5.5 81zM579 262q0 -76 -36.5 -136t-98 -94.5t-137.5 -34.5q-75 0 -135 34.5t-95.5 94.5
t-35.5 134q0 77 35 141t96 102.5t139 38.5q86 0 145.5 -35t91 -98t31.5 -147zM484 678l-8 -41l-168 54l-162 -52l-10 41l174 79z" />
    <glyph glyph-name="otilde" unicode="&#xf5;" horiz-adv-x="620" 
d="M465 266q0 41 -6 84t-23 80t-48.5 59.5t-83.5 22.5q-48 0 -78.5 -24t-46.5 -62.5t-22.5 -81t-6.5 -80.5q0 -42 6.5 -83.5t23.5 -76.5t49 -56t83 -21q50 0 80.5 22t46 58t21 78t5.5 81zM579 262q0 -76 -36.5 -136t-98 -94.5t-137.5 -34.5q-75 0 -135 34.5t-95.5 94.5
t-35.5 134q0 77 35 141t96 102.5t139 38.5q86 0 145.5 -35t91 -98t31.5 -147zM471 705q-22 -23 -43 -45.5t-58 -22.5q-25 0 -47.5 11t-42 22t-37.5 11q-19 0 -36.5 -17t-28.5 -31l-29 19q14 20 29 39.5t35 32t47 12.5q24 0 44.5 -10.5t40.5 -21.5t42 -11q19 0 33 13t26 26z
" />
    <glyph glyph-name="odieresis" unicode="&#xf6;" horiz-adv-x="620" 
d="M465 266q0 41 -6 84t-23 80t-48.5 59.5t-83.5 22.5q-48 0 -78.5 -24t-46.5 -62.5t-22.5 -81t-6.5 -80.5q0 -42 6.5 -83.5t23.5 -76.5t49 -56t83 -21q50 0 80.5 22t46 58t21 78t5.5 81zM579 262q0 -76 -36.5 -136t-98 -94.5t-137.5 -34.5q-75 0 -135 34.5t-95.5 94.5
t-35.5 134q0 77 35 141t96 102.5t139 38.5q86 0 145.5 -35t91 -98t31.5 -147zM255 691q0 -25 -17.5 -41t-41.5 -16t-41 16t-17 41q0 24 17 40t41 16t41.5 -16t17.5 -40zM482 691q0 -25 -17 -41t-41 -16t-41.5 16t-17.5 41q0 24 17.5 40t41.5 16t41 -16t17 -40z" />
    <glyph glyph-name="divide" unicode="&#xf7;" horiz-adv-x="750" 
d="M432 151q0 -23 -17 -40t-40 -17t-40 17t-17 40t17 40t40 17t40 -17t17 -40zM675 337h-599v51h599v-51zM432 573q0 -23 -17 -40t-40 -17t-40 17t-17 40t17 40t40 17t40 -17t17 -40z" />
    <glyph glyph-name="oslash" unicode="&#xf8;" horiz-adv-x="620" 
d="M463 250q0 35 -3 69t-14 66l-267 -293q20 -40 55 -59.5t79 -19.5q50 0 80 22t45 58t20 77t5 80zM428 426q-40 69 -123 69q-48 0 -78.5 -24t-47 -61.5t-22.5 -80.5t-6 -81q0 -28 2.5 -56t9.5 -56zM577 246q0 -76 -36 -135.5t-96.5 -93.5t-136.5 -34q-47 0 -92 15t-82 46
l-58 -63l-30 27l59 65q-31 35 -46.5 80t-15.5 91q0 77 34.5 141t95.5 102t139 38q43 0 85 -11t77 -36l52 56l31 -28l-51 -56q38 -41 54.5 -94.5t16.5 -109.5z" />
    <glyph glyph-name="ugrave" unicode="&#xf9;" horiz-adv-x="628" 
d="M621 31q0 -13 -18.5 -20t-40 -9.5t-31.5 -2.5q-34 0 -54.5 24t-31.5 53q-34 -40 -86 -60t-104 -20q-92 0 -128.5 48t-36.5 135q0 74 0.5 148.5t1.5 149.5q0 12 -4.5 19.5t-18.5 7.5q-8 0 -16 -1t-16 -1q-4 0 -8.5 4t-4.5 7q0 9 4 11t12 3q10 2 20 2t20 1q18 2 35.5 3
t35.5 2l16 2t16 1q5 0 9 -8.5t4 -13.5q0 -86 -2 -172.5t-2 -172.5q0 -19 1 -40t8 -39q11 -27 39.5 -38t55.5 -11q29 0 59.5 11.5t52.5 33.5t25 54q2 19 2 38.5v38.5v261q0 10 -6.5 16t-16.5 6t-19.5 -1t-19.5 -1q-15 0 -15 13q0 7 3.5 9.5t9.5 3.5q12 2 25 2.5t26 1.5
q22 2 51 6t49 4q5 0 10.5 -6t4.5 -11q-1 -107 -2 -215t-1 -216q0 -22 10 -38t35 -16q8 0 16 2.5t16 2.5q10 0 10 -12zM452 687l-14 -48l-266 52l19 72z" />
    <glyph glyph-name="uacute" unicode="&#xfa;" horiz-adv-x="628" 
d="M621 31q0 -13 -18.5 -20t-40 -9.5t-31.5 -2.5q-34 0 -54.5 24t-31.5 53q-34 -40 -86 -60t-104 -20q-92 0 -128.5 48t-36.5 135q0 74 0.5 148.5t1.5 149.5q0 12 -4.5 19.5t-18.5 7.5q-8 0 -16 -1t-16 -1q-4 0 -8.5 4t-4.5 7q0 9 4 11t12 3q10 2 20 2t20 1q18 2 35.5 3
t35.5 2l16 2t16 1q5 0 9 -8.5t4 -13.5q0 -86 -2 -172.5t-2 -172.5q0 -19 1 -40t8 -39q11 -27 39.5 -38t55.5 -11q29 0 59.5 11.5t52.5 33.5t25 54q2 19 2 38.5v38.5v261q0 10 -6.5 16t-16.5 6t-19.5 -1t-19.5 -1q-15 0 -15 13q0 7 3.5 9.5t9.5 3.5q12 2 25 2.5t26 1.5
q22 2 51 6t49 4q5 0 10.5 -6t4.5 -11q-1 -107 -2 -215t-1 -216q0 -22 10 -38t35 -16q8 0 16 2.5t16 2.5q10 0 10 -12zM452 691l-266 -52l-14 48l261 76z" />
    <glyph glyph-name="ucircumflex" unicode="&#xfb;" horiz-adv-x="628" 
d="M621 31q0 -13 -18.5 -20t-40 -9.5t-31.5 -2.5q-34 0 -54.5 24t-31.5 53q-34 -40 -86 -60t-104 -20q-92 0 -128.5 48t-36.5 135q0 74 0.5 148.5t1.5 149.5q0 12 -4.5 19.5t-18.5 7.5q-8 0 -16 -1t-16 -1q-4 0 -8.5 4t-4.5 7q0 9 4 11t12 3q10 2 20 2t20 1q18 2 35.5 3
t35.5 2l16 2t16 1q5 0 9 -8.5t4 -13.5q0 -86 -2 -172.5t-2 -172.5q0 -19 1 -40t8 -39q11 -27 39.5 -38t55.5 -11q29 0 59.5 11.5t52.5 33.5t25 54q2 19 2 38.5v38.5v261q0 10 -6.5 16t-16.5 6t-19.5 -1t-19.5 -1q-15 0 -15 13q0 7 3.5 9.5t9.5 3.5q12 2 25 2.5t26 1.5
q22 2 51 6t49 4q5 0 10.5 -6t4.5 -11q-1 -107 -2 -215t-1 -216q0 -22 10 -38t35 -16q8 0 16 2.5t16 2.5q10 0 10 -12zM486 680l-8 -41l-168 54l-162 -52l-10 41l174 79z" />
    <glyph glyph-name="udieresis" unicode="&#xfc;" horiz-adv-x="628" 
d="M621 31q0 -13 -18.5 -20t-40 -9.5t-31.5 -2.5q-34 0 -54.5 24t-31.5 53q-34 -40 -86 -60t-104 -20q-92 0 -128.5 48t-36.5 135q0 74 0.5 148.5t1.5 149.5q0 12 -4.5 19.5t-18.5 7.5q-8 0 -16 -1t-16 -1q-4 0 -8.5 4t-4.5 7q0 9 4 11t12 3q10 2 20 2t20 1q18 2 35.5 3
t35.5 2l16 2t16 1q5 0 9 -8.5t4 -13.5q0 -86 -2 -172.5t-2 -172.5q0 -19 1 -40t8 -39q11 -27 39.5 -38t55.5 -11q29 0 59.5 11.5t52.5 33.5t25 54q2 19 2 38.5v38.5v261q0 10 -6.5 16t-16.5 6t-19.5 -1t-19.5 -1q-15 0 -15 13q0 7 3.5 9.5t9.5 3.5q12 2 25 2.5t26 1.5
q22 2 51 6t49 4q5 0 10.5 -6t4.5 -11q-1 -107 -2 -215t-1 -216q0 -22 10 -38t35 -16q8 0 16 2.5t16 2.5q10 0 10 -12zM257 693q0 -24 -17.5 -40t-41.5 -16t-41 16t-17 40q0 25 17 41t41 16t41.5 -16t17.5 -41zM484 693q0 -24 -17 -40t-41 -16t-41.5 16t-17.5 40
q0 25 17.5 41t41.5 16t41 -16t17 -41z" />
    <glyph glyph-name="yacute" unicode="&#xfd;" horiz-adv-x="594" 
d="M606 528q0 -13 -7.5 -14.5t-17.5 -1.5q-16 0 -24 -6t-16 -20q-15 -31 -29 -62l-28 -62q-31 -64 -61.5 -128.5t-63.5 -127.5q-21 -40 -41 -80t-41 -80q-10 -22 -21.5 -44.5t-24.5 -42.5q-18 -28 -41.5 -46t-58.5 -18q-20 0 -40.5 6t-34.5 20.5t-14 39.5q0 22 16.5 38
t38.5 16q15 0 25 -5q-3 -12 -3 -25t9.5 -20.5t20.5 -7.5q23 0 40.5 17.5t30.5 41t20 41.5q8 20 11.5 32.5t3.5 34.5q0 6 -2 18t-5 25t-5 18q-19 50 -41.5 99.5t-44.5 98.5q-18 44 -37 87t-39 86q-3 5 -5.5 10t-5.5 10q-12 18 -26.5 19.5t-32.5 1.5q-13 0 -13 13q0 8 10 10
q2 1 23.5 4t49 6.5t49.5 6.5t24 3q10 0 15 -4q3 -3 14.5 -30.5t28 -69t35 -89t35.5 -92t29.5 -78t17.5 -46.5q6 11 19 39.5t30 66.5t35 79.5t33 79t24 65t9 36.5q0 14 -11 14.5t-21 0.5q-7 0 -14.5 -0.5t-15.5 -0.5q-5 0 -9.5 4t-4.5 9t3 10t9 5q23 0 45.5 -0.5t44.5 -0.5
q23 0 45 1t44 1q12 0 12 -12zM437 691l-266 -52l-14 48l261 76z" />
    <glyph glyph-name="thorn" unicode="&#xfe;" horiz-adv-x="608" 
d="M466 293q0 36 -6 73t-22 68.5t-44 51t-72 19.5q-31 0 -61.5 -16t-53.5 -42t-30 -56q-2 -7 -1 -14.5t1 -15.5q0 -20 -0.5 -41t-0.5 -42v-100q0 -32 18 -61t46.5 -46.5t61.5 -17.5q50 0 82 22t50 57.5t25 77.5t7 83zM578 291q0 -128 -73 -202t-201 -74q-36 0 -69 13.5
t-59 36.5v-111q0 -23 12.5 -30t30 -6.5t33.5 0.5q7 0 13 -5t6 -13q0 -7 -6 -12.5t-13 -5.5q-31 0 -62 1.5t-62 1.5q-32 0 -63 -2t-63 -2q-8 0 -14 4.5t-6 13.5q0 11 10 14.5t23 3.5h20q9 0 13 1q15 3 20 18.5t5 34v29.5l-1 238q0 100 0.5 199.5t-1.5 199.5q-1 21 -6.5 27
t-25.5 6q-13 0 -26.5 -1t-26.5 -1q-7 0 -14 3t-7 12q0 8 2 11.5t9 6.5q13 5 30.5 5.5t30.5 1.5q28 3 60 11t58 8q7 0 11.5 -1.5t7.5 -8.5v-20.5v-51.5v-62.5v-55.5v-30v-25q34 34 75.5 53.5t90.5 19.5q73 0 126.5 -34t82.5 -91.5t29 -128.5z" />
    <glyph glyph-name="ydieresis" unicode="&#xff;" horiz-adv-x="594" 
d="M606 528q0 -13 -7.5 -14.5t-17.5 -1.5q-16 0 -24 -6t-16 -20q-15 -31 -29 -62l-28 -62q-31 -64 -61.5 -128.5t-63.5 -127.5q-21 -40 -41 -80t-41 -80q-10 -22 -21.5 -44.5t-24.5 -42.5q-18 -28 -41.5 -46t-58.5 -18q-20 0 -40.5 6t-34.5 20.5t-14 39.5q0 22 16.5 38
t38.5 16q15 0 25 -5q-3 -12 -3 -25t9.5 -20.5t20.5 -7.5q23 0 40.5 17.5t30.5 41t20 41.5q8 20 11.5 32.5t3.5 34.5q0 6 -2 18t-5 25t-5 18q-19 50 -41.5 99.5t-44.5 98.5q-18 44 -37 87t-39 86q-3 5 -5.5 10t-5.5 10q-12 18 -26.5 19.5t-32.5 1.5q-13 0 -13 13q0 8 10 10
q2 1 23.5 4t49 6.5t49.5 6.5t24 3q10 0 15 -4q3 -3 14.5 -30.5t28 -69t35 -89t35.5 -92t29.5 -78t17.5 -46.5q6 11 19 39.5t30 66.5t35 79.5t33 79t24 65t9 36.5q0 14 -11 14.5t-21 0.5q-7 0 -14.5 -0.5t-15.5 -0.5q-5 0 -9.5 4t-4.5 9t3 10t9 5q23 0 45.5 -0.5t44.5 -0.5
q23 0 45 1t44 1q12 0 12 -12zM245 693q0 -24 -17.5 -40t-41.5 -16t-41 16t-17 40q0 25 17 41t41 16t41.5 -16t17.5 -41zM472 693q0 -24 -17 -40t-41 -16t-41.5 16t-17.5 40q0 25 17.5 41t41.5 16t41 -16t17 -41z" />
    <glyph glyph-name="idotless" unicode="&#x131;" horiz-adv-x="350" 
d="M317 16q0 -6 -6 -11t-11 -5q-28 0 -55.5 1.5t-55.5 1.5h-29q-29 0 -58.5 -1.5t-58.5 -1.5q-4 0 -8.5 5.5t-4.5 9.5q0 11 10 12.5t18 1.5t17 -0.5t17 -0.5q12 0 21.5 6.5t9.5 19.5q0 99 0.5 198t0.5 198q0 14 -5 23.5t-21 9.5q-14 0 -27.5 -2.5t-27.5 -2.5q-4 0 -9.5 3.5
t-5.5 7.5q0 12 10 14q13 5 26 5.5t26 2.5q23 5 46.5 10.5t46.5 11.5q7 2 14.5 3.5t14.5 1.5q18 0 18 -15q0 -117 -1 -234.5t-1 -234.5q0 -13 11.5 -19.5t23.5 -6.5q11 0 21.5 1.5t20.5 1.5q4 0 8 -5.5t4 -9.5z" />
    <glyph glyph-name="Lslash" unicode="&#x141;" horiz-adv-x="720" 
d="M698 224q0 -7 -1 -15t-3 -16q-7 -40 -12.5 -81.5t-11.5 -82.5q-1 -4 -1.5 -9t-3.5 -9q-4 -4 -10.5 -6t-12.5 -2q-10 0 -20.5 0.5t-21.5 1.5h-25.5h-25.5q-165 0 -330 -3q-34 -1 -68 -2.5t-68 -1.5q-18 0 -18 16q0 11 5.5 13.5t14.5 2.5q8 0 16.5 -0.5t16.5 -0.5
q14 0 27.5 4t13.5 21v260l-110 -70l-24 32l134 86v295q0 25 -8 33t-33 8q-10 0 -19 -2t-19 -2q-5 0 -8.5 7t-3.5 11q0 8 2 11t9 6q35 -2 70.5 -3t70.5 -1q36 0 72 2t72 2q4 0 9.5 -4.5t5.5 -8.5q0 -6 -3.5 -13t-11.5 -7q-9 0 -18 1t-18 1t-21.5 -1.5t-22 -7.5t-9.5 -20
q0 -33 -0.5 -66t-0.5 -67v-100l127 82l23 -33l-150 -97q0 -35 0.5 -70.5t0.5 -70.5v-182q0 -15 11 -21.5t26 -8t25 -1.5q42 0 84 2t83 9q59 10 97 54q18 21 30.5 45t21.5 49q3 8 5.5 16t5.5 15q4 8 9 9.5t13 1.5q4 0 8 -3t4 -8z" />
    <glyph glyph-name="lslash" unicode="&#x142;" horiz-adv-x="363" 
d="M372 488l-134 -87v-31q0 -79 0.5 -157.5t0.5 -157.5q0 -13 12 -19.5t23 -6.5t21.5 1.5t20.5 1.5q4 0 8 -6.5t4 -10.5q0 -6 -5.5 -11t-11.5 -5q-31 0 -63 2t-64 2q-30 0 -59.5 -2t-59.5 -2q-6 0 -9.5 6t-3.5 11q0 10 10 12t17 2q6 0 12 -0.5t12 -0.5q12 0 21.5 6.5
t9.5 19.5q0 71 1 141t1 140l-139 -90l-23 33l162 105q-1 71 -1.5 142t-0.5 142q0 6 -0.5 13.5t-5.5 12.5q-6 6 -15 6q-17 0 -34 -5.5t-35 -5.5q-3 0 -9 2.5t-6 6.5q0 12 9 16q11 5 25 7t25 4q21 5 42.5 10.5t42.5 12.5q11 3 21 7t20 6q6 2 10 2q14 0 14 -15v-299l111 72z
" />
    <glyph glyph-name="OE" unicode="&#x152;" horiz-adv-x="940" 
d="M498 676q0 8 -16 14t-38 9.5t-41.5 5t-26.5 1.5q-36 0 -72 -18q-41 -19 -69 -55.5t-45.5 -83t-25 -94t-7.5 -89.5q0 -56 10.5 -113.5t36 -106.5t69.5 -79t111 -30h11q20 0 44 4t42 17t18 38zM913 187q0 -18 -3.5 -36.5t-6.5 -37.5q-2 -15 -2.5 -41.5t-5.5 -39.5
q-3 -6 -8.5 -12t-13.5 -6q-90 0 -180.5 2t-181.5 2q-13 0 -25 -2.5t-26 -5.5q-37 -6 -76 -6q-110 0 -187 46t-116.5 128t-39.5 188q0 76 24 143.5t68.5 119t108 81t142.5 29.5q21 0 42 -2t41 -2h147q43 0 85.5 1.5t85.5 1.5q47 0 93 3q4 -29 9 -58.5t10 -59.5q1 -5 2.5 -11
t1.5 -12q0 -12 -8 -16t-19 -4t-15.5 3.5t-7.5 13.5t-6 19t-7 18q-19 40 -49.5 53.5t-72.5 13.5h-112v-293q29 0 58 1t58 4q12 2 32 6.5t39 9t26 3.5h1q3 0 8 -2.5t5 -6.5q0 -3 -3 -13.5t-7 -21.5t-6 -14q-7 -12 -20 -12q-8 0 -16 0.5t-16 1.5q-26 2 -52.5 3.5t-52.5 1.5
q-22 0 -38 -7.5t-16 -34.5v-235q0 -28 10.5 -35t35.5 -7h87q25 0 37.5 2.5t22.5 12t24 29.5q13 17 24.5 35t19.5 37q3 6 5 12t5 12q7 11 19 11q7 0 13 -3t6 -11z" />
    <glyph glyph-name="oe" unicode="&#x153;" horiz-adv-x="965" 
d="M467 250q0 41 -6 83.5t-22.5 79.5t-48 59.5t-82.5 22.5q-48 0 -78.5 -24t-47 -61.5t-22.5 -80.5t-6 -81q0 -42 6 -83.5t23 -75.5t49 -55t84 -21q50 0 80 22t45.5 57.5t20.5 77t5 80.5zM811 354q0 27 -2.5 55.5t-12 52t-29.5 38t-55 14.5q-44 0 -72 -25t-43.5 -62.5
t-22.5 -74.5q23 -1 45.5 -1h44.5q37 0 73.5 1t73.5 2zM937 123q0 -2 -2 -6q-11 -18 -32.5 -37.5t-38.5 -31.5q-34 -23 -73 -36t-80 -13q-59 0 -112.5 23.5t-90.5 70.5q-31 -57 -82.5 -83.5t-114.5 -26.5q-75 0 -134.5 34t-94.5 93t-35 134q0 77 34 141t94.5 102t139.5 38
q57 0 109.5 -19t90.5 -63q36 45 90 71t112 26q90 0 146 -52t56 -144q0 -19 -9.5 -24t-26.5 -5q-20 0 -40.5 1.5t-40.5 2.5q-26 2 -52 2h-52q-32 0 -64.5 -0.5t-64.5 -1.5q-3 -30 -3 -60q0 -35 8 -73t25.5 -71.5t47 -54t71.5 -20.5q41 0 80.5 13t70.5 41q9 9 16.5 19.5
t17.5 19.5q6 6 17 6q6 0 11.5 -4.5t5.5 -11.5z" />
    <glyph glyph-name="Scaron" unicode="&#x160;" horiz-adv-x="594" 
d="M562 192q0 -57 -26.5 -95.5t-69.5 -61.5t-93.5 -32.5t-97.5 -9.5q-30 0 -60 5t-59 15q-22 8 -43.5 18.5t-44.5 14.5q-4 28 -9 55.5t-10 55.5q-1 8 -2.5 15t-1.5 14q0 17 7 24t25 7q15 0 21 -6t9 -20q12 -50 28.5 -87t48.5 -56.5t90 -19.5q74 0 122.5 35t48.5 115
q0 38 -19 65.5t-47.5 47.5t-58.5 34q-31 17 -62.5 32t-63.5 31q-31 15 -64 39.5t-55.5 57t-22.5 70.5q0 66 35 108t89.5 62t112.5 20q38 0 70.5 -8t67.5 -21q19 -7 38 -10t38 -5q3 -30 6 -60.5t9 -59.5l2 -8t1 -9q0 -17 -13 -22t-27 -5q-4 0 -10.5 1t-9.5 5q-2 2 -3 7t-1 8
q-13 77 -53 118t-122 41q-60 0 -93 -33t-33 -93q0 -41 22 -70t58 -50t79.5 -39.5t87 -38.5t79.5 -46.5t58 -64t22 -90.5zM448 869l-147 -86l-155 84l9 40l143 -61l142 63z" />
    <glyph glyph-name="scaron" unicode="&#x161;" horiz-adv-x="446" 
d="M417 148q0 -45 -20 -74t-52.5 -45t-70.5 -22.5t-75 -6.5q-19 0 -37.5 3t-36.5 6q-15 3 -30.5 4t-29.5 5q-7 24 -12.5 48.5t-13.5 47.5q-1 5 -5.5 17.5t-4.5 16.5q0 10 9.5 13t16.5 3q5 0 9.5 -4t6.5 -8q5 -7 8 -15t7 -16q7 -12 13.5 -23.5t16.5 -20.5q18 -18 42.5 -29.5
t49.5 -11.5q47 0 77.5 18.5t30.5 70.5q0 31 -19.5 52.5t-50.5 38t-65.5 32t-65.5 35t-50.5 47t-19.5 67.5q0 49 26 81t66.5 47.5t83.5 15.5q29 0 52.5 -6.5t50.5 -16.5q12 -4 28 -4h10.5t10.5 1q3 -26 7.5 -53.5t4.5 -53.5q0 -10 -6 -17.5t-17 -7.5q-17 0 -23 14
q-4 9 -6.5 19t-5.5 20q-12 33 -43 54t-66 21q-47 0 -66 -28.5t-19 -71.5q0 -16 7 -29t18 -24q10 -10 22 -17t25 -13q29 -13 65.5 -28.5t70 -35.5t55 -48.5t21.5 -67.5zM374 712l-155 -85l-147 87l8 39l142 -63l143 61z" />
    <glyph glyph-name="Ydieresis" unicode="&#x178;" horiz-adv-x="693" 
d="M704 720q0 -16 -12.5 -16.5t-23.5 -0.5q-8 0 -16.5 -0.5t-16.5 -3.5q-7 -2 -13.5 -11t-10.5 -15q-50 -87 -100.5 -173t-101.5 -172q0 -19 -0.5 -38t-0.5 -38v-42v-65.5t1 -63.5t3 -35q7 -17 27 -17q15 0 29.5 1.5t28.5 1.5q7 0 10.5 -5t3.5 -11q0 -18 -18 -18
q-34 0 -67.5 1.5t-67.5 1.5q-37 0 -74.5 -1.5t-74.5 -1.5q-19 0 -19 19q0 8 7 11t12 3q11 0 20.5 -1t19.5 -1q25 0 33.5 6t9 19t0.5 34v142q0 44 -8 78.5t-27 73.5q-33 67 -70 132t-72 130q-10 18 -24 37q-13 16 -36 16q-9 0 -18 -1.5t-19 -1.5q-16 0 -16 15q0 7 5 10.5
t11 4.5q26 4 54 7.5t56 6.5q17 3 35 3q22 0 32 -17q6 -9 11.5 -18.5t10.5 -19.5q44 -79 83.5 -160t77.5 -164q6 10 21.5 36.5t35.5 62t41 73.5t39 72.5t29.5 58.5t11.5 30q0 11 -13 11t-25.5 -1t-26.5 -1q-6 0 -11 5t-5 11q0 11 8 13t16 2q17 0 35 -0.5t36 -0.5
q30 0 58.5 1.5t58.5 1.5q17 0 17 -17zM303 842q0 -25 -17.5 -40.5t-41.5 -15.5t-41.5 15.5t-17.5 40.5t17.5 40.5t41.5 15.5t41.5 -15.5t17.5 -40.5zM530 842q0 -25 -17.5 -40.5t-41.5 -15.5t-41.5 15.5t-17.5 40.5t17.5 40.5t41.5 15.5t41.5 -15.5t17.5 -40.5z" />
    <glyph glyph-name="Zcaron" unicode="&#x17d;" horiz-adv-x="645" 
d="M626 229q0 -12 -2.5 -23.5t-3.5 -22.5q-3 -22 -6 -44.5t-6 -45.5q-2 -19 -2 -40t-3 -41q-1 -9 -5.5 -11t-12.5 -2h-6h-6q-7 3 -15 3.5t-16 0.5q-59 0 -121 -0.5t-121 -0.5q-82 0 -165 -3q-20 -1 -40.5 -2t-40.5 -1q-16 0 -25.5 6.5t-9.5 23.5q0 10 4 18q8 14 18 27.5
t20 26.5l89 125q71 98 142.5 198t136.5 201q8 12 17 29t9 32q0 8 -10.5 11.5t-22.5 4.5t-18 1q-16 0 -44.5 -0.5t-61 -2t-59.5 -4.5t-41 -7q-34 -10 -60.5 -37.5t-39.5 -59.5q-4 -11 -6.5 -23t-5.5 -23q-2 -7 -7 -14.5t-14 -7.5q-7 0 -13.5 3t-6.5 10q0 35 3 80t3 85
q0 20 10 25.5t30 5.5q12 0 24.5 -0.5t24.5 -0.5q18 0 35.5 0.5t35.5 0.5q92 0 187.5 2.5t186.5 2.5q11 0 21 -3t10 -17q0 -9 -4 -16t-9 -13l-410 -571q-7 -10 -19 -27.5t-12 -28.5q0 -12 12.5 -16.5t28 -5t22.5 -0.5q49 0 100.5 2.5t99.5 7.5q45 6 77.5 33.5t53.5 66.5
t33 78q1 3 2 6.5t2 5.5q3 3 7.5 4t8.5 1q6 0 11.5 -2.5t5.5 -10.5zM473 867l-154 -86l-147 88l7 39l142 -63l143 61z" />
    <glyph glyph-name="zcaron" unicode="&#x17e;" horiz-adv-x="480" 
d="M474 158q0 -10 -3.5 -26t-5.5 -28q-2 -17 -4 -34.5t-4 -34.5q-1 -5 -0.5 -11.5t-1.5 -11.5q-1 -10 -14 -10q-56 0 -112.5 1.5t-112.5 1.5q-47 0 -95 -1.5t-95 -1.5q-5 0 -10.5 3t-5.5 9q0 4 1.5 7t2.5 6q6 9 13.5 18t14.5 18q14 20 29.5 39t28.5 39q52 77 104.5 156
t97.5 155q4 8 7.5 15.5t3.5 15.5q0 15 -14.5 19.5t-32 4.5h-27.5q-25 0 -52 -1t-50 -7q-17 -4 -29.5 -16t-21.5 -26q-5 -10 -8.5 -21.5t-5.5 -22.5q-1 -3 -1.5 -7.5t-1.5 -7.5q-5 -7 -15 -7q-3 0 -8.5 1.5t-5.5 6.5q0 8 0.5 16t1.5 16q1 22 1.5 44t0.5 44q0 16 17 16
q20 0 40 -1t40 -1q77 0 156.5 0.5t156.5 0.5q5 0 10.5 -4t5.5 -9q0 -4 -17 -29.5t-45 -64t-61.5 -85t-67.5 -93.5t-62 -89t-45 -71.5t-17 -40.5t8 -14q4 -1 20.5 -2t34 -1h22.5q18 0 36.5 1.5t36.5 2.5q29 3 50 10.5t42 29.5q10 11 17 25t12 27q4 8 6.5 17.5t6.5 17.5
q4 7 13 7q5 0 9.5 -2.5t4.5 -8.5zM387 714l-151 -84l-143 86l6 35l140 -63l141 61z" />
    <glyph glyph-name="florin" unicode="&#x192;" horiz-adv-x="540" 
d="M529 673q0 -8 -3.5 -18t-14.5 -10q-16 0 -24 18q-3 6 -5 12.5t-5 12.5q-10 22 -29.5 41t-45.5 19q-21 0 -34.5 -19.5t-21.5 -50t-12 -64t-5 -61.5t-1 -43v-11h133v-35h-135q-1 -69 -2.5 -138t-3.5 -137q-1 -42 -3.5 -86t-14.5 -85q-21 -72 -71.5 -119t-128.5 -47
q-21 0 -44.5 8.5t-40 25.5t-16.5 42q0 29 13 40t40 11q11 0 13.5 -8t2 -18t-0.5 -16q0 -22 15 -38t37 -16q32 0 52 25.5t31.5 65.5t16.5 84.5t6.5 83t2.5 59.5q2 66 3 131.5t2 131.5h-105v35h108q2 44 11 93.5t30 93.5t57 71.5t91 27.5q23 0 44.5 -7t44.5 -6q2 -12 5 -31.5
t5.5 -38t2.5 -29.5z" />
    <glyph glyph-name="circumflex" unicode="&#x2c6;" horiz-adv-x="500" 
d="M424 683l-8 -41l-167 53l-163 -52l-10 41l175 80z" />
    <glyph glyph-name="ring" unicode="&#x2da;" horiz-adv-x="500" 
d="M302 705q0 21 -16 33.5t-36 12.5t-36 -13t-16 -34q0 -20 16.5 -33t35.5 -13q20 0 36 13t16 34zM335 704q0 -34 -25.5 -57t-59.5 -23t-59.5 23.5t-25.5 57.5q0 35 26 58t60 23t59 -23.5t25 -58.5z" />
    <glyph glyph-name="tilde" unicode="&#x2dc;" horiz-adv-x="390" 
d="M383 687q-20 -29 -47 -52t-65 -23q-30 0 -60.5 13.5t-59 27t-53.5 13.5q-22 0 -35 -11t-26 -26l-30 18q16 20 30 38t33 29.5t48 11.5q30 0 57 -13t54.5 -25.5t57.5 -12.5q23 0 38.5 6t28.5 25z" />
    <glyph glyph-name="acutecomb" unicode="&#x301;" horiz-adv-x="0" 
d="M390 725l-257 -80l-23 42l249 102z" />
    <glyph glyph-name="overlinecomb" unicode="&#x305;" horiz-adv-x="0" 
d="M503 839h-506v42h506v-42z" />
    <glyph glyph-name="brevecomb" unicode="&#x306;" horiz-adv-x="0" 
d="M407 715q0 -20 -18.5 -33.5t-45.5 -22t-52.5 -12t-40.5 -3.5t-40.5 4t-52 12t-45 22t-18.5 33q0 17 11.5 27t28.5 10q16 0 26.5 -10t10.5 -26q0 -6 -4 -12q19 -8 39 -13.5t41 -5.5t43.5 6t41.5 13q-2 6 -2 12q0 16 10 26t26 10t28.5 -10t12.5 -27z" />
    <glyph glyph-name="dotaccentcomb" unicode="&#x307;" horiz-adv-x="0" 
d="M309 713q0 -25 -17.5 -41t-41.5 -16t-41.5 16t-17.5 41q0 24 17.5 40t41.5 16t41.5 -16t17.5 -40z" />
    <glyph glyph-name="dieresiscomb" unicode="&#x308;" horiz-adv-x="0" 
d="M195 713q0 -25 -17.5 -41t-41.5 -16t-41 16t-17 41q0 24 17 40t41 16t41.5 -16t17.5 -40zM422 713q0 -25 -17 -41t-41 -16t-41.5 16t-17.5 41q0 24 17.5 40t41.5 16t41 -16t17 -40z" />
    <glyph glyph-name="hungarumlautcomb" unicode="&#x30b;" horiz-adv-x="0" 
d="M273 753l-172 -128l-55 10l141 134zM446 753l-172 -128l-56 10l141 134z" />
    <glyph glyph-name="caroncomb" unicode="&#x30c;" horiz-adv-x="0" 
d="M424 725l-174 -81l-174 80l10 41l162 -52l168 53z" />
    <glyph glyph-name="ogonekcomb" unicode="&#x328;" horiz-adv-x="0" 
d="M390 -102q0 -2 -2 -4q-6 -12 -24 -25t-30 -19q-17 -9 -44 -16t-47 -7q-18 0 -40.5 1.5t-43 8t-34 20.5t-13.5 39q0 12 11.5 30.5t28.5 38.5t32.5 37t24.5 27l49 -12q-12 -13 -31 -34t-34 -43.5t-15 -41.5q0 -13 13.5 -19t30 -7.5t25.5 -1.5q23 0 45 3t44 10q4 2 14.5 7
t20 9.5t11.5 4.5t5 -2t3 -4z" />
    <glyph glyph-name="Alpha" unicode="&#x391;" 
d="M587 294q-32 86 -63.5 173t-63.5 173q-32 -86 -64.5 -173t-68.5 -173h260zM907 19q0 -8 -7 -14.5t-15 -6.5q-31 0 -61 1t-60 1q-42 0 -83 -1t-82 -1q-5 0 -11 7t-6 11q0 15 17 16.5t27 1.5q15 0 29.5 4t14.5 24q0 9 -9 36t-21.5 59.5t-24.5 60.5t-17 41h-279
q-3 -8 -11.5 -30t-19 -50t-20.5 -55.5t-16.5 -47t-6.5 -24.5q0 -13 16.5 -17t36.5 -3.5t29 0.5q7 0 13 -5t6 -13q0 -7 -7.5 -11.5t-14.5 -4.5h-210q-7 0 -13.5 5t-6.5 12q0 9 8.5 13t15.5 4q30 0 48 16t31 41q5 11 10 23l10 24q58 148 113.5 297t109.5 298q20 5 39.5 9.5
t39.5 4.5q2 0 6.5 -1.5t5.5 -3.5l231 -580q8 -20 15.5 -40.5t17.5 -40.5q14 -26 32.5 -33t37 -6.5t30.5 -1.5t12 -19z" />
    <glyph glyph-name="Beta" unicode="&#x392;" 
d="M714 205q0 78 -36.5 121t-117.5 43q-13 0 -27 0.5t-28 0.5q-33 0 -65.5 -1.5t-65.5 -3.5v-302q0 -17 11.5 -25t27.5 -9.5t28 -1.5h39t38 1q55 3 99 22t70.5 57t26.5 98zM661 557q0 64 -28 94.5t-73.5 40.5t-98.5 10q-8 0 -29.5 -1.5t-39.5 -7.5t-18 -18v-274h85
q39 0 80 5t71 33q23 21 37 54t14 64zM836 219q0 -73 -37 -124t-105 -77q-42 -16 -88.5 -18.5t-90.5 -2.5q-52 0 -104 1.5t-104 1.5q-30 0 -60.5 -2t-60.5 -2q-7 0 -14.5 4.5t-7.5 11.5q0 17 10.5 17.5t22.5 0.5q11 0 22.5 1t21.5 5q15 7 20.5 25.5t5.5 40v35.5
q0 126 -0.5 252.5t-0.5 253.5q0 15 -5 27.5t-20 17.5q-10 5 -23.5 4.5t-24.5 -0.5q-8 0 -16.5 4.5t-8.5 14.5q0 5 6.5 11.5t10.5 6.5q13 0 26 -1t26 -1q27 0 54.5 -0.5t54.5 -0.5q44 0 87.5 5.5t86.5 5.5q46 0 92 -4.5t84 -21t61 -50t23 -92.5q0 -44 -23 -77t-58 -56
t-73 -37q36 -6 73 -18.5t68 -34t50 -53t19 -74.5z" />
    <glyph glyph-name="Gamma" unicode="&#x393;" 
d="M810 545q0 -10 -10.5 -13.5t-18.5 -3.5q-11 0 -19 14.5t-12.5 32t-7.5 25.5q-17 53 -43.5 75.5t-83.5 22.5q-21 0 -42 0.5t-42 0.5q-18 0 -36.5 -0.5t-36.5 -3.5q-15 -2 -24.5 -8t-12.5 -23q-1 -5 -1 -11v-12q0 -134 1 -269t1 -270q0 -27 12.5 -48.5t42.5 -21.5
q9 0 18 1.5t18 1.5q8 0 16 -4t8 -14q0 -13 -9.5 -16.5t-20.5 -3.5q-37 0 -73 1t-73 1q-36 0 -72.5 -1.5t-72.5 -1.5q-9 0 -17 4.5t-8 14.5q0 14 10 14.5t20 0.5q42 0 62 14t20 60q0 131 0.5 262.5t0.5 262.5q0 29 -8 48.5t-42 19.5q-11 0 -22.5 -0.5t-22.5 -0.5q-7 0 -13 5
t-6 12q0 8 7 15t14 7q14 0 27.5 -1t26.5 -1h246q47 0 94 0.5t93 1.5q20 1 40.5 3t40.5 2q5 0 9.5 -0.5t8.5 -3.5q3 -5 5 -10q1 -2 2 -19t2 -41.5t2 -50t1.5 -45t0.5 -25.5z" />
    <glyph glyph-name="Delta" unicode="&#x394;" 
d="M717 89l-223 560l-236 -560h459zM849 9h-698l299 726l99 46z" />
    <glyph glyph-name="Epsilon" unicode="&#x395;" 
d="M821 189q0 -10 -1.5 -19.5t-3.5 -18.5q-3 -20 -6 -39.5t-5 -39.5l-2 -30t-5 -29q-3 -10 -9.5 -13t-16.5 -3q-90 0 -180 1.5t-180 1.5q-51 0 -101.5 -2.5t-101.5 -2.5q-7 0 -16 5.5t-9 12.5q0 17 13 21q6 3 18.5 3t25.5 -0.5t18 -0.5q24 0 32.5 14.5t9.5 35t1 36.5
q0 65 1 128.5t1 127.5v200v38.5t-2 38.5q-1 16 -5 23.5t-21 10.5q-14 3 -29 3h-30q-7 0 -15.5 7t-8.5 15q0 7 7.5 14.5t14.5 7.5q16 0 32 -1t32 -1h226q38 0 76 0.5t75 1.5q25 1 49 2.5t49 1.5q4 0 8.5 -1.5t5.5 -5.5q1 -1 1 -3.5v-4.5q3 -27 8.5 -54t11.5 -54q2 -7 3.5 -14
t1.5 -15q0 -9 -9 -14t-17 -5q-13 0 -16 3.5t-7 13.5q-21 53 -51.5 76.5t-71 30t-90.5 6.5q-25 0 -49 -1t-49 -1q-8 0 -17 -5.5t-9 -15.5v-272q20 0 40 -0.5t39 -0.5q44 0 86.5 3.5t85.5 11.5q12 2 23 5t23 3q3 0 8 -2.5t5 -7.5t-5.5 -19t-13 -26t-12.5 -12h-14
q-32 0 -64.5 3.5t-64.5 3.5q-11 0 -33 -1t-46 -5t-40.5 -12.5t-16.5 -24.5v-246q0 -30 16.5 -35.5t40.5 -5.5h130q40 0 70 9t59 37q21 21 34 50.5t23 56.5q1 2 2 4.5t2 3.5q2 3 6.5 4t8.5 1q5 0 13 -3t8 -10z" />
    <glyph glyph-name="Zeta" unicode="&#x396;" 
d="M819 236q0 -16 -3 -31t-5 -31q-1 -7 -4 -32t-6 -55t-5.5 -52t-2.5 -23q-4 -7 -8 -8.5t-12 -1.5q-21 0 -41.5 1.5t-41.5 1.5q-120 0 -239.5 -3t-239.5 -3q-10 0 -22 7t-12 19q0 7 2.5 12t6.5 10q18 25 38 47.5t39 46.5q41 53 82 105.5t79 107.5q10 14 33 48t51 76.5
t54 84.5t43 74t17 43q0 9 -9.5 13t-20.5 5t-17 1q-26 0 -64.5 -0.5t-76.5 -4t-62 -11.5q-38 -13 -63.5 -45t-36.5 -70q-2 -6 -5 -19t-6 -18q-4 -6 -8.5 -7.5t-11.5 -1.5q-6 0 -13.5 3.5t-7.5 10.5q0 6 0.5 26.5t2 48t3 53.5t3 44.5t2.5 19.5q3 4 8 4.5t9 0.5q35 0 70 -1
t69 -1q92 0 184 3t184 3q11 0 22.5 -3t11.5 -17q0 -9 -4 -19t-9 -18l-417 -567q-7 -10 -19 -26.5t-12 -27.5q0 -16 16.5 -19.5t28.5 -3.5h51q56 0 113 3q57 2 103 15t83 60q20 26 33 59t25 63q1 2 1.5 4t1.5 3q7 4 16 4q5 0 12 -2t7 -9z" />
    <glyph glyph-name="Eta" unicode="&#x397;" 
d="M906 18q0 -17 -9.5 -19t-23.5 -2q-28 0 -55.5 1.5t-55.5 1.5q-31 0 -61.5 -2t-61.5 -2q-8 0 -15.5 4t-7.5 13q0 19 10.5 19.5t24.5 0.5q36 0 44.5 21.5t8.5 52.5q0 62 -0.5 123.5t-0.5 122.5h-400v-247q0 -14 3 -30.5t12 -28t27 -11.5q8 0 16.5 0.5t17.5 0.5q8 0 14 -5
t6 -14q0 -16 -9.5 -18.5t-23.5 -2.5q-28 0 -55.5 1.5t-55.5 1.5q-32 0 -64 -2t-64 -2q-8 0 -15.5 4t-7.5 13q0 14 9 18t21.5 3.5t21.5 -0.5q21 0 29.5 12.5t10 30.5t1.5 32q0 129 -0.5 257.5t-0.5 257.5q0 16 -4 32.5t-14.5 28.5t-29.5 12q-8 0 -15.5 -1t-15.5 -1t-15 4
t-7 13q0 14 9 18.5t22 4.5q29 0 58.5 -1.5t59.5 -1.5q27 0 54 1t54 3q4 0 7 0.5t7 0.5q8 0 16 -4.5t8 -14.5q0 -19 -11.5 -18.5t-23.5 0.5q-37 0 -45.5 -23t-8.5 -53q0 -55 0.5 -111t0.5 -112h401q0 56 0.5 112t0.5 111q0 14 -3.5 31t-12.5 29.5t-27 12.5q-9 0 -17 -1
t-16 -1t-15 4t-7 13q0 15 9 19t22 4q29 0 57 -1.5t57 -1.5q27 0 55 1t55 3q4 0 7.5 0.5t7.5 0.5q8 0 16.5 -5t8.5 -15q0 -19 -12 -18.5t-24 0.5q-37 0 -46.5 -22.5t-9.5 -54.5q0 -129 0.5 -258t0.5 -258q0 -14 3 -30.5t12 -28t27 -11.5q8 0 16.5 0.5t17.5 0.5q8 0 14 -5.5
t6 -13.5z" />
    <glyph glyph-name="Theta" unicode="&#x398;" 
d="M675 406q0 -14 -1.5 -31.5t-9.5 -29.5t-28 -12q-16 0 -32.5 3t-33.5 4q-23 2 -46.5 3t-46.5 1q-29 0 -59.5 -2t-56.5 -16q-7 -4 -14.5 -8.5t-15.5 -4.5q-7 0 -14 3.5t-7 11.5q0 9 5.5 27.5t14.5 34t20 15.5q14 0 27 -2l26 -4q26 -2 53 -3t54 -1q15 0 37 0.5t43.5 3.5
t34.5 10q7 5 16 11.5t18 6.5q10 0 13 -6.5t3 -14.5zM744 367q0 58 -13 117.5t-41.5 109t-75.5 79.5t-116 30q-66 0 -113 -32t-77.5 -83.5t-44.5 -111.5t-14 -116q0 -58 13.5 -116t43 -106.5t77 -77.5t115.5 -29q69 0 116 30t75.5 79.5t41.5 109t13 117.5zM868 369
q0 -117 -43.5 -201t-126 -129.5t-200.5 -45.5q-114 0 -196 44.5t-126 126.5t-44 196q0 80 26 149t74.5 120.5t116 80.5t149.5 29q116 0 198.5 -44.5t127 -127t44.5 -198.5z" />
    <glyph glyph-name="Iota" unicode="&#x399;" 
d="M664 19q0 -16 -10 -18t-23 -2q-33 0 -66.5 1.5t-66.5 1.5t-66 -2t-66 -2q-10 0 -19.5 3.5t-9.5 15.5q0 14 10 14.5t19 0.5q44 0 60.5 14.5t16.5 57.5q0 132 -0.5 264t-0.5 264q0 23 -8.5 45t-36.5 22q-8 0 -16.5 -0.5t-16.5 -0.5q-9 0 -18.5 2t-9.5 15q0 14 9.5 17.5
t21.5 3.5q47 0 93.5 -1.5t92.5 -1.5h16h16q13 1 26.5 2.5t26.5 1.5q8 0 17 -2t9 -13q0 -4 -0.5 -9.5t-4.5 -8.5q-7 -6 -24 -4.5t-35.5 -1t-31.5 -17t-13 -51.5q0 -132 0.5 -264t0.5 -264q0 -26 10 -47.5t41 -21.5q9 0 18 2t18 2q8 0 14.5 -5t6.5 -13z" />
    <glyph glyph-name="Kappa" unicode="&#x39a;" 
d="M872 18q0 -10 -4 -12t-13 -4q-28 -4 -58 -4h-59q-17 0 -40.5 2t-39.5 10q-6 4 -20 20.5t-30 38t-30 40.5t-20 28l-174 230l-44 -34v-113v-114q0 -15 2 -32t10.5 -28.5t29.5 -11.5q8 0 16.5 0.5t17.5 0.5q8 0 16 -3.5t8 -13.5q0 -14 -10.5 -18t-21.5 -4q-29 0 -57.5 1.5
t-57.5 1.5q-35 0 -69.5 -2.5t-69.5 -2.5q-10 0 -16.5 6t-6.5 15q0 11 10.5 14t23 3.5t19.5 1.5q31 5 40 26t9 49q0 131 -0.5 261t-0.5 260q0 14 -3.5 30t-12.5 27t-27 11q-8 0 -16.5 -0.5t-16.5 -0.5t-16 6t-8 14q0 16 9 18t22 2q29 0 58.5 -1.5t59.5 -1.5q31 0 62 2.5
t62 2.5q10 0 20.5 -3t10.5 -16q0 -11 -9 -15.5t-18 -4.5q-5 0 -10.5 1t-10.5 1q-23 0 -33.5 -11.5t-13 -29t-2.5 -35.5q0 -61 0.5 -121t-0.5 -121q81 74 159.5 150t150.5 158q3 4 9.5 13.5t13.5 18t8 9.5q2 2 16 2.5t31.5 1.5t33.5 1h23q8 0 18 -2t10 -13q0 -3 -0.5 -6.5
t-2.5 -5.5q-1 -2 -13.5 -5t-26 -6t-18.5 -5q-10 -4 -19.5 -11.5t-18.5 -15.5l-253 -236q64 -76 126 -154.5t128 -152.5q15 -16 30 -33t32 -31q15 -11 35.5 -17t37 -9t19.5 -7q4 -4 4 -10z" />
    <glyph glyph-name="Lambda" unicode="&#x39b;" 
d="M907 17q0 -7 -6.5 -14t-14.5 -7q-31 0 -61.5 1t-60.5 1q-42 0 -83 -1t-82 -1q-5 0 -10.5 7t-5.5 11q0 15 13.5 17t30.5 1.5t30.5 4t13.5 23.5q0 8 -7 28.5t-14.5 42t-11.5 30.5q-44 120 -89 240t-89 240q-6 -15 -20 -52.5t-34 -89.5t-41.5 -111t-43 -116t-38.5 -105.5
t-27.5 -79.5t-10.5 -37q0 -12 16.5 -16t36.5 -3.5t29 0.5q7 0 13 -5.5t6 -12.5t-8 -11.5t-14 -4.5h-210q-7 0 -13.5 5t-6.5 12q0 10 10 16q14 2 29.5 4t27.5 8q14 7 22 20t14 26q5 12 10 23.5t10 23.5q59 149 114 298t109 299q19 5 39 9.5t40 4.5q2 0 6.5 -1.5t5.5 -3.5
l231 -583q8 -20 16 -41t18 -40q14 -26 32.5 -33t36.5 -6.5t30 -1.5t12 -19z" />
    <glyph glyph-name="Mu" unicode="&#x39c;" 
d="M977 715q0 -10 -11.5 -14.5t-19.5 -4.5q-12 0 -24 1.5t-24 1.5q-11 0 -16.5 -4t-11.5 -14l-0.5 -21.5t-0.5 -49.5v-51.5v-28.5v-195q0 -58 0.5 -115t0.5 -115q0 -15 1.5 -30.5t10 -26.5t28.5 -11q10 0 20 1t20 1q7 0 15 -5.5t8 -13.5q0 -17 -11 -19.5t-25 -2.5
q-30 0 -59.5 1.5t-59.5 1.5q-34 0 -69 -2t-70 -2q-9 0 -15.5 5t-6.5 15q0 11 10.5 14.5t23 3.5t19.5 1q31 6 40 26.5t9 48.5v547q-56 -137 -113 -274.5t-111 -275.5q-7 -19 -14.5 -39t-16.5 -39q-16 -8 -33 -8q-11 0 -16 5q-7 7 -12.5 24.5t-10.5 26.5q-63 144 -127 287.5
t-126 287.5q0 -138 -0.5 -276t-0.5 -276q0 -33 9 -46t27 -14.5t44 -1.5q8 0 15.5 -5.5t7.5 -14.5q0 -13 -9.5 -16t-20.5 -3q-16 0 -32 0.5t-32 0.5q-34 0 -67 -2.5t-67 -2.5q-10 0 -17.5 4.5t-7.5 15.5q0 14 15 16t25 2q38 0 47.5 17.5t9.5 51.5q0 141 1.5 282.5t1.5 282.5
q0 32 -31 32q-10 0 -20.5 -1.5t-21.5 -1.5q-10 0 -20.5 4.5t-10.5 16.5q0 7 5.5 13t12.5 6q34 0 67 -1.5t67 -1.5h43.5t43.5 1l247 -561q59 140 116 279.5t110 280.5q56 0 111.5 1.5t110.5 1.5q7 0 13 -8t6 -14z" />
    <glyph glyph-name="Nu" unicode="&#x39d;" 
d="M908 718q0 -12 -9.5 -15t-21.5 -2.5t-20 0.5q-31 0 -41.5 -22t-10.5 -48v-621q0 -8 -11 -10t-23.5 -1.5t-17.5 0.5q-12 22 -27 42t-29 39q-108 143 -218.5 284t-223.5 279v-541q0 -13 3.5 -28.5t13 -26.5t25.5 -11q9 0 18 0.5t19 0.5q8 0 16 -4.5t8 -14.5
q0 -13 -10 -16.5t-20 -3.5q-18 0 -35.5 1t-34.5 1q-34 0 -67 -2t-66 -2q-10 0 -17.5 5t-7.5 16q0 14 10.5 16t25.5 1.5t30 3t25.5 18t10.5 48.5q0 134 1.5 268t1.5 267q0 12 -2 26.5t-8.5 24.5t-22.5 10q-12 0 -23.5 -2t-22.5 -2q-8 0 -20 4.5t-12 14.5q0 7 5.5 14.5
t13.5 7.5q23 0 45 -1.5t45 -1.5q27 0 54.5 1.5t55.5 1.5q110 -133 219.5 -266.5t220.5 -267.5v432q-1 23 -9.5 44.5t-36.5 21.5q-9 0 -17.5 -1t-16.5 -1t-15.5 4t-7.5 13q0 13 9.5 17.5t20.5 4.5q23 0 46 -0.5t47 -0.5q28 0 56 2t56 2q10 0 16.5 -6.5t6.5 -16.5z" />
    <glyph glyph-name="Xi" unicode="&#x39e;" 
d="M841 143q0 -6 -1 -26.5t-2.5 -44.5t-3 -42.5t-3.5 -21.5q-4 -7 -10.5 -8.5t-14.5 -1.5q-76 0 -152.5 2.5t-153.5 2.5q-76 0 -152 -2.5t-152 -2.5q-8 0 -15 1t-12 9q-1 2 -2.5 20.5t-3.5 43t-3 45t-1 25.5q0 11 8 16t17 5q16 0 23 -9.5t12.5 -24t15.5 -30.5t31 -29t60 -18
q43 -6 87 -6.5t87 -0.5q44 0 87.5 0.5t86.5 6.5q38 5 59 18t31.5 29t16.5 30.5t13 24t22 9.5q9 0 17 -4.5t8 -15.5zM727 445q0 -8 -2.5 -28t-6 -39t-7.5 -25q-3 -7 -8 -8.5t-12 -1.5q-20 0 -40 2.5t-40 3.5q-45 3 -90 4t-89 1q-22 0 -50.5 -2t-48.5 -14q-12 -7 -20 -21.5
t-25 -14.5q-4 0 -9 2.5t-5 6.5q0 20 5 42t10 41q4 21 29 21q14 0 27 -2l26 -4q34 -3 68 -3.5t68 -0.5h37.5t48.5 1t46.5 4t31.5 9t18.5 21t21.5 15q4 0 10 -2.5t6 -7.5zM841 588q0 -10 -8.5 -15t-16.5 -5q-15 0 -22 9.5t-13 24t-16.5 30t-31.5 28.5t-59 18q-43 6 -86.5 7
t-87.5 1q-43 0 -87 -1t-87 -7q-38 -5 -59 -18t-31.5 -28.5t-16 -30t-13 -24t-22.5 -9.5q-8 0 -16.5 5t-8.5 15q0 6 1 26t2.5 44.5t3.5 43t3 20.5q6 8 15 9.5t18 1.5q74 0 149 -2.5t149 -2.5q75 0 149.5 2.5t149.5 2.5q8 0 17 -2t15 -10q2 -2 3.5 -20.5t3 -42.5t2.5 -44
t1 -26z" />
    <glyph glyph-name="Omicron" unicode="&#x39f;" 
d="M744 369q0 58 -13 117.5t-41.5 109t-75.5 79.5t-116 30q-66 0 -113.5 -31.5t-77.5 -83t-44.5 -111.5t-14.5 -116q0 -59 13.5 -117.5t43 -106.5t77 -77t116.5 -29t116 30t75.5 79.5t41.5 109t13 117.5zM869 371q0 -117 -43.5 -201.5t-126.5 -130t-201 -45.5
q-114 0 -196.5 45t-126.5 127.5t-44 196.5q0 81 26 150t75 120.5t116.5 80t149.5 28.5q116 0 199 -44.5t127.5 -127.5t44.5 -199z" />
    <glyph glyph-name="Pi" unicode="&#x3a0;" 
d="M890 716q0 -19 -11.5 -20t-24.5 -1q-36 0 -50 -21.5t-14 -54.5q0 -128 0.5 -256t0.5 -256q0 -13 3 -29.5t12 -28.5t27 -12q8 0 16.5 0.5t17.5 0.5q8 0 14.5 -5t6.5 -14q0 -17 -9.5 -19t-23.5 -2q-31 0 -62 1.5t-62 1.5q-28 0 -55.5 -2t-54.5 -2q-9 0 -17.5 2.5t-8.5 13.5
q0 17 12 19t25 2q35 0 44 21.5t9 51.5v519q0 10 -1 25t-7 27t-21 12l-303 2q-19 1 -26.5 -11.5t-8.5 -29t-1 -30.5q0 -128 0.5 -257t0.5 -257q0 -13 3 -30t12.5 -29t26.5 -12q6 0 19 0.5t24.5 -2.5t11.5 -15q0 -16 -8.5 -18t-22.5 -2q-31 0 -61.5 1t-60.5 1q-31 0 -62 -2
t-62 -2q-9 0 -16.5 3.5t-7.5 13.5q0 6 5.5 13t12.5 7q44 0 62 14t18 62q0 128 -0.5 256.5t-0.5 256.5q0 16 -4 33t-14 28.5t-30 11.5q-8 0 -15.5 -1.5t-15.5 -1.5t-14.5 4.5t-6.5 13.5q0 14 9 20t22 6q33 0 65.5 -1.5t66.5 -1.5q77 0 154.5 -0.5t155.5 -0.5h162q26 0 53 0.5
t53 2.5q3 0 6.5 0.5t7.5 0.5q8 0 16 -6t8 -15z" />
    <glyph glyph-name="Rho" unicode="&#x3a1;" 
d="M702 549q0 53 -26.5 86.5t-68.5 49.5t-89 16h-38q-9 0 -29 -1t-37 -6t-17 -18v-276q25 -14 57 -19t60 -5q83 0 135.5 43t52.5 130zM823 550q0 -69 -27.5 -111t-73 -63.5t-100.5 -28.5t-111 -7q-28 0 -56.5 3t-56.5 7q0 -61 0.5 -121.5t0.5 -121.5q0 -15 1.5 -31.5
t10 -27.5t29.5 -11q8 0 16.5 0.5t17.5 0.5q8 0 16.5 -4.5t8.5 -14.5q0 -16 -11.5 -19t-23.5 -3q-28 0 -56.5 1.5t-56.5 1.5q-35 0 -69.5 -2t-69.5 -2q-22 0 -22 20q0 11 8.5 14.5t19.5 4t18 0.5q36 5 45.5 23.5t9.5 51.5q0 116 0.5 231t0.5 230q0 23 -0.5 46t-0.5 45
q0 19 -11.5 25.5t-28 7t-33.5 -0.5t-28.5 2t-11.5 16q0 7 5.5 15t13.5 8q38 0 76 -2t76 -2q56 0 112 2t112 2q44 0 88.5 -9t81 -30.5t58.5 -57t22 -88.5z" />
    <glyph glyph-name="Sigma" unicode="&#x3a3;" 
d="M806 205q0 -7 -2 -27t-4.5 -46t-5.5 -51.5t-6 -44t-5 -23.5q-4 -10 -9.5 -12.5t-16.5 -2.5q-97 0 -194.5 0.5t-195.5 0.5q-44 0 -88.5 -0.5t-88.5 -0.5q-8 0 -16.5 7.5t-8.5 15.5q0 11 7 16.5t14 10.5q17 14 30.5 32t27.5 34q32 37 62 75l60 76q21 26 41.5 53t38.5 55
q-60 83 -119.5 165.5t-124.5 160.5q-4 4 -5 7q-2 6 -2 9q0 9 11 13.5t18 4.5q104 0 209 -0.5t209 2.5q24 1 48.5 2.5t48.5 1.5q10 0 14 -7q2 -2 2 -8q5 -26 9.5 -53t10.5 -53q2 -7 3.5 -13.5t1.5 -13.5q0 -9 -9 -14t-17 -5q-5 0 -10.5 1t-9.5 5q-1 1 -2 5.5t-2 6.5
q-21 56 -58.5 79t-95.5 27q-31 2 -62 2.5t-63 0.5q-24 0 -48 -1t-48 -1q-11 0 -11 -10q0 -5 3 -10l179 -257q4 -5 6.5 -10.5t2.5 -12.5q0 -6 -4 -11t-7 -9q-82 -102 -162 -204q-19 -25 -38.5 -49t-37.5 -49q-2 -4 -4.5 -7t-2.5 -8t8 -5.5t11 -0.5q71 0 142 0.5t141 0.5
q53 0 95.5 33.5t69.5 75.5q8 11 13.5 23t11.5 22q5 8 16 8q5 0 12 -2.5t7 -9.5z" />
    <glyph glyph-name="Tau" unicode="&#x3a4;" 
d="M844 547q0 -7 -9 -10t-14 -3q-7 0 -12 1.5t-9 7.5q-3 5 -6 18t-5.5 27.5t-4.5 21.5q-10 38 -28.5 56t-45 23.5t-61.5 5.5q-10 0 -20.5 0.5t-21.5 0.5q-38 0 -47.5 -16t-9.5 -50q0 -132 1.5 -264.5t1.5 -264.5q0 -25 12 -47t41 -22q10 0 19.5 1t19.5 1q8 0 15.5 -4
t7.5 -13q0 -16 -12.5 -18.5t-24.5 -2.5q-35 0 -69.5 1t-69.5 1q-37 0 -72.5 -1.5t-71.5 -1.5q-9 0 -17 4.5t-8 14.5q0 8 6 12.5t13 4.5q3 0 5.5 -1t5.5 -1q42 0 62 14t20 60q0 89 -0.5 178.5t-0.5 179.5v138q0 16 0.5 32t-0.5 32q-1 17 -6 23t-22 8q-12 2 -23.5 2h-23.5
q-32 0 -59.5 -0.5t-48 -13t-32.5 -49.5q-6 -19 -9 -38.5t-8 -38.5q-3 -10 -9.5 -16.5t-16.5 -6.5q-6 0 -12.5 4t-6.5 10q0 29 1.5 57.5t2.5 56.5q1 17 2 35t5 34q4 5 14 5q20 0 40 -1l40 -2q66 -3 134 -3q81 0 162.5 1t163.5 4q26 1 52.5 2t53.5 1q6 -4 7 -9q2 -4 3.5 -29
t3 -57t2 -59t0.5 -36z" />
    <glyph glyph-name="Upsilon" unicode="&#x3a5;" 
d="M874 718q0 -7 -6.5 -13t-13.5 -6q-12 0 -24 -0.5t-24 -3.5q-13 -3 -23.5 -11.5t-18.5 -18.5q-12 -15 -22 -31.5t-21 -33.5q-11 -16 -31 -44.5t-43.5 -62.5t-44.5 -68t-34.5 -62.5t-13.5 -45.5q0 -52 -1 -103.5t-1 -103.5q0 -14 4 -31t14 -29t28 -12q10 0 19.5 1t19.5 1
q7 0 16 -4.5t9 -13.5q0 -14 -9.5 -18.5t-21.5 -4.5q-34 0 -66.5 1.5t-65.5 1.5q-35 0 -70 -2.5t-70 -2.5q-10 0 -18 4.5t-8 15.5q0 8 7 13t14 5q41 0 59 10.5t22 33.5t4 60v51.5t-1 50.5q-1 43 -10.5 75t-27.5 70q-31 65 -70 127t-78 123l-14 20t-15 18q-10 10 -23.5 16
t-27.5 6q-7 0 -13.5 -1t-13.5 -1q-5 0 -11.5 4t-6.5 10t3 9q3 5 25 8.5t50.5 6.5t52.5 4.5t33 1.5q24 0 39 -23q55 -81 100.5 -168t88.5 -175q29 47 58 94.5t58 94.5q17 28 34.5 55.5t30.5 57.5q2 4 3.5 8.5t1.5 9.5q0 10 -12 10q-14 0 -27.5 -0.5t-27.5 -0.5q-6 0 -12.5 4
t-6.5 11q0 8 6.5 13t13.5 5h103q27 0 54.5 1t55.5 1q6 0 14 -5.5t8 -12.5z" />
    <glyph glyph-name="Phi" unicode="&#x3a6;" 
d="M454 581q-66 -7 -117.5 -34.5t-81 -75.5t-29.5 -119t29.5 -118t81 -72.5t117.5 -32.5v452zM774 357q0 68 -28 115.5t-77 75.5t-113 36v-144v-152.5v-152.5q97 11 157.5 65t60.5 157zM895 358q0 -70 -30.5 -118t-80 -77.5t-109 -44t-118.5 -18.5v-16q-1 -23 7.5 -42.5
t36.5 -19.5q8 0 16.5 1.5t17.5 1.5q6 0 12 -4.5t6 -11.5q0 -13 -8.5 -16t-19.5 -3q-34 0 -67.5 1t-67.5 1h-20.5h-21.5q-13 -1 -27 -1t-28 -2q-2 0 -5 -0.5t-5 -0.5q-9 0 -16 4t-7 14q0 14 7.5 14h17.5q36 0 53.5 11.5t17.5 51.5v17q-61 1 -122.5 14.5t-113 43.5t-83 79
t-31.5 121q0 69 32 118t84 80t113 46t120 16q0 16 -2 36.5t-10.5 36t-30.5 15.5q-9 0 -17.5 -1.5t-16.5 -1.5q-7 0 -13 4.5t-6 11.5q0 14 8 17t20 3q29 0 57 -0.5t57 -0.5t58.5 -0.5t58.5 2.5q2 0 4.5 0.5t5.5 0.5q9 0 18 -3t9 -14q0 -14 -10.5 -15.5t-20.5 -1.5
q-47 0 -58 -24t-11 -65q57 -5 116.5 -21t110 -46.5t82 -77.5t31.5 -115z" />
    <glyph glyph-name="Chi" unicode="&#x3a7;" 
d="M905 13q0 -7 -8 -11.5t-14 -4.5q-46 0 -91.5 0.5t-91.5 0.5h-5h-6q-14 3 -18 9.5t-11 18.5q-40 73 -87 142l-94 138q-7 -10 -26.5 -37.5t-45 -63t-49 -70.5t-39.5 -59t-16 -28q0 -13 16.5 -17t36.5 -3.5t29 0.5q5 0 11.5 -5.5t6.5 -11.5q0 -5 -7 -9t-12 -4q-30 0 -60 1.5
t-60 1.5q-37 0 -73 -1.5t-73 -1.5q-6 0 -14 4.5t-8 11.5q0 14 16 15t26 1q25 0 43 3.5t37 19.5q19 15 33 35t29 39q43 53 86 106.5t82 109.5q-53 80 -106 159l-106 158q-3 5 -5.5 9.5t-7.5 8.5q-4 5 -13 7.5t-16 2.5q-13 0 -25 -1t-25 -1q-7 0 -14 6t-7 14t13 12
q11 4 23.5 5t24.5 2q31 3 61.5 7.5t61.5 4.5q12 0 24 -7q2 -1 14.5 -21.5t31.5 -52t40.5 -67.5t42 -70t35.5 -59t20 -34q34 50 67 99.5t62 101.5q3 5 10.5 19.5t14 29t6.5 17.5q0 8 -5.5 10.5t-13.5 2.5t-17 -1t-18 -1q-8 0 -19 2.5t-11 13.5q0 6 6.5 11t11.5 5q13 0 26 -1
t26 -1q29 0 57.5 0.5t56.5 1.5q15 1 29.5 1.5t28.5 0.5q8 0 17 -5.5t9 -13.5q0 -17 -14 -17h-25q-13 0 -25.5 -1.5t-23.5 -7.5q-7 -4 -19.5 -17.5t-24 -27.5t-17.5 -22q-43 -58 -84.5 -117t-84.5 -118q32 -46 63.5 -92t64.5 -92q27 -37 54.5 -74.5t59.5 -70.5
q23 -23 45.5 -27.5t52.5 -4.5q8 0 16 -4t8 -13z" />
    <glyph glyph-name="Psi" unicode="&#x3a8;" 
d="M924 697q0 -7 -8 -11t-13 -4q-13 0 -24 4.5t-22 4.5t-13 -8t-2 -16v-208q0 -50 -28.5 -92t-69.5 -68q-43 -27 -92 -35.5t-98 -13.5v-152q-1 -25 9 -46t40 -21q7 0 14 0.5t14 0.5t13 -4.5t6 -12.5q0 -13 -8 -15.5t-18 -2.5q-31 0 -61.5 1.5t-60.5 1.5h-34t-34 -2l-24 -2
t-24 -1q-10 0 -18 4t-8 15q0 5 1 8.5t5 6.5q44 0 65.5 12t20.5 62h3v146q-50 4 -105 12.5t-98 37.5q-39 26 -63.5 69t-24.5 91l-3 200q-1 10 -3 21t-15 11q-10 0 -21.5 -4.5t-23.5 -4.5q-6 0 -13.5 4t-7.5 11q0 6 2.5 8.5t6.5 5.5q23 13 58.5 21.5t62.5 8.5q36 0 49 -13.5
t13 -48.5q0 -30 -0.5 -59.5t-0.5 -59.5v-44t1 -44q5 -90 51 -134t135 -49v344q-1 20 -10 42t-32 22q-7 0 -13.5 -1t-12.5 -1q-8 0 -14 3.5t-6 12.5q0 14 8.5 17.5t20.5 3.5q26 0 52 -1.5t52 -1.5t51 1.5t50 3.5q5 0 9.5 0.5t9.5 0.5q8 0 15 -4.5t7 -13.5q0 -15 -10 -17.5
t-22 -2.5q-23 0 -40 -11.5t-16 -37.5v-358q83 9 131 51.5t48 130.5v84q0 32 -1.5 64.5t-1.5 64.5q0 31 21.5 43.5t49.5 12.5q27 0 58 -8.5t55 -21.5q5 -3 7.5 -5.5t2.5 -8.5z" />
    <glyph glyph-name="Omega" unicode="&#x3a9;" 
d="M895 106q0 -4 -2 -8q-5 -16 -9 -32.5t-12 -32.5q-11 -22 -23 -28.5t-37 -6.5h-252v102q62 21 102 67.5t60 106.5t20 121q0 53 -15.5 107t-45.5 99t-75 72.5t-105 27.5q-61 0 -107.5 -27t-77 -72t-46 -99.5t-15.5 -109.5q0 -60 19.5 -118t60 -101t103.5 -60v-116h-258
q-20 0 -29.5 5t-19.5 23q-1 2 -5 14t-9 26.5t-8.5 26t-3.5 12.5q0 5 8.5 10t12.5 5q12 0 20 -9.5t15.5 -22t18 -22t28.5 -9.5h165v22q-69 21 -121 71.5t-80.5 118t-28.5 137.5q0 69 29.5 130.5t79.5 108.5t113.5 73.5t131.5 26.5q74 0 139 -24t115.5 -69t79 -107.5
t28.5 -138.5q0 -72 -27.5 -139.5t-79.5 -117.5t-124 -70v-22h12q38 0 76 0.5t76 0.5q17 0 28 9.5t19 22t16 22t20 9.5q5 0 12.5 -5t7.5 -10z" />
    <glyph glyph-name="alpha" unicode="&#x3b1;" 
d="M556 221q-1 38 -3 75.5t-5 74.5q-1 13 -3.5 36.5t-8 48t-16.5 41.5t-29 17q-16 0 -28 -5.5t-25 -13.5q-32 -21 -56 -60t-40 -86t-24 -93.5t-8 -82.5q0 -22 8 -52t25 -53t45 -23q25 0 50.5 19.5t48 49t40.5 59t29 48.5zM790 78q0 -7 -7 -14q-22 -29 -50.5 -46t-66.5 -17
q-31 0 -50.5 21t-29.5 50t-15 54q-39 -54 -86.5 -89t-118.5 -35q-53 0 -88.5 24.5t-52.5 65.5t-17 90q0 60 20 123.5t58.5 117.5t92.5 87t121 33q36 0 59.5 -16.5t38 -43t21.5 -58t10 -60.5q14 45 26 90l24 90l85 -25q-24 -76 -55 -149t-70 -142q1 -13 3.5 -42t8.5 -61.5
t17 -55.5t29 -23q16 0 29.5 11.5t24.5 23t21 11.5q5 0 11.5 -4.5t6.5 -10.5z" />
    <glyph glyph-name="beta" unicode="&#x3b2;" 
d="M684 212q0 52 -23 92.5t-71 62.5q-11 5 -22.5 8.5t-23.5 5.5q-10 2 -19.5 1.5t-18.5 1.5q-6 2 -6 9q0 5 5.5 15t11.5 10t12 -1.5t13 -1.5q3 0 7 2q39 11 65 40.5t39 68.5t13 76q0 25 -9 50t-27.5 42t-47.5 17q-39 0 -65.5 -23t-42 -57.5t-21.5 -67.5
q-19 -106 -37.5 -211.5t-34.5 -212.5q17 -22 42 -46.5t55 -41.5t61 -17q47 0 79 27t49 68t17 83zM786 197q0 -41 -18 -79t-48 -66q-40 -38 -81.5 -47.5t-94.5 -9.5q-30 0 -62.5 11.5t-62 29.5t-51.5 37q-10 -48 -20.5 -96.5t-20.5 -97.5h-102q24 102 46 203.5t41 204.5
q8 49 18 97.5t19 97.5q2 15 4.5 30.5t6.5 30.5q20 96 69 146t152 50q47 0 90 -16.5t70.5 -50.5t27.5 -87q0 -41 -22 -75t-55.5 -58.5t-69.5 -39.5q-4 -1 -16 -6t-12 -10q0 -4 9.5 -7t13.5 -5q46 -15 84 -38t61.5 -59t23.5 -90z" />
    <glyph glyph-name="gamma" unicode="&#x3b3;" 
d="M757 514q0 -10 -11.5 -15t-18.5 -8q-65 -26 -115.5 -70.5t-90.5 -100.5q-8 -11 -16 -22.5t-14 -24.5q-13 -25 -16.5 -53.5t-8.5 -56.5q-8 -46 -19.5 -91.5t-28.5 -89.5q-4 -13 -16 -33t-27.5 -35.5t-31.5 -15.5q-28 0 -38 11t-10 38q0 36 13.5 79t32 85.5t32.5 75.5
q6 15 13 30t13 31q3 12 3 24q0 8 -1 17t-1 18q0 20 -2.5 53.5t-10 68t-23.5 58.5t-44 24q-18 0 -38.5 -11.5t-38.5 -27t-30 -28.5l-1 -1l-2 -2q-3 -2 -11 -2q-10 0 -16.5 12.5t-6.5 20.5q0 18 15.5 32t38.5 24t46 15t38 5q58 0 90.5 -25.5t47 -67t17.5 -91.5q21 33 52 69
t67 66t73 43q4 2 7.5 2h6.5q9 0 28.5 -2.5t36.5 -9t17 -18.5z" />
    <glyph glyph-name="delta" unicode="&#x3b4;" 
d="M671 310q0 41 -15 82.5t-45.5 69.5t-77.5 28q-49 0 -88 -25.5t-65.5 -66.5t-40.5 -88t-14 -90q0 -30 9.5 -63t27.5 -62t44.5 -47t60.5 -18q53 0 91.5 26.5t63.5 69t37 91t12 93.5zM776 304q0 -89 -38.5 -158.5t-107 -109t-158.5 -39.5q-116 0 -182 56.5t-66 176.5
q0 63 26 112.5t70 85.5t98 58t110 31q-16 10 -39 22.5t-45.5 27.5t-37.5 33.5t-15 40.5q0 29 15 48t39 30t51 15.5t50 4.5q47 0 99.5 -10.5t90.5 -42.5q6 -4 14.5 -13t8.5 -18q0 -8 -4 -22.5t-11.5 -26.5t-18.5 -12q-4 0 -9 1t-9 4q-7 7 -14 15.5t-14 15.5q-16 17 -40.5 35
t-51.5 30.5t-52 12.5q-22 0 -39 -17t-17 -39q0 -29 21.5 -49.5t55.5 -38.5t71.5 -38.5t71.5 -49.5t55.5 -70.5t21.5 -101.5z" />
    <glyph glyph-name="epsilon" unicode="&#x3b5;" 
d="M709 84q0 -6 -3 -10t-8 -9q-23 -23 -59.5 -38t-75.5 -22t-72 -7q-28 0 -63 6t-67 20.5t-53 38.5t-21 60q0 47 25.5 81t64 57t76.5 38q-25 12 -50 27.5t-41 38.5t-16 54q0 14 4 26.5t11 24.5q26 43 74.5 58.5t95.5 15.5q13 0 37 -2.5t49.5 -9.5t43 -18.5t17.5 -29.5
q0 -11 -13.5 -22.5t-23.5 -11.5t-24.5 15.5t-33.5 31t-43 15.5q-46 0 -72 -28t-26 -74q0 -22 8.5 -44.5t25.5 -38t42 -15.5q7 0 27 7.5t36 7.5q8 0 19 -6t11 -16q0 -18 -15 -22t-29 -4q-7 0 -14 0.5t-14 0.5q-67 0 -109 -33.5t-42 -104.5q0 -55 35.5 -79.5t86.5 -24.5
q40 0 82 18t75 39q2 2 6 4q6 3 14 3q7 0 14.5 -5.5t7.5 -12.5z" />
    <glyph glyph-name="zeta" unicode="&#x3b6;" 
d="M782 692q0 -12 -11 -24t-21 -17q-22 -13 -47.5 -19t-47.5 -20q-52 -34 -100 -74.5t-89 -86.5q-29 -34 -59 -77.5t-49.5 -90.5t-19.5 -94q0 -42 17 -64.5t45.5 -31.5t64.5 -13q32 -4 64 -4h64h39.5t38.5 -2q42 -3 75 -28t33 -71q0 -30 -14.5 -49t-38 -29t-50 -13.5
t-50.5 -3.5q-9 0 -30 1t-43.5 4t-39 10t-16.5 19q0 8 10 14t16 6q4 0 7 -0.5t6 -1.5q22 -8 43 -16t44 -8q16 0 36.5 5.5t36.5 18t16 31.5q0 16 -15 28t-34.5 18.5t-33.5 6.5q-43 0 -86.5 -0.5t-86.5 -0.5q-39 0 -80.5 3t-77.5 15.5t-58.5 41.5t-22.5 80q0 39 18.5 83
t44.5 85.5t50 70.5q49 61 105.5 115.5t116.5 103.5q-34 -7 -69.5 -10.5t-70.5 -3.5q-24 0 -54 5t-51.5 21t-21.5 48q0 19 11.5 43t30.5 42t40 18q3 0 9.5 -1.5t6.5 -6.5q0 -6 -6 -20.5t-6 -28.5q0 -30 16 -49t41 -27.5t51 -8.5q23 0 47 0.5t45 7.5q19 17 44.5 36.5t54 34
t53.5 14.5q11 0 25 -2.5t24 -10t10 -22.5z" />
    <glyph glyph-name="eta" unicode="&#x3b7;" 
d="M777 392q0 -37 -5.5 -73t-10.5 -71q-15 -91 -33 -181t-33 -181h-102q15 89 33.5 176.5t33.5 175.5q7 41 12 82.5t5 83.5q0 38 -18.5 69.5t-61.5 31.5q-29 0 -55 -21t-47 -52.5t-35.5 -64.5t-20.5 -57q-7 -31 -12.5 -61.5t-10.5 -61.5q-7 -47 -16 -94.5t-16 -94.5l-98 4
q35 165 66 330q5 29 10 57t5 56q0 11 -1 24.5t-6.5 24t-20.5 10.5q-22 0 -37 -14.5t-28.5 -29t-29.5 -14.5q-8 0 -17 8t-9 16q0 6 2 9.5t6 7.5q25 24 59.5 37.5t68.5 13.5q37 0 61.5 -18.5t31.5 -54.5q38 38 82 57.5t98 19.5q150 0 150 -150z" />
    <glyph glyph-name="theta" unicode="&#x3b8;" 
d="M319 345q-3 -46 -3 -92q0 -33 6.5 -71.5t22.5 -73t43.5 -56t69.5 -21.5t74.5 21.5t57 57t42 77.5t28.5 83.5t16 74.5h-357zM681 465q0 31 -7 71t-22.5 77.5t-42.5 62t-67 24.5q-39 0 -70.5 -21.5t-56.5 -56.5t-43.5 -76.5t-30.5 -81.5t-19 -71h356q3 36 3 72zM793 430
q0 -81 -20.5 -158.5t-63 -140t-108 -99.5t-156.5 -37q-66 0 -111.5 24t-73.5 65.5t-40.5 94t-12.5 110.5q0 77 20.5 155t63 143.5t107 105t152.5 39.5q65 0 111.5 -25.5t75.5 -68.5t42.5 -97t13.5 -111z" />
    <glyph glyph-name="iota" unicode="&#x3b9;" 
d="M664 108q0 -8 -4 -13.5t-9 -11.5q-31 -37 -77 -62t-95 -25q-34 0 -67 12t-54.5 37.5t-21.5 63.5q0 26 3.5 52t8.5 51q15 83 34 166t34 167l107 -4q-14 -60 -28.5 -119.5t-28.5 -118.5q-10 -44 -21 -88t-11 -90q0 -17 5 -36t17.5 -32.5t33.5 -13.5q23 0 45.5 12.5t43 29
t37 29t26.5 12.5q8 0 15 -5t7 -13z" />
    <glyph glyph-name="kappa" unicode="&#x3ba;" 
d="M747 100q0 -6 -4 -14q-20 -40 -49.5 -66.5t-77.5 -26.5q-27 0 -48.5 9t-37.5 31q-8 11 -16.5 33t-15.5 48t-12 50t-8 38q-3 15 -6 29.5t-9 28.5q-4 11 -10 20.5t-20 9.5q-15 0 -26 -9.5t-20 -20.5l-16 -132t-17 -131h-98q22 136 41 272.5t38 272.5h95q-10 -55 -18.5 -110
t-16.5 -111q37 35 83.5 76t96 77.5t95.5 57.5q8 3 17 3q8 0 20.5 -5.5t22 -14.5t9.5 -18q0 -7 -8.5 -13t-18.5 -9.5t-15 -5.5q-65 -25 -124.5 -65t-114.5 -82q33 -1 52.5 -9t33.5 -40q17 -39 21.5 -82t17.5 -84q3 -9 10 -24.5t17 -28.5t21 -13q19 0 32.5 11.5t23.5 27t19 27
t19 11.5q6 0 14 -5.5t8 -12.5z" />
    <glyph glyph-name="lambda" unicode="&#x3bb;" 
d="M806 120q0 -10 -6 -17.5t-12 -15.5q-15 -18 -40.5 -39t-54 -36.5t-53.5 -15.5q-47 0 -72 22.5t-35.5 58t-13 74.5t-4.5 73q-3 36 -5 72l-4 72q-55 -93 -110 -186.5t-112 -185.5q-16 0 -31.5 -0.5t-31.5 -0.5q-4 0 -16.5 1.5t-12.5 8.5q0 6 3.5 11t7.5 9q36 45 65 96
t58 100q42 72 84.5 143.5t83.5 144.5q0 16 -2.5 46t-9 61.5t-20 53.5t-36.5 22t-46 -13.5t-41.5 -27.5t-27.5 -14q-4 0 -8.5 3t-4.5 7q0 16 16.5 32.5t40 30.5t47 23t37.5 9q48 0 77.5 -16t46.5 -63q16 -41 19.5 -91.5t4.5 -94.5q4 -71 9.5 -142.5t9.5 -142.5q2 -19 3 -37.5
t5 -37.5q5 -19 16.5 -41t36.5 -22q14 0 31 12t34.5 27t33 27t25.5 12q5 0 10 -3.5t5 -8.5z" />
    <glyph glyph-name="mu" unicode="&#x3bc;" 
d="M814 97q0 -16 -15.5 -33t-38.5 -31t-45.5 -22.5t-37.5 -8.5q-36 0 -54.5 22t-24.5 54q-28 -34 -63 -54.5t-81 -20.5q-57 0 -86 37t-39 87q-3 -14 -10 -45.5t-15.5 -67.5t-17 -65t-14.5 -39q-20 -31 -53 -31q-14 0 -24.5 9t-10.5 24q0 13 9 35t19.5 44.5t16.5 35.5
q20 45 40 91.5t36 93.5q10 29 15.5 59.5t12.5 61.5l20 104t14 105h103q-16 -80 -33.5 -160t-33.5 -160q-4 -21 -6.5 -42t-2.5 -43q0 -19 8.5 -41.5t24.5 -38.5t38 -16q28 0 51 16t40 41t28.5 53t16.5 51q5 25 8.5 49.5t7.5 48.5l43 243h106q-22 -101 -43 -202t-40 -202
q-2 -14 -3.5 -28t-1.5 -28q0 -13 4 -24t20 -11q18 0 36 15t34 30t26 15q3 0 9.5 -3t6.5 -8z" />
    <glyph glyph-name="nu" unicode="&#x3bd;" 
d="M765 474q0 -55 -14.5 -116t-40.5 -118t-63 -99q-34 -40 -83 -72.5t-103.5 -52t-108.5 -21.5q6 92 10.5 184t4.5 185q0 12 -1 32.5t-5.5 42t-14 36t-27.5 14.5q-14 0 -30 -8.5t-37 -8.5q-4 0 -10 2t-6 6q0 5 5 7q22 19 53.5 34t60.5 15q35 0 55 -18t29 -46t11.5 -58.5
t2.5 -56.5q0 -79 -3.5 -157.5t-8.5 -156.5q10 3 19.5 7t18.5 9q96 56 141.5 146.5t58.5 196.5q0 4 0.5 7t0.5 6q0 34 -11 47.5t-40 29.5v1v2q0 9 9 19.5t20.5 19t18.5 11.5q5 2 11 2h12q31 0 48 -22t17 -51z" />
    <glyph glyph-name="xi" unicode="&#x3be;" 
d="M792 35q0 -44 -27 -75.5t-66.5 -50t-77.5 -24.5q-34 -6 -68 -6q-5 0 -19 1.5t-26 5.5t-12 10q0 5 14.5 7t31 3.5t22.5 2.5q27 3 57 12t51.5 28.5t21.5 52.5q0 17 -16.5 25t-30.5 8q-22 0 -44.5 -4.5t-44.5 -8.5q-32 -6 -65 -10.5t-65 -4.5q-48 0 -93 7.5t-83 40.5
q-19 17 -31 39.5t-12 48.5q0 45 28.5 83.5t72 69.5t90.5 53.5t83 35.5q-15 7 -35 9.5t-39 7t-32 16t-13 35.5q0 26 16 51.5t40 49t49 43t44 32.5q-23 -2 -47 -4t-47 -2q-19 0 -45.5 2t-46.5 13.5t-20 37.5q0 7 1.5 16t3.5 15q3 8 11.5 18.5t19.5 18.5t19 8q4 0 12 -2.5
t8 -8.5q0 -12 -7.5 -22.5t-7.5 -22.5q0 -22 15.5 -32t36.5 -12t37 -2q26 0 51.5 2t49.5 12q23 9 42 21.5t39.5 22t46.5 9.5q13 0 28.5 -11t15.5 -25q0 -15 -12 -23t-24 -13q-56 -22 -113.5 -43t-105.5 -60q-16 -13 -32.5 -32t-16.5 -41q0 -24 20 -37.5t46 -19.5t44 -8
q10 5 28.5 11t37.5 10.5t29 4.5q8 0 21 -6.5t23.5 -16t10.5 -18.5q0 -12 -10 -18.5t-23.5 -9t-22.5 -3.5q-37 -4 -74 -9.5t-74 -14.5q-27 -7 -59.5 -21t-62 -34.5t-48.5 -48t-19 -60.5q0 -30 13.5 -46t35.5 -23t47 -11q17 -3 35 -4t36 -1q59 0 118.5 8t120.5 8
q24 0 45.5 -4.5t35 -18.5t13.5 -43z" />
    <glyph glyph-name="omicron" unicode="&#x3bf;" 
d="M667 300q0 47 -16 93.5t-50 77t-88 30.5q-48 0 -82.5 -25t-56.5 -65t-33 -85t-11 -85q0 -35 8.5 -71.5t26.5 -67t47 -49.5t70 -19q50 0 85 25.5t57 66.5t32.5 87t10.5 87zM783 299q0 -90 -39 -157.5t-108 -105t-159 -37.5q-76 0 -135 27.5t-93 81.5t-34 133
q0 91 38.5 157.5t107 103t158.5 36.5q74 0 133.5 -27t95 -80.5t35.5 -131.5z" />
    <glyph glyph-name="pi" unicode="&#x3c0;" 
d="M848 157q0 -7 -3 -12.5t-7 -10.5q-37 -51 -95.5 -86.5t-122.5 -35.5q-59 0 -91 21.5t-32 85.5q0 14 2 26.5t4 25.5q14 74 27 147.5t27 146.5h-51.5t-51.5 1q-9 -39 -17 -77.5t-16 -77.5q-12 -57 -28.5 -114.5t-57.5 -102.5q-19 -20 -41.5 -37.5t-47.5 -31.5
q-12 -7 -35 -17.5t-37 -10.5q-4 0 -13 1.5t-9 8.5q0 6 10 10.5t14 6.5q40 20 68 58t44 78q30 73 44.5 149.5t27.5 152.5q-30 -1 -60.5 -4.5t-56.5 -19.5q-16 -10 -26 -20t-32 -12l-4 2v1q6 14 16.5 33.5t24.5 36.5t28 21q19 6 43 7t43 1q79 0 158 -2t158 -2q26 0 52.5 1.5
t52.5 2.5q17 2 34.5 4t34.5 2q2 0 9.5 -0.5t7.5 -5.5q0 -1 -4.5 -13t-9.5 -23.5t-6 -13.5q-6 -6 -16 -6q-20 0 -40 3q-25 2 -50.5 3t-51.5 2q-21 -76 -41 -152t-31 -153q-1 -6 -1.5 -12.5t-0.5 -12.5q0 -29 11.5 -50.5t45.5 -21.5q28 0 57.5 16.5t55.5 39.5t42 44q2 2 5 6
t6 5q7 4 16 4q5 0 11.5 -5t6.5 -11z" />
    <glyph glyph-name="rho" unicode="&#x3c1;" 
d="M706 284q0 45 -15.5 87.5t-47.5 70.5t-83 28q-45 0 -77.5 -23t-54 -59t-32 -77.5t-10.5 -79.5q0 -44 15 -87t47 -71t83 -28q45 0 78 22.5t54.5 58.5t32 77.5t10.5 80.5zM813 282q0 -85 -35 -147.5t-97.5 -97t-147.5 -34.5q-143 0 -206 126q-11 -62 -19.5 -125t-15.5 -126
h-105q8 62 19.5 122.5t24.5 121.5q15 71 36.5 139t57.5 124t93.5 89t144.5 33q70 0 126.5 -25t90 -75t33.5 -125z" />
    <glyph glyph-name="sigma" unicode="&#x3c3;" 
d="M609 292q0 46 -15.5 90.5t-48 74.5t-85.5 30q-46 0 -79.5 -25t-55 -64t-32 -82.5t-10.5 -81.5q0 -45 15 -90t47.5 -75t84.5 -30q48 0 82 24t55.5 62.5t31.5 82.5t10 84zM826 518q0 -2 -2 -6q-17 -31 -34 -45.5t-55 -14.5q-31 0 -60.5 6t-59.5 10q47 -33 74.5 -76
t27.5 -102q0 -91 -38.5 -154.5t-106 -96.5t-156.5 -33q-70 0 -124.5 27t-86 78t-31.5 123q0 88 37 152t102.5 99t152.5 35q21 0 42 -2t42 -5q41 -6 82 -10.5t82 -4.5q20 0 38 8t32.5 16t21.5 8q5 0 12.5 -3t7.5 -9z" />
    <glyph glyph-name="tau" unicode="&#x3c4;" 
d="M758 500q-1 -3 -5.5 -15t-8.5 -23t-5 -12q-7 -6 -17 -6q-19 0 -37.5 1.5t-37.5 2.5q-25 2 -50 2h-51q-22 -75 -41.5 -151t-30.5 -153q-1 -6 -1.5 -12.5t-0.5 -12.5q0 -31 12.5 -52t46.5 -21q28 0 57 17t55 40.5t42 43.5q4 7 8 9q8 6 18 6q6 0 12 -5t6 -11q0 -7 -3 -12.5
t-7 -10.5q-38 -50 -95.5 -86t-122.5 -36q-59 0 -91 21.5t-32 85.5q0 14 2 26.5t4 25.5q14 74 31 147t31 146q-19 0 -46 -0.5t-52.5 -3.5t-42.5 -13q-18 -10 -27 -20.5t-33 -11.5l-3 3q5 13 8.5 26t11.5 24q9 14 28.5 27.5t35.5 13.5q22 0 43.5 1t43.5 1q44 0 87 -2.5
t86 -2.5q35 0 70.5 2t69.5 6q5 0 9 0.5t8 0.5t9 -1t6 -5z" />
    <glyph glyph-name="upsilon" unicode="&#x3c5;" 
d="M755 444v-7.5t-1 -7.5q-6 -48 -20 -105t-37.5 -113.5t-57.5 -103.5t-80 -75.5t-106 -28.5q-33 0 -65.5 10.5t-53.5 33.5t-21 62q0 8 0.5 16.5t1.5 16.5q5 57 9 113.5t8 113.5q1 8 1 15v14q0 18 -4.5 38t-28.5 20q-8 0 -17.5 -6.5t-24.5 -6.5q-3 0 -8 2t-5 6q0 10 14 19
t33.5 15.5t37 10.5t25.5 4q42 0 54 -22t12 -59q0 -38 -4.5 -85.5t-9.5 -86.5l-8 -68t-4 -69q0 -30 16 -51.5t48 -21.5q26 0 50 17t44.5 43.5t35.5 54t23 48.5q12 31 22 71t16.5 81.5t6.5 73.5q0 27 -14.5 38t-37.5 18q1 24 23.5 34.5t42.5 10.5q39 0 61.5 -21.5t22.5 -61.5z
" />
    <glyph glyph-name="phi" unicode="&#x3c6;" 
d="M494 474q-95 -24 -149.5 -91t-54.5 -167q0 -70 35 -114t102 -64q20 108 36.5 217.5t30.5 218.5zM714 299q0 62 -31.5 109.5t-93.5 63.5q-16 -109 -34 -217.5t-35 -218.5q95 25 144.5 96.5t49.5 166.5zM820 282q0 -63 -25 -114t-68.5 -87.5t-98.5 -56.5t-114 -23
q-4 -31 -10 -61t-11 -60h-100q8 30 15 60t13 61q-61 8 -116 34t-89.5 72.5t-34.5 114.5q0 66 27.5 116.5t73.5 85.5t103 55t116 25q6 52 12 103.5t10 103.5h113q-14 -50 -23.5 -101.5t-19.5 -102.5q63 -10 114.5 -36.5t82 -72.5t30.5 -116z" />
    <glyph glyph-name="chi" unicode="&#x3c7;" 
d="M790 7q0 -4 -1 -7t-3 -6q-14 -26 -38 -54t-54.5 -47.5t-62.5 -19.5q-25 0 -43 15.5t-31 39.5t-22 49t-15 44q-9 29 -18.5 58t-17.5 57q-45 -61 -88.5 -124t-89.5 -125h-98q62 81 126 160t122 162q-9 31 -20 60.5t-23 59.5q-8 22 -15.5 44t-17.5 43q-5 12 -12.5 26
t-23.5 14q-15 0 -30.5 -9t-29.5 -18.5t-27 -9.5q-2 0 -7 1t-5 5q0 9 6 16t12 13q20 21 47.5 41.5t58.5 20.5q35 0 52 -9.5t32 -41.5q8 -14 11.5 -30t6.5 -32q8 -35 14.5 -71t15.5 -71q38 59 75 118.5t70 121.5h128q-60 -80 -120.5 -160t-122.5 -159q10 -30 23 -70t29 -78
t32 -64q8 -13 17.5 -24t25.5 -11q19 0 35.5 12.5t30.5 28.5t26.5 28.5t24.5 12.5q3 0 9 -3t6 -7z" />
    <glyph glyph-name="psi" unicode="&#x3c8;" 
d="M832 427q0 -79 -13.5 -149.5t-46.5 -127t-91 -93t-146 -47.5q-5 -32 -11 -64.5t-11 -64.5q-25 -1 -50 -1h-51q7 32 14 63t12 62q-55 8 -100.5 27t-72 56.5t-26.5 100.5q0 46 8 91.5t17 90.5q4 20 8 40.5t4 40.5q0 6 -1.5 17.5t-11.5 11.5q-20 0 -45 -13.5t-42 -24.5l-8 8
q3 14 18 28t36.5 25t42 17.5t33.5 6.5q27 0 52.5 -14t25.5 -46q0 -19 -3 -38.5t-7 -38.5q-11 -58 -21.5 -115t-10.5 -116q0 -51 31 -82.5t79 -40.5q26 174 51.5 348.5t42.5 349.5h112q-29 -172 -56.5 -345.5t-53.5 -346.5q37 13 67 31t55 50q44 58 57 132t13 144
q0 17 -5 32.5t-23 23.5q14 16 35 27t42 11q29 0 40 -20.5t11 -46.5z" />
    <glyph glyph-name="omega" unicode="&#x3c9;" 
d="M867 338q0 -56 -17 -114t-50.5 -106.5t-82 -78.5t-111.5 -30q-51 0 -82 26t-49 72q-28 -49 -69.5 -75t-99.5 -26q-55 0 -94 26.5t-59 70t-20 95.5q0 86 43 161.5t107 129.5q10 8 19.5 14t22.5 6q5 0 11.5 -3.5t6.5 -8.5q0 -10 -6 -18l-12 -16q-49 -59 -73 -123t-24 -142
q0 -18 5 -44t15.5 -51t27 -42t40.5 -17q32 0 55 21.5t39.5 56t27 74t16.5 75t8 59.5q1 9 1.5 19t2.5 19q5 20 20.5 31t35.5 11q12 0 26.5 -7t14.5 -22q0 -25 -7.5 -49.5t-12.5 -49.5q-9 -51 -9 -104q0 -25 8 -54.5t26.5 -50.5t49.5 -21q32 0 55 25.5t39.5 66t26.5 85
t14.5 84.5t4.5 63q0 22 -5 45t-18.5 40t-39.5 22q4 19 23.5 27.5t35.5 8.5q37 0 59.5 -17t34 -45t15.5 -59t4 -60z" />
    <glyph glyph-name="Iocy" unicode="&#x401;" 
d="M817 189q0 -10 -1.5 -19.5t-3.5 -18.5q-3 -20 -6 -39.5t-5 -39.5l-2 -30t-5 -29q-3 -10 -9.5 -13t-16.5 -3q-90 0 -180 1.5t-180 1.5q-51 0 -101.5 -2.5t-101.5 -2.5q-7 0 -16 5.5t-9 12.5q0 17 13 21q6 3 18.5 3t25.5 -0.5t18 -0.5q24 0 32.5 14.5t9.5 35t1 36.5
q0 65 1 128.5t1 127.5v200v38.5t-2 38.5q-1 16 -5 23.5t-21 10.5q-14 3 -29 3h-30q-7 0 -15.5 7t-8.5 15q0 7 7.5 14.5t14.5 7.5q16 0 32 -1t32 -1h226q38 0 76 0.5t75 1.5q25 1 49 2.5t49 1.5q4 0 8.5 -1.5t5.5 -5.5q1 -1 1 -3.5v-4.5q3 -27 8.5 -54t11.5 -54q2 -7 3.5 -14
t1.5 -15q0 -9 -9 -14t-17 -5q-13 0 -16 3.5t-7 13.5q-21 53 -51.5 76.5t-71 30t-91.5 6.5q-24 0 -48 -1t-49 -1q-8 0 -17 -5.5t-9 -15.5v-272q20 0 40 -0.5t39 -0.5q44 0 86.5 3.5t85.5 11.5q12 2 23 5t23 3q3 0 8 -2.5t5 -7.5t-5.5 -19t-13 -26t-12.5 -12h-14
q-32 0 -64.5 3.5t-64.5 3.5q-11 0 -33 -1t-46 -5t-40.5 -12.5t-16.5 -24.5v-246q0 -30 16.5 -35.5t40.5 -5.5h130q40 0 70 9t59 37q21 21 34 50.5t23 56.5q1 2 2 4.5t2 3.5q2 3 6.5 4t8.5 1q5 0 13 -3t8 -10zM430 832q0 -26 -17 -37t-41 -11t-40 11t-16 37t16 38t40 12
t41 -12t17 -38zM684 832q0 -26 -17 -37t-41 -11t-40 11t-16 37t16 38t40 12t41 -12t17 -38z" />
    <glyph glyph-name="Acy" unicode="&#x410;" 
d="M587 294q-32 86 -63.5 173t-63.5 173q-32 -86 -64.5 -173t-68.5 -173h260zM907 19q0 -8 -7 -14.5t-15 -6.5q-31 0 -61 1t-60 1q-42 0 -83 -1t-82 -1q-5 0 -11 7t-6 11q0 15 17 16.5t27 1.5q15 0 29.5 4t14.5 24q0 9 -9 36t-21.5 59.5t-24.5 60.5t-17 41h-279
q-3 -8 -11.5 -30t-19 -50t-20.5 -55.5t-16.5 -47t-6.5 -24.5q0 -13 16.5 -17t36.5 -3.5t29 0.5q7 0 13 -5t6 -13q0 -7 -7.5 -11.5t-14.5 -4.5h-210q-7 0 -13.5 5t-6.5 12q0 9 8.5 13t15.5 4q30 0 48 16t31 41q5 11 10 23l10 24q58 148 113.5 297t109.5 298q20 5 39.5 9.5
t39.5 4.5q2 0 6.5 -1.5t5.5 -3.5l231 -580q8 -20 15.5 -40.5t17.5 -40.5q14 -26 32.5 -33t37 -6.5t30.5 -1.5t12 -19z" />
    <glyph glyph-name="Becy" unicode="&#x411;" 
d="M715 207q0 78 -37.5 121t-117.5 43q-13 0 -26.5 0.5t-27.5 0.5q-33 0 -65.5 -1.5t-65.5 -3.5v-301q0 -17 11 -25t26.5 -10.5t27.5 -2.5q20 0 39.5 0.5t38.5 1.5q55 3 99.5 22t71 57t26.5 98zM836 222q0 -149 -141 -203q-43 -16 -96 -19t-99 -3q-48 0 -96 1.5t-96 1.5
q-30 0 -60.5 -1.5t-60.5 -1.5q-7 0 -15 5t-8 13q0 5 6 10.5t10 5.5q12 0 24.5 0.5t24.5 3.5q22 5 28.5 16t8.5 33q2 15 2 30.5v31.5q0 126 -0.5 251.5t-0.5 251.5q0 15 -5 27t-20 19q-8 4 -23 4h-26q-7 0 -16 3.5t-9 13.5q0 5 6.5 12.5t11.5 7.5q13 0 25.5 -1t25.5 -1
q59 0 118 -1t117 -1q80 0 159 3q25 1 49.5 2.5t49.5 1.5q9 0 14 -6q1 -1 5 -22t9 -47.5t8.5 -48.5t3.5 -27q0 -10 -10 -15.5t-18 -5.5q-14 0 -20 11q-3 8 -5.5 15.5t-5.5 14.5q-11 29 -27 45t-45 27q-20 8 -51.5 12t-63 5t-54.5 1h-25t-37 -0.5t-21 -2.5q-12 -3 -12 -14
v-277q86 3 170 3q32 0 65.5 -1t64.5 -8q44 -10 80.5 -33t58.5 -59t22 -84z" />
    <glyph glyph-name="Vecy" unicode="&#x412;" 
d="M714 205q0 78 -36.5 121t-117.5 43q-13 0 -27 0.5t-28 0.5q-33 0 -65.5 -1.5t-65.5 -3.5v-302q0 -17 11.5 -25t27.5 -9.5t28 -1.5h39t38 1q55 3 99 22t70.5 57t26.5 98zM661 557q0 64 -28 94.5t-73.5 40.5t-98.5 10q-8 0 -29.5 -1.5t-39.5 -7.5t-18 -18v-274h85
q39 0 80 5t71 33q23 21 37 54t14 64zM836 219q0 -73 -37 -124t-105 -77q-42 -16 -88.5 -18.5t-90.5 -2.5q-52 0 -104 1.5t-104 1.5q-30 0 -60.5 -2t-60.5 -2q-7 0 -14.5 4.5t-7.5 11.5q0 17 10.5 17.5t22.5 0.5q11 0 22.5 1t21.5 5q15 7 20.5 25.5t5.5 40v35.5
q0 126 -0.5 252.5t-0.5 253.5q0 15 -5 27.5t-20 17.5q-10 5 -23.5 4.5t-24.5 -0.5q-8 0 -16.5 4.5t-8.5 14.5q0 5 6.5 11.5t10.5 6.5q13 0 26 -1t26 -1q27 0 54.5 -0.5t54.5 -0.5q44 0 87.5 5.5t86.5 5.5q46 0 92 -4.5t84 -21t61 -50t23 -92.5q0 -44 -23 -77t-58 -56
t-73 -37q36 -6 73 -18.5t68 -34t50 -53t19 -74.5z" />
    <glyph glyph-name="Gecy" unicode="&#x413;" 
d="M810 545q0 -10 -10.5 -13.5t-18.5 -3.5q-11 0 -19 14.5t-12.5 32t-7.5 25.5q-17 53 -43.5 75.5t-83.5 22.5q-21 0 -42 0.5t-42 0.5q-18 0 -36.5 -0.5t-36.5 -3.5q-15 -2 -24.5 -8t-12.5 -23q-1 -5 -1 -11v-12q0 -134 1 -269t1 -270q0 -27 12.5 -48.5t42.5 -21.5
q9 0 18 1.5t18 1.5q8 0 16 -4t8 -14q0 -13 -9.5 -16.5t-20.5 -3.5q-37 0 -73 1t-73 1q-36 0 -72.5 -1.5t-72.5 -1.5q-9 0 -17 4.5t-8 14.5q0 14 10 14.5t20 0.5q42 0 62 14t20 60q0 131 0.5 262.5t0.5 262.5q0 29 -8 48.5t-42 19.5q-11 0 -22.5 -0.5t-22.5 -0.5q-7 0 -13 5
t-6 12q0 8 7 15t14 7q14 0 27.5 -1t26.5 -1h246q47 0 94 0.5t93 1.5q20 1 40.5 3t40.5 2q5 0 9.5 -0.5t8.5 -3.5q3 -5 5 -10q1 -2 2 -19t2 -41.5t2 -50t1.5 -45t0.5 -25.5z" />
    <glyph glyph-name="Decy" unicode="&#x414;" 
d="M648 574q0 8 -0.5 30t-1.5 43t-4 26q-10 15 -26 15h-187q-11 -109 -22 -219t-31 -218t-59 -212h153q44 0 88 0.5t88 0.5q1 43 1.5 86.5t0.5 86.5v361zM893 -88q0 -10 -6.5 -19.5t-17.5 -9.5q-18 0 -28 15q-13 19 -23 36.5t-28 31.5q-22 17 -60 26t-66 9l-284 -1
q-32 0 -74.5 -2.5t-81.5 -13.5t-63 -37q-10 -13 -17 -29.5t-18 -27.5q-6 -6 -17 -6q-7 0 -13.5 1.5t-6.5 11.5q0 29 5 60.5t13 59.5q7 27 36 27q31 0 61 14.5t41 45.5q46 130 69.5 274.5t23.5 282.5q0 24 -13.5 25.5t-32.5 1.5q-11 0 -21.5 -1.5t-21.5 -1.5q-8 0 -15 2.5
t-7 12.5t6 22.5t18 12.5q28 0 55.5 -2t55.5 -2h162q75 0 150 2.5t150 2.5q8 0 14.5 -3.5t6.5 -12.5q0 -22 -8.5 -27.5t-29.5 -5.5q-5 0 -10.5 1t-10.5 1q-12 0 -17 -5t-7 -16q-4 -13 -3.5 -28t0.5 -29q0 -100 -2 -200.5t-2 -200.5q0 -84 3 -168q26 0 51.5 1t50.5 1
q1 0 7.5 -1t7.5 -2q8 -2 10 -9t3 -14q2 -26 3.5 -53t1.5 -53z" />
    <glyph glyph-name="Iecy" unicode="&#x415;" 
d="M821 189q0 -10 -1.5 -19.5t-3.5 -18.5q-3 -20 -6 -39.5t-5 -39.5l-2 -30t-5 -29q-3 -10 -9.5 -13t-16.5 -3q-90 0 -180 1.5t-180 1.5q-51 0 -101.5 -2.5t-101.5 -2.5q-7 0 -16 5.5t-9 12.5q0 17 13 21q6 3 18.5 3t25.5 -0.5t18 -0.5q24 0 32.5 14.5t9.5 35t1 36.5
q0 65 1 128.5t1 127.5v200v38.5t-2 38.5q-1 16 -5 23.5t-21 10.5q-14 3 -29 3h-30q-7 0 -15.5 7t-8.5 15q0 7 7.5 14.5t14.5 7.5q16 0 32 -1t32 -1h226q38 0 76 0.5t75 1.5q25 1 49 2.5t49 1.5q4 0 8.5 -1.5t5.5 -5.5q1 -1 1 -3.5v-4.5q3 -27 8.5 -54t11.5 -54q2 -7 3.5 -14
t1.5 -15q0 -9 -9 -14t-17 -5q-13 0 -16 3.5t-7 13.5q-21 53 -51.5 76.5t-71 30t-91.5 6.5q-24 0 -48.5 -1t-48.5 -1q-8 0 -17 -5.5t-9 -15.5v-272q20 0 40 -0.5t39 -0.5q44 0 86.5 3.5t85.5 11.5q12 2 23 5t23 3q3 0 8 -2.5t5 -7.5t-5.5 -19t-13 -26t-12.5 -12h-14
q-32 0 -64.5 3.5t-64.5 3.5q-11 0 -33 -1t-46 -5t-40.5 -12.5t-16.5 -24.5v-246q0 -30 16.5 -35.5t40.5 -5.5h130q40 0 70 9t59 37q21 21 34 50.5t23 56.5q1 2 2 4.5t2 3.5q2 3 6.5 4t8.5 1q5 0 13 -3t8 -10z" />
    <glyph glyph-name="Zhecy" unicode="&#x416;" 
d="M979 13q0 -8 -8.5 -11.5t-14.5 -3.5h-117q-13 0 -21.5 2t-16.5 12t-14.5 21t-12.5 21l-50 81l-144 234l-37 -38v-111.5v-112.5q0 -15 1.5 -31.5t10 -28.5t28.5 -12q8 0 16 0.5t16 0.5t15.5 -5.5t7.5 -13.5q0 -15 -10 -17t-21 -2q-28 0 -54.5 1.5t-53.5 1.5
q-34 0 -66.5 -1.5t-65.5 -1.5q-22 0 -22 18q0 12 9.5 15.5t21.5 3.5t19 1q31 5 39 27.5t8 49.5q0 56 -0.5 112.5t-0.5 111.5l-25 25l-72 -116t-73 -117l-47 -76q-6 -10 -12 -20.5t-14 -19.5q-8 -10 -16.5 -12t-21.5 -2h-118q-7 0 -14 1.5t-7 10.5q0 8 3 11.5t10 6.5
q21 8 36 11.5t32 20.5q15 15 27 32.5t24 34.5q50 75 99.5 150.5t99.5 149.5l-208 236q-17 20 -39 27t-46 12q-10 2 -13.5 5t-3.5 14q0 8 8.5 11t15.5 3q12 0 23.5 -1t24.5 -1h70q6 0 11.5 -1t8.5 -8q2 -4 2.5 -8.5t1.5 -8.5q3 -8 8.5 -14.5t9.5 -13.5q51 -70 104 -138
t111 -133v226q-1 21 -8.5 40.5t-33.5 20.5q-7 0 -14 -0.5t-14 -0.5q-10 0 -17.5 4t-7.5 15q0 21 24 21q34 0 68 -1t68 -1q26 0 53 1.5t54 1.5q8 0 14.5 -5.5t6.5 -14.5q0 -12 -8.5 -15t-18.5 -3q-4 0 -8.5 0.5t-9.5 0.5q-32 0 -39.5 -15.5t-7.5 -44.5q0 -59 0.5 -119
t0.5 -119q59 67 114 136.5t107 142.5q5 7 10 13.5t8 14.5q1 4 1.5 8.5t2.5 8.5q3 7 8.5 8t12.5 1h70q12 0 23.5 1t24.5 1q6 0 15 -3t9 -11q0 -11 -4 -14t-14 -5q-24 -5 -46 -12t-39 -27l-202 -230q51 -76 101.5 -152.5t101.5 -153.5q12 -17 23.5 -35t26.5 -33
q7 -7 14.5 -12.5t15.5 -9.5q8 -3 25.5 -7t21.5 -7q5 -4 5 -11z" />
    <glyph glyph-name="Zecy" unicode="&#x417;" 
d="M813 228q0 -74 -43 -129t-110 -81q-41 -16 -85 -21t-88 -5q-49 0 -104 18t-103.5 49.5t-78.5 70.5q-4 5 -7 10t-3 12q0 11 10 18t20 7q16 0 28 -12q18 -17 40 -35q24 -22 58 -41t71 -31t69 -12q60 0 106.5 17t73.5 55.5t27 104.5q0 44 -18.5 72t-48.5 44t-66 22.5
t-72 6.5q-22 0 -43.5 -4t-42.5 -4q-4 0 -10 1.5t-6 5.5q0 6 8 22t12 23h99q43 0 75 22t50 57.5t18 76.5q0 45 -23.5 73t-60.5 41t-76 13q-12 0 -31 -4.5t-37 -10.5t-28 -12q-31 -16 -47.5 -37.5t-23.5 -43t-9.5 -36.5t-5.5 -18q-8 -7 -23 -7q-5 0 -12 2t-7 10q0 38 2 77
t3 77q0 7 4 12t11 5q34 0 68 -3q38 15 77 24.5t80 9.5q39 0 84.5 -7.5t85.5 -26t65.5 -50.5t25.5 -82q0 -60 -37.5 -98t-88.5 -61q-3 -1 -5.5 -2t-5.5 -2q-8 -5 -8 -10q0 -2 5.5 -4t7.5 -2q41 -8 81 -30.5t66.5 -56.5t26.5 -80z" />
    <glyph glyph-name="Iicy" unicode="&#x418;" 
d="M918 21q0 -13 -8 -18t-19 -5q-16 0 -32.5 0.5t-32.5 0.5q-46 0 -91.5 -1t-91.5 -1q-9 0 -16.5 4.5t-7.5 14.5q0 20 11.5 19.5t24.5 -0.5q38 0 46.5 23t8.5 55l-1 423l-413 -413v-16q0 -14 3 -31t12.5 -28.5t28.5 -11.5q8 0 17 0.5t18 0.5q8 0 16 -6t8 -14
q0 -16 -12.5 -18.5t-24.5 -2.5q-29 0 -57.5 1.5t-57.5 1.5q-33 0 -66 -1.5t-65 -1.5q-9 0 -17.5 5.5t-8.5 15.5q0 6 6.5 11.5t12.5 5.5q45 0 62 13.5t17 62.5q0 130 -0.5 259t-0.5 259q0 29 -10 48t-43 19q-7 0 -14.5 -0.5t-14.5 -0.5q-9 0 -15.5 5t-6.5 14q0 14 8.5 18.5
t21.5 4.5q30 0 60 -0.5t61 -0.5q32 0 63 1t62 1q11 0 19 -3.5t8 -15.5q0 -19 -11 -20t-25 -1q-38 0 -47 -19t-8 -52v-440l415 435q0 15 -3.5 32.5t-12 30t-27.5 12.5q-9 0 -18 -1t-17 -1q-9 0 -15.5 5t-6.5 14q0 16 9.5 19.5t22.5 3.5q29 0 58 -1.5t59 -1.5q32 0 63.5 2.5
t63.5 2.5q10 0 18 -4t8 -15q0 -18 -12 -19t-25 -1q-38 0 -47.5 -22.5t-9.5 -54.5q0 -128 0.5 -256t0.5 -256q0 -14 3.5 -31t12.5 -29t27 -12q8 0 17 0.5t18 0.5q8 0 14.5 -4.5t6.5 -13.5z" />
    <glyph glyph-name="Iishortcy" unicode="&#x419;" 
d="M918 21q0 -13 -8 -18t-19 -5q-16 0 -32.5 0.5t-32.5 0.5q-46 0 -91.5 -1t-91.5 -1q-9 0 -16.5 4.5t-7.5 14.5q0 20 11.5 19.5t24.5 -0.5q38 0 46 23t9 55v426l-413 -414v-16q0 -14 2.5 -31t12 -29t28.5 -12q8 0 17 0.5t18 0.5q8 0 16 -6t8 -14q0 -17 -12.5 -19t-24.5 -2
q-29 0 -57 1t-57 1q-34 0 -66.5 -1.5t-65.5 -1.5q-10 0 -17.5 6.5t-7.5 16.5q0 5 6.5 10t11.5 5q46 0 62.5 15t16.5 64q0 129 -0.5 258t-0.5 258q0 25 -10.5 46.5t-39.5 21.5q-8 0 -16 -1t-16 -1q-9 0 -15.5 5t-6.5 14q0 14 8.5 19t21.5 5q31 0 61.5 -2t61.5 -2t61.5 2
t61.5 2q11 0 19 -4t8 -16q0 -18 -11 -19t-25 -1q-38 0 -46.5 -19.5t-7.5 -51.5v-439l415 436q0 15 -3.5 31.5t-12.5 28.5t-28 12q-9 0 -18 -1t-17 -1q-9 0 -15.5 5t-6.5 14q0 16 9.5 20t22.5 4q29 0 58 -1t59 -1q32 0 63.5 2t63.5 2q10 0 18 -4t8 -16q0 -18 -12 -19t-25 -1
q-38 0 -47.5 -21t-9.5 -53q0 -129 0.5 -258t0.5 -258q0 -14 3.5 -30.5t13 -28.5t27.5 -12q8 0 16.5 0.5t17.5 0.5q8 0 14.5 -4.5t6.5 -13.5zM680 830q0 -20 -19 -34t-46.5 -22.5t-53.5 -12t-41 -3.5t-41 3.5t-53.5 12t-46 22.5t-18.5 34q0 17 13.5 27t29.5 10q14 0 27 -10.5
t13 -25.5q0 -3 -1 -6t-3 -6q18 -7 37.5 -13t39.5 -6q21 0 42 5.5t40 13.5q-1 3 -1.5 6t-0.5 6q0 15 12.5 25.5t26.5 10.5t29 -10t15 -27z" />
    <glyph glyph-name="Kacy" unicode="&#x41a;" 
d="M871 14q0 -10 -10 -12t-18 -2h-149q-13 0 -23 2t-21 12q-9 9 -16 19.5t-15 20.5q-16 22 -32 42.5t-33 42.5l-171 227l-44 -35q0 -55 -0.5 -111.5t-0.5 -112.5q0 -13 3.5 -30t13 -29t26.5 -12q8 0 16.5 0.5t16.5 0.5t16 -6t8 -14q0 -16 -9.5 -18t-22.5 -2q-28 0 -56.5 1.5
t-57.5 1.5q-35 0 -70 -1t-70 -1q-10 0 -16.5 5.5t-6.5 15.5q0 12 14 15.5t30.5 4t24.5 3.5q21 8 27 30t6 41q0 129 -0.5 257.5t-0.5 257.5q0 23 -7.5 45.5t-36.5 23.5q-7 0 -14 -0.5t-15 -0.5q-10 0 -18.5 4t-8.5 16q0 14 9.5 17.5t21.5 3.5q42 0 84 -1t84 -1q20 0 40 1
t40 1q8 0 17.5 -2.5t9.5 -13.5q0 -17 -10 -21t-24.5 -3.5t-29.5 -3t-25 -18.5t-10 -51q0 -60 1 -120.5t-1 -120.5q80 73 158 148.5t149 156.5q10 11 19 21.5t16 22.5q9 3 28.5 4t40 1h32.5q8 0 21 -2.5t13 -13.5q0 -7 -3 -9.5t-8 -5.5q-13 -4 -26.5 -6t-26.5 -7
q-10 -4 -19.5 -11.5t-17.5 -15.5l-250 -233q63 -76 123.5 -154.5t125.5 -152.5q14 -16 29.5 -31.5t31.5 -29.5q21 -17 39.5 -20.5t42.5 -11.5q8 -3 12 -6.5t4 -12.5z" />
    <glyph glyph-name="Elcy" unicode="&#x41b;" 
d="M860 17q0 -13 -9 -16t-20 -3q-29 0 -58 1.5t-58 1.5q-31 0 -62.5 -1.5t-63.5 -1.5q-6 0 -14 4.5t-8 11.5q0 13 12.5 15.5t30 3t32.5 6.5t19 27q1 8 1 15.5v14.5q0 51 0.5 102.5t0.5 102.5v39v72t-0.5 87t-1 85t-1.5 66.5t-3 28.5q-10 15 -26 15h-175q-13 -133 -29 -266.5
t-47 -264.5q-13 -57 -35.5 -99t-75.5 -73q-12 -7 -32 -14.5t-40 -13t-34 -5.5q-16 0 -31 10t-15 28q0 26 21 43.5t43 21.5q46 10 72.5 31.5t41 54.5t23.5 75q24 110 39 222t15 224q0 23 -14.5 23h-30.5q-7 0 -20.5 1t-25 5.5t-11.5 14.5q0 12 10.5 17.5t20.5 5.5h516
q9 0 20 -4t11 -16t-9.5 -16t-21.5 -4.5t-20 -0.5h-7t-7 -1q-11 -6 -15 -19q-4 -15 -2.5 -31.5t1.5 -33.5q0 -40 -1 -80t-1 -80q0 -88 1.5 -176t1.5 -176q0 -13 2.5 -28.5t10.5 -26t26 -10.5q8 0 16.5 1.5t17.5 1.5q7 0 13 -5t6 -13z" />
    <glyph glyph-name="Emcy" unicode="&#x41c;" 
d="M977 715q0 -10 -11.5 -14.5t-19.5 -4.5q-12 0 -24 1.5t-24 1.5q-11 0 -16.5 -4t-11.5 -14l-0.5 -22t-0.5 -52v-54v-29v-181q0 -59 0.5 -119t0.5 -119q0 -15 1.5 -30.5t10 -26.5t28.5 -11q10 0 20 1t20 1q7 0 15 -5.5t8 -13.5q0 -17 -11 -19.5t-25 -2.5q-30 0 -59.5 1.5
t-59.5 1.5q-34 0 -69 -2t-70 -2q-9 0 -15.5 5t-6.5 15q0 11 10.5 14.5t23 3.5t19.5 1q31 6 40 26.5t9 48.5v547q-56 -137 -113 -274.5t-111 -275.5q-7 -19 -14.5 -39t-16.5 -39q-16 -8 -33 -8q-11 0 -16 5q-7 7 -12.5 24.5t-10.5 26.5q-63 144 -127 287.5t-126 287.5
q0 -138 -0.5 -276t-0.5 -276q0 -33 9 -46t27 -14.5t44 -1.5q8 0 15.5 -5.5t7.5 -14.5q0 -13 -9.5 -16t-20.5 -3q-16 0 -32 0.5t-32 0.5q-34 0 -67 -2.5t-67 -2.5q-10 0 -17.5 4.5t-7.5 15.5q0 14 15 16t25 2q38 0 47.5 17.5t9.5 51.5q0 141 1.5 282.5t1.5 282.5q0 32 -31 32
q-10 0 -20.5 -1.5t-21.5 -1.5q-10 0 -20.5 4.5t-10.5 16.5q0 7 5.5 13t12.5 6q34 0 67 -1.5t67 -1.5h43.5t43.5 1l247 -561q59 140 116 279.5t110 280.5q56 0 111.5 1.5t110.5 1.5q7 0 13 -8t6 -14z" />
    <glyph glyph-name="Ency" unicode="&#x41d;" 
d="M906 18q0 -17 -9.5 -19t-23.5 -2q-28 0 -55.5 1.5t-55.5 1.5q-31 0 -61.5 -2t-61.5 -2q-8 0 -15.5 4t-7.5 13q0 19 10.5 19.5t24.5 0.5q36 0 44.5 21.5t8.5 52.5q0 62 -0.5 123.5t-0.5 122.5h-400v-247q0 -14 3 -30.5t12 -28t27 -11.5q8 0 16.5 0.5t17.5 0.5q8 0 14 -5
t6 -14q0 -16 -9.5 -18.5t-23.5 -2.5q-28 0 -55.5 1.5t-55.5 1.5q-32 0 -64 -2t-64 -2q-8 0 -15.5 4t-7.5 13q0 14 9 18t21.5 3.5t21.5 -0.5q21 0 29.5 12.5t10 30.5t1.5 32q0 129 -0.5 257.5t-0.5 257.5q0 16 -4 32.5t-14.5 28.5t-29.5 12q-8 0 -15.5 -1t-15.5 -1t-15 4
t-7 13q0 14 9 18.5t22 4.5q29 0 58.5 -1.5t59.5 -1.5q27 0 54 1t54 3q4 0 7 0.5t7 0.5q8 0 16 -4.5t8 -14.5q0 -19 -11.5 -18.5t-23.5 0.5q-37 0 -45.5 -23t-8.5 -53q0 -55 0.5 -111t0.5 -112h401q0 56 0.5 112t0.5 111q0 14 -3.5 31t-12.5 29.5t-27 12.5q-9 0 -17 -1
t-16 -1t-15 4t-7 13q0 15 9 19t22 4q29 0 57 -1.5t57 -1.5q27 0 55 1t55 3q4 0 7.5 0.5t7.5 0.5q8 0 16 -4.5t8 -14.5q0 -19 -12 -18.5t-24 0.5q-37 0 -46 -23.5t-9 -54.5q0 -129 0.5 -258t0.5 -258q0 -14 3 -30.5t12 -28t27 -11.5q8 0 16.5 0.5t17.5 0.5q8 0 14 -5.5
t6 -13.5z" />
    <glyph glyph-name="Ocy" unicode="&#x41e;" 
d="M744 369q0 58 -13 117.5t-41.5 109t-75.5 79.5t-116 30q-66 0 -113.5 -31.5t-77.5 -83t-44.5 -111.5t-14.5 -116q0 -59 13.5 -117.5t43 -106.5t77 -77t116.5 -29t116 30t75.5 79.5t41.5 109t13 117.5zM869 371q0 -117 -43.5 -201.5t-126.5 -130t-201 -45.5
q-114 0 -196.5 45t-126.5 127.5t-44 196.5q0 81 26 150t75 120.5t116.5 80t149.5 28.5q116 0 199 -44.5t127.5 -127.5t44.5 -199z" />
    <glyph glyph-name="Pecy" unicode="&#x41f;" 
d="M890 716q0 -19 -11.5 -20t-24.5 -1q-36 0 -50 -21.5t-14 -54.5q0 -128 0.5 -256t0.5 -256q0 -13 3 -29.5t12 -28.5t27 -12q8 0 16.5 0.5t17.5 0.5q8 0 14.5 -5t6.5 -14q0 -17 -9.5 -19t-23.5 -2q-31 0 -62 1.5t-62 1.5q-28 0 -55.5 -2t-54.5 -2q-9 0 -17.5 2.5t-8.5 13.5
q0 17 12 19t25 2q35 0 44 21.5t9 51.5v519q0 10 -1 25t-7 27t-21 12l-303 2q-19 1 -26.5 -11.5t-8.5 -29t-1 -30.5q0 -128 0.5 -257t0.5 -257q0 -13 3 -30t12.5 -29t26.5 -12q6 0 19 0.5t24.5 -2.5t11.5 -15q0 -16 -8.5 -18t-22.5 -2q-31 0 -61.5 1t-60.5 1q-31 0 -62 -2
t-62 -2q-9 0 -16.5 3.5t-7.5 13.5q0 6 5.5 13t12.5 7q44 0 62 14t18 62q0 128 -0.5 256.5t-0.5 256.5q0 16 -4 33t-14 28.5t-30 11.5q-8 0 -15.5 -1.5t-15.5 -1.5t-14.5 4.5t-6.5 13.5q0 14 9 20t22 6q33 0 65.5 -1.5t66.5 -1.5q77 0 154.5 -0.5t155.5 -0.5h162q26 0 53 0.5
t53 2.5q3 0 6.5 0.5t7.5 0.5q8 0 16 -6t8 -15z" />
    <glyph glyph-name="Ercy" unicode="&#x420;" 
d="M703 544q0 59 -29 92.5t-75 47t-96 13.5q-8 0 -25.5 -1.5t-36 -5.5t-31 -11.5t-12.5 -18.5v-265q25 -15 56.5 -19.5t59.5 -4.5q83 0 136 42.5t53 130.5zM823 550q0 -69 -27 -112t-72 -65.5t-100 -31t-112 -8.5q-28 0 -56.5 3t-56.5 7q0 -59 0.5 -118t0.5 -118
q0 -27 9.5 -50t41.5 -23q8 0 16.5 0.5t16.5 0.5q7 0 15 -5t8 -13q0 -12 -10 -16.5t-20 -4.5q-33 0 -66 1.5t-65 1.5q-35 0 -69 -2t-69 -2q-22 0 -22 20q0 5 6.5 11.5t11.5 6.5h13q9 0 18.5 0.5t18.5 2.5q26 6 32 23.5t6 41.5q0 130 0.5 259.5t0.5 259.5q0 19 -0.5 34.5
t-9 25.5t-33.5 10q-10 0 -20 -1t-20 -1q-8 0 -20 5t-12 15q0 7 5.5 14.5t13.5 7.5h96.5t96.5 1l94 4t94 2t91 -8.5t78.5 -29.5t55 -57.5t20.5 -91.5z" />
    <glyph glyph-name="Escy" unicode="&#x421;" 
d="M857 185q0 -7 -6.5 -17t-10.5 -15q-61 -91 -138 -126t-184 -35q-113 0 -197.5 44.5t-130.5 126.5t-46 196t45 201.5t129 136.5t200 49q47 0 89.5 -14t86.5 -26q23 -6 46 -8t46 -2q4 -35 7.5 -70.5t8.5 -70.5q2 -13 5 -26t3 -27q0 -16 -14 -22.5t-27 -6.5q-10 0 -18 7
t-12 16q-3 7 -4.5 16t-3.5 16q-20 80 -71.5 131.5t-137.5 51.5q-31 0 -64.5 -12.5t-59.5 -29.5q-47 -34 -76.5 -84t-42.5 -107.5t-13 -113.5q0 -40 8.5 -82t23.5 -80q34 -79 96.5 -121.5t149.5 -42.5q74 0 134.5 34.5t104.5 92.5q5 8 10.5 16t11.5 15q9 11 25 11
q6 0 16.5 -7.5t10.5 -14.5z" />
    <glyph glyph-name="Tecy" unicode="&#x422;" 
d="M838 552q0 -8 -8 -10.5t-14 -2.5q-7 0 -13 2q-6 3 -10 15.5t-6 26.5t-4 21q-10 43 -31 62t-51.5 24t-69.5 5q-13 0 -30 -1t-30.5 -8t-16.5 -25q-1 -4 -1 -9.5v-10.5q0 -135 1 -269.5t1 -269.5q0 -25 10.5 -46t39.5 -21q11 0 21.5 0.5t20.5 0.5q8 0 15.5 -4.5t7.5 -13.5
q0 -13 -9.5 -16.5t-20.5 -3.5q-37 0 -73 0.5t-73 0.5t-74 -1t-74 -1q-8 0 -16.5 3.5t-8.5 13.5q0 14 11.5 15.5t21.5 1.5q41 0 62 13.5t21 59.5v251.5v250.5q0 33 -0.5 51.5t-7.5 26.5t-25 10t-53 2q-36 0 -62 -4.5t-43.5 -22t-27.5 -56.5q-1 -6 -4 -21t-6 -29t-6 -17
q-8 -8 -21 -8q-5 0 -12 3.5t-7 10.5q0 28 1.5 55.5t2.5 55.5q1 17 1.5 34t4.5 33q6 6 14 6q32 0 64 -2.5t64 -2.5h159h84t84 1q46 1 91 2.5t90 2.5q2 -2 4 -5t3 -6q2 -6 4 -29.5t3 -53.5t1.5 -56t0.5 -35z" />
    <glyph glyph-name="Ucy" unicode="&#x423;" 
d="M853 716q0 -17 -14 -18t-26 -1q-27 0 -38 -8.5t-25 -31.5q-16 -28 -29.5 -58t-27.5 -60q-28 -60 -57.5 -119t-58.5 -118q-23 -49 -46.5 -98t-52.5 -96q-34 -56 -81 -90.5t-115 -34.5q-26 0 -52 7t-43.5 25t-17.5 49q0 27 13 40t33.5 16.5t42.5 3.5q5 -31 24 -54t53 -23
q35 0 54.5 24.5t33.5 51.5q11 23 19 47t8 49q0 16 -10 42.5t-24 56.5t-27.5 57t-21.5 44q-10 21 -25 55.5t-32.5 72.5t-34.5 69.5t-31 46.5q-17 19 -31 20t-37 1q-10 0 -19 3t-9 16q0 7 3.5 10.5t8.5 7.5q2 1 25 3.5t52.5 5t54.5 4.5t32 2q6 0 13 -3t9 -9q7 -6 21 -34
t32 -69.5t37.5 -88.5t38 -91.5t32 -78t19.5 -48.5q7 15 24 51.5t37.5 82.5t40 91t32 79t12.5 45q0 5 0.5 10t0.5 10q0 6 -7 11q-4 3 -16.5 3.5t-26 0.5h-20.5q-9 0 -19 3t-10 15q0 15 16.5 17.5t26.5 2.5q26 0 52.5 -1t52.5 -1q27 0 54 1.5t55 1.5q9 0 15.5 -6t6.5 -15z" />
    <glyph glyph-name="Efcy" unicode="&#x424;" 
d="M454 603q-101 -11 -164 -69t-63 -165q0 -108 62 -164t165 -66v464zM775 373q0 102 -61 161.5t-158 72.5v-231v-232q99 12 159 69t60 160zM895 374q0 -72 -29.5 -121t-79 -79t-109.5 -45.5t-120 -19.5v-16q0 -14 3 -31t13 -29t28 -12q8 0 16.5 0.5t17.5 0.5q6 0 13 -5
t7 -13q0 -12 -8.5 -14.5t-17.5 -2.5q-31 0 -62 2.5t-62 2.5q-28 0 -56 -0.5t-56 -3.5q-2 0 -5 -0.5t-5 -0.5q-8 0 -15.5 4.5t-7.5 13.5q0 12 8 13t17 1q38 0 54.5 17.5t16.5 55.5v17q-62 1 -124 15t-113 45.5t-82 81.5t-31 123q0 69 31.5 119t83.5 82.5t113.5 48.5t120.5 17
q0 16 -1.5 35t-9.5 33t-30 14q-10 0 -18.5 -0.5t-17.5 -0.5q-7 0 -13 4.5t-6 11.5q0 20 23 20q31 0 62.5 -1.5t62.5 -1.5q27 0 55 0.5t56 3.5q2 0 4.5 0.5t5.5 0.5q9 0 18 -3t9 -14q0 -14 -8.5 -15t-18.5 -1q-38 0 -55.5 -14.5t-17.5 -54.5v-17q62 -1 122 -16.5t109.5 -47.5
t79 -82.5t29.5 -120.5z" />
    <glyph glyph-name="Hacy" unicode="&#x425;" 
d="M908 13q0 -7 -8.5 -11.5t-14.5 -4.5q-47 0 -94.5 1.5t-94.5 1.5q-8 0 -16.5 3t-13.5 10q-3 3 -4.5 7t-3.5 8q-12 22 -25 43l-26 42q-31 49 -64 97t-65 97q-6 -9 -25 -36t-43 -62.5t-47.5 -70t-38.5 -59t-15 -29.5q0 -13 16 -16t26 -3q9 0 18 0.5t18 0.5q5 0 13 -5t8 -12
t-8 -12.5t-14 -5.5q-31 0 -62.5 1.5t-62.5 1.5q-37 0 -73.5 -1t-72.5 -1q-7 0 -14 4.5t-7 11.5q0 18 16 18h28q23 0 41 4.5t37 18.5q27 21 58 57t63 78.5t60 83t49 70.5q-52 80 -105 158t-106 157q-4 5 -6.5 9.5t-7.5 8.5q-12 10 -29 10q-13 0 -25.5 -1t-24.5 -1
q-8 0 -14.5 5.5t-6.5 13.5q0 5 3.5 8t7.5 5q2 1 19 3.5t41.5 5t49.5 4.5t44 3.5t25 1.5q13 0 23 -8q4 -3 16.5 -23t31 -51t39 -65.5t39.5 -67.5t33.5 -58t20.5 -35q7 10 25 37.5t41 63t45 70.5t36 60.5t14 31.5q0 11 -11 11q-14 0 -28 -1.5t-28 -1.5q-6 0 -11.5 7t-5.5 12
q0 6 5.5 11.5t12.5 5.5h28h28q42 0 84 1t84 1q7 0 14 -6.5t7 -14.5q0 -15 -11 -19t-23 -4q-6 0 -12.5 1.5t-12.5 1.5q-15 0 -29 -7q-6 -3 -23 -23t-40 -50t-48 -64t-48 -66.5t-40.5 -57t-25.5 -35.5q30 -46 62.5 -91t64.5 -90q27 -37 55 -75t60 -71q19 -19 36.5 -24.5
t42.5 -7.5q8 0 19 -0.5t19 -4t8 -15.5z" />
    <glyph glyph-name="Tsecy" unicode="&#x426;" 
d="M875 715q0 -10 -9 -13t-17 -3q-42 0 -56 -18.5t-14 -59.5q0 -128 0.5 -257t0.5 -258q0 -31 8.5 -45.5t20.5 -18t25 -3t23 -1.5t12 -13q2 -7 1.5 -16t-0.5 -17q1 -22 1.5 -44.5t0.5 -45.5q0 -8 -7.5 -15.5t-15.5 -7.5q-18 0 -27 18q-10 20 -21.5 36t-29.5 31
q-23 19 -56 26t-62 8q-40 1 -79 1h-79h-230q-28 0 -56.5 -1.5t-57.5 -1.5q-10 0 -18.5 3.5t-8.5 15.5q0 17 15.5 18.5t27.5 1.5q35 0 43.5 22t8.5 51q0 134 -0.5 267t-0.5 266q0 22 -6 38t-33 16q-8 0 -16.5 -0.5t-16.5 -0.5t-14.5 4.5t-6.5 13.5q0 13 8 17.5t19 4.5
q29 0 57.5 -1.5t56.5 -1.5q31 0 61.5 1.5t61.5 1.5q8 0 16.5 -2.5t8.5 -13.5q0 -19 -11.5 -20t-25.5 -1q-36 0 -44.5 -21t-8.5 -52v-527q0 -32 12.5 -45.5t44.5 -15.5q15 -1 30 -1h30q40 0 80 1t80 1t56.5 15t16.5 56q0 68 -0.5 135.5t-0.5 134.5v246q0 14 -3 30t-12 28
t-27 12q-8 0 -17 -0.5t-17 -0.5t-14 5t-6 13q0 17 10 19.5t23 2.5q27 0 53.5 -0.5t53.5 -0.5q34 0 68 2t68 2q22 0 22 -21z" />
    <glyph glyph-name="Checy" unicode="&#x427;" 
d="M854 20q0 -17 -10 -19.5t-24 -2.5q-29 0 -57.5 1.5t-57.5 1.5q-35 0 -69.5 -2t-69.5 -2q-9 0 -16.5 4t-7.5 14q0 19 11 19.5t25 0.5q38 0 52 22.5t15 56.5v240q-40 -46 -97 -65.5t-116 -19.5q-82 0 -123.5 22.5t-55.5 70.5t-14 123v170q0 25 -10.5 33t-27 8h-33.5
q-8 0 -14.5 4t-6.5 13q0 23 27 23q29 0 57 -1.5t57 -1.5q31 0 61.5 1.5t61.5 1.5q8 0 16.5 -2.5t8.5 -13.5q0 -19 -11.5 -20t-25.5 -1q-26 0 -38.5 -10t-12.5 -38v-219q0 -57 26.5 -86.5t84.5 -29.5q30 0 62.5 11t61 30t47.5 42q3 4 9 13t6 13v227q0 11 -7 25.5t-19 16.5
q-11 2 -22.5 2h-22.5q-8 0 -14.5 4t-6.5 13q0 23 27 23q29 0 57 -1.5t57 -1.5q31 0 61.5 1.5t61.5 1.5q8 0 16.5 -2.5t8.5 -13.5q0 -19 -11.5 -20t-25.5 -1q-16 0 -28.5 -6.5t-19.5 -21.5q-2 -6 -2 -11q0 -79 -0.5 -157.5t-0.5 -158.5v-233q0 -14 3 -31.5t13 -29.5t28 -12
q8 0 17 0.5t18 0.5q8 0 14.5 -5t6.5 -14z" />
    <glyph glyph-name="Shacy" unicode="&#x428;" 
d="M982 21q0 -14 -9.5 -17t-20.5 -3q-31 0 -62.5 -0.5t-62.5 -0.5h-621q-38 0 -76.5 -2t-76.5 -2q-9 0 -19.5 3.5t-10.5 15.5q0 17 11.5 18t24.5 1q35 0 48.5 20.5t13.5 53.5q0 131 -0.5 262t-0.5 262q0 15 -2 30.5t-10 26.5t-28 11q-9 0 -17.5 -0.5t-16.5 -0.5t-14.5 4
t-6.5 13q0 16 10 19.5t23 3.5q27 0 54.5 -1.5t55.5 -1.5q30 0 59.5 1.5t60.5 1.5q8 0 16 -4.5t8 -14.5q0 -19 -12 -18.5t-24 0.5q-36 0 -43 -22t-7 -51v-522l-1 -15q0 -19 6 -37.5t31 -18.5h180v591q0 14 -3.5 31t-12.5 29t-27 12q-9 0 -17.5 -0.5t-16.5 -0.5t-14 4t-6 13
q0 17 9.5 19.5t23.5 2.5q28 0 55.5 -1.5t55.5 -1.5q32 0 64 2t64 2q8 0 15.5 -4t7.5 -14q0 -5 -5.5 -11.5t-10.5 -6.5q-46 0 -61.5 -15.5t-14.5 -62.5v-588h175q20 0 29.5 12t12.5 28.5t3 31.5v521q0 16 -2 32.5t-10.5 28t-29.5 11.5q-9 0 -17.5 -0.5t-16.5 -0.5t-14.5 4
t-6.5 13q0 17 9.5 20t24.5 3q28 0 55.5 -1.5t55.5 -1.5q32 0 64 1.5t65 1.5q8 0 15.5 -4.5t7.5 -13.5q0 -4 -5.5 -11t-10.5 -7q-46 0 -61.5 -15.5t-15.5 -62.5v-524q0 -21 6.5 -42t33.5 -21q11 0 22.5 1.5t23.5 1.5q8 0 14.5 -6t6.5 -15z" />
    <glyph glyph-name="Shchacy" unicode="&#x429;" 
d="M973 718q0 -7 -6 -13t-13 -6q-46 0 -60 -15.5t-14 -61.5q0 -132 -0.5 -264t-0.5 -265q0 -14 3.5 -29t17.5 -23q9 1 17.5 1h17.5l6 -1.5l6 -1.5q8 -2 10 -9.5t3 -13.5q3 -29 5.5 -59t2.5 -59q0 -9 -7.5 -14t-15.5 -5q-19 0 -27 14q-13 20 -22.5 37.5t-29.5 33.5
q-27 23 -64 29.5t-72 6.5h-554q-31 0 -62 -2t-62 -2q-10 0 -17.5 4t-7.5 15q0 17 11.5 18t23.5 1q36 0 49.5 20t13.5 53q0 131 -0.5 261.5t-0.5 260.5q0 15 -1.5 30.5t-10 26t-28.5 10.5q-8 0 -17 -0.5t-17 -0.5q-7 0 -14 4.5t-7 12.5q0 17 10 20.5t23 3.5q28 0 55 -2t55 -2
q30 0 60 2t60 2q9 0 16.5 -4.5t7.5 -15.5q0 -18 -11.5 -18h-23.5q-36 0 -43.5 -21t-7.5 -51v-535q0 -19 5.5 -37t30.5 -18h181l-1 589q0 15 -1.5 31.5t-10 28t-29.5 11.5q-8 0 -17 -0.5t-17 -0.5q-7 0 -14 4.5t-7 12.5q0 17 10.5 19.5t23.5 2.5q27 0 54.5 -0.5t54.5 -0.5
q32 0 63.5 1.5t62.5 1.5q9 0 16 -4t7 -15q0 -4 -5.5 -11t-10.5 -7q-45 0 -59.5 -16t-14.5 -61q0 -147 0.5 -293.5t0.5 -292.5q44 0 88 1t88 1q19 0 28 11t12 27.5t3 30.5v518q0 14 -2.5 30t-11 28t-26.5 12q-8 0 -17 -0.5t-17 -0.5q-7 0 -13.5 4.5t-6.5 12.5q0 17 10 20.5
t23 3.5q26 0 52 -1.5t51 -1.5q34 0 67.5 2t67.5 2q9 0 16.5 -3.5t7.5 -14.5z" />
    <glyph glyph-name="Hardsigncy" unicode="&#x42a;" 
d="M795 204q0 78 -37.5 120.5t-117.5 42.5q-13 0 -26.5 0.5t-27.5 0.5q-21 0 -42 -1.5t-42 -3.5v-299q0 -18 13 -25.5t30.5 -9t29.5 -1.5q57 0 107.5 17t81.5 55.5t31 103.5zM916 219q0 -74 -39 -125.5t-107 -77.5q-35 -13 -73.5 -15.5t-75.5 -2.5q-46 0 -92.5 1.5
t-93.5 1.5q-30 0 -60.5 -2t-60.5 -2q-7 0 -15 4t-8 13q0 17 11.5 17h22.5q31 0 47.5 8.5t20.5 42.5q2 14 2 28v27q0 132 -0.5 264t-0.5 263q0 24 -20 29.5t-38 5.5q-40 0 -75.5 -4.5t-69.5 -28.5q-26 -19 -35.5 -37t-21.5 -45q-8 -20 -28 -20q-8 0 -15 4t-7 14q0 3 3.5 25.5
t8 50.5t8.5 49.5t5 22.5q2 4 6.5 4.5t8.5 0.5h149q75 0 150.5 2t150.5 2q8 0 14.5 -5t6.5 -13q0 -14 -7.5 -18t-18.5 -3.5t-20 0.5q-26 0 -36.5 -11t-10.5 -38v-250q31 1 61.5 1.5t61.5 0.5q32 0 65.5 -1t64.5 -8q44 -10 80.5 -33t58.5 -58.5t22 -83.5z" />
    <glyph glyph-name="Yerucy" unicode="&#x42b;" 
d="M548 203q0 79 -37 121t-118 42q-13 0 -26.5 0.5t-27.5 0.5q-21 0 -42 -1.5t-42 -3.5v-299q0 -17 11 -24.5t26.5 -9.5t27.5 -2q59 0 111 15.5t84.5 54t32.5 106.5zM669 218q0 -74 -36.5 -123.5t-104.5 -75.5q-43 -16 -94.5 -19t-98.5 -3q-37 0 -73.5 1t-73.5 1
q-30 0 -60.5 -1.5t-60.5 -1.5q-7 0 -14.5 4.5t-7.5 12.5q0 11 9.5 14t17.5 3q34 0 52.5 6.5t21.5 44.5q2 16 2 31.5v31.5v504q0 27 -12 37t-30 10.5t-38 0.5q-8 0 -14 4t-6 13q0 13 8 18t20 5q18 0 35.5 -1t35.5 -1q33 0 66 0.5t66 0.5q12 0 24.5 1t24.5 1q5 0 11.5 -5.5
t6.5 -10.5q0 -19 -15 -19h-28q-9 0 -20 -3q-17 -5 -22 -17.5t-5 -29.5q0 -63 -0.5 -125.5t-0.5 -125.5q29 1 58 1.5t57 0.5q35 0 70 -1t69 -9q44 -10 80.5 -33t58 -58.5t21.5 -83.5zM955 13q0 -12 -7.5 -15t-17.5 -3q-31 0 -62 1.5t-62 1.5q-30 0 -60 -2t-60 -2
q-8 0 -15.5 3.5t-7.5 13.5q0 19 11 19.5t24 0.5q36 0 44.5 21.5t8.5 51.5v519q0 16 -2 32.5t-10.5 28.5t-29.5 12q-8 0 -17 -1t-17 -1q-7 0 -14.5 4t-7.5 13q0 15 9.5 19t22.5 4q27 0 54 -1t54 -1q35 0 69.5 1t68.5 1q21 0 21 -19q0 -18 -14.5 -18.5t-26.5 -0.5
q-37 0 -46 -23t-9 -54q0 -129 0.5 -257.5t0.5 -257.5q0 -13 3 -29.5t12.5 -28.5t26.5 -12q8 0 17 0.5t17 0.5t15 -7t7 -15z" />
    <glyph glyph-name="Softsigncy" unicode="&#x42c;" 
d="M685 205q0 78 -37.5 120.5t-117.5 42.5q-14 0 -27 0.5t-27 0.5q-22 0 -42.5 -1.5t-41.5 -3.5v-299q0 -17 11 -24.5t26.5 -9.5t27.5 -2q58 0 110 16t85 54.5t33 105.5zM806 220q0 -74 -37 -123.5t-105 -75.5q-43 -16 -94.5 -19t-97.5 -3q-37 0 -73.5 1t-73.5 1
q-31 0 -61 -1.5t-60 -1.5q-8 0 -15.5 4t-7.5 13q0 17 11.5 17h21.5q31 0 48 8.5t21 42.5q2 14 2 29v29q0 128 -0.5 255t-0.5 254q0 15 -5.5 28t-21.5 17q-12 4 -26 3.5t-26 -0.5q-8 0 -14.5 4.5t-6.5 12.5q0 13 8 18t20 5q18 0 35.5 -1t36.5 -1q33 0 65.5 0.5t66.5 0.5
q12 0 23.5 1t24.5 1q5 0 11.5 -5t6.5 -11q0 -13 -7.5 -16.5t-17.5 -3t-18 0.5q-27 0 -37.5 -12t-9.5 -38v-251q29 1 57.5 1.5t57.5 0.5q34 0 69 -1t69 -9q44 -10 80.5 -33t58.5 -58.5t22 -83.5z" />
    <glyph glyph-name="Ereversedcy" unicode="&#x42d;" 
d="M852 369q0 -111 -45 -196t-127.5 -133t-195.5 -48q-71 0 -130.5 14t-107.5 49t-87 98q-3 5 -8 14t-5 14q0 8 9.5 13.5t15.5 5.5q10 0 18 -5q3 -3 7 -9q53 -73 114.5 -110.5t153.5 -37.5q66 0 115.5 26.5t83 72t51 102t18.5 115.5q-29 2 -58.5 3t-58.5 1q-40 0 -80.5 -1
t-81.5 -1q-25 0 -50 -3.5t-50 -8.5q-13 -3 -27 -6.5t-28 -3.5q-6 0 -14.5 2t-8.5 11q0 7 7 23.5t17 31t18 14.5q14 0 27.5 -2t27.5 -4q50 -3 99.5 -4t99.5 -1h79.5t79.5 2q-5 72 -32.5 142.5t-88.5 115.5q-24 17 -60 29.5t-66 12.5q-43 0 -85 -12t-73 -44q-27 -28 -38 -59.5
t-20 -68.5q-1 -4 -2.5 -9.5t-3.5 -8.5q-6 -8 -14.5 -9.5t-17.5 -1.5q-11 0 -20.5 5.5t-9.5 18.5q0 14 2.5 27t4.5 26q6 32 11.5 64.5t12.5 64.5q13 -1 26.5 -1.5t26.5 -0.5q20 0 41.5 7t40.5 13q29 10 59.5 16.5t61.5 6.5q117 0 199 -45t124.5 -128t42.5 -199z" />
    <glyph glyph-name="Iucy" unicode="&#x42e;" 
d="M853 362q0 37 -7.5 81t-23.5 88t-41 80.5t-59.5 59t-80.5 22.5t-81 -22t-60 -59t-40.5 -80.5t-22.5 -88t-7 -81.5q0 -47 11 -102.5t36 -105t65.5 -81t98.5 -31.5q59 0 99.5 31.5t65 81t36 104.5t11.5 103zM966 369q0 -77 -19 -145t-58 -119.5t-100 -81t-145 -29.5
q-128 0 -201 63.5t-105 183.5q-7 29 -12 61.5t-3 61.5h-112v-259q0 -15 1 -32t10 -28.5t30 -11.5q8 0 16.5 0.5t17.5 0.5q7 0 13.5 -4t6.5 -12q0 -11 -8 -15.5t-18 -4.5q-20 0 -39.5 0.5t-39.5 0.5h-62.5t-63.5 -2q-13 -1 -25.5 -1.5t-25.5 -0.5q-21 0 -21 19q0 13 10.5 16
t26 3t31 4t26 19.5t10.5 50.5q0 131 -0.5 261t-0.5 260q0 27 -7.5 46t-39.5 19q-7 0 -13.5 -1.5t-13.5 -1.5t-14 5t-7 13q0 17 8.5 20t22.5 3q26 0 51.5 -1.5t51.5 -1.5q35 0 69 2.5t68 2.5q9 0 15.5 -5t6.5 -15q0 -17 -14.5 -18t-25.5 -1q-37 0 -46 -22.5t-8 -53.5v-207
h116q12 91 49 164.5t103.5 117.5t165.5 44q81 0 141.5 -29t100.5 -79.5t60 -117.5t20 -142z" />
    <glyph glyph-name="Iacy" unicode="&#x42f;" 
d="M651 672q0 11 -11.5 17.5t-28.5 9.5t-32 3.5t-23 0.5q-53 0 -95 -13.5t-66 -46.5t-24 -94q0 -42 24 -80q22 -34 54.5 -49.5t70 -19t73.5 -3.5q14 0 29 1t29 4v270zM860 717q0 -10 -11 -16.5t-19 -6.5h-45q-30 0 -30 -31v-553q0 -27 9 -47t39 -25q8 -1 20.5 -1t23 -3
t10.5 -14q0 -10 -7 -15.5t-17 -5.5q-13 0 -26.5 0.5t-27.5 0.5q-50 0 -100 -1t-100 -1q-10 0 -19 2.5t-9 15.5q0 12 9 16t21 3.5t20 -0.5q32 0 41 23.5t9 49.5v258l-88 -4q-47 -81 -93 -162.5t-99 -159.5q-13 -19 -23.5 -28t-23.5 -11t-37 -2q-9 0 -17.5 0.5t-17.5 0.5
q-23 0 -46.5 -0.5t-46.5 -0.5q-5 0 -12 5t-7 10q0 14 14.5 15t24.5 1q20 0 45.5 20t53.5 53t55.5 72t52 77.5t43.5 70t30 48.5q-54 11 -100.5 34t-74.5 63.5t-28 102.5q0 50 27 85t71 56q38 17 80 21.5t83 4.5h18t18 -1q41 -2 81 -3t80 -1q30 0 60 2.5t60 2.5
q11 0 18.5 -4.5t7.5 -16.5z" />
    <glyph glyph-name="acy" unicode="&#x430;" 
d="M564 117q-4 45 -4.5 90t-1.5 90h-7q-31 0 -67 -10t-68.5 -28.5t-53.5 -46.5t-21 -64q0 -44 24.5 -69.5t68.5 -25.5q20 0 45 10.5t48 25.5t37 28zM756 53q0 -4 -1 -6q-12 -25 -37.5 -36t-51.5 -11q-41 0 -62 19.5t-33 56.5q-39 -33 -83.5 -52.5t-96.5 -19.5q-38 0 -73 14
t-56.5 42t-21.5 70t22 73t56.5 52.5t73.5 35t73 20.5q23 5 46.5 9t46.5 8q0 28 -2.5 64t-16.5 61q-10 20 -31.5 38.5t-44.5 18.5q-42 0 -67.5 -25t-34.5 -65q-1 -4 -1.5 -10t-2.5 -11q-2 -7 -11 -12t-17 -5q-20 0 -39.5 8.5t-19.5 32.5q0 12 4 21q13 32 44 53.5t69 32
t69 10.5q55 0 101.5 -19.5t75 -58.5t28.5 -99v-54.5v-54.5q0 -39 0.5 -77.5t2.5 -76.5q1 -19 5 -36t30 -17q11 0 22.5 6.5t23.5 6.5q2 0 6.5 -2t4.5 -5z" />
    <glyph glyph-name="becy" unicode="&#x431;" 
d="M642 269q0 33 -7.5 73.5t-24 78t-44.5 61.5t-70 24q-41 0 -69.5 -24t-45.5 -61.5t-24.5 -78t-7.5 -73.5t7.5 -73.5t24 -78t45 -61.5t70.5 -24t70.5 24t45 61.5t23.5 78t7 73.5zM751 269q0 -76 -28 -138t-82.5 -98.5t-135.5 -36.5q-79 0 -129 29.5t-77.5 79t-38.5 111.5
t-11 128q0 81 18.5 156.5t62.5 138t118 103.5q20 11 42 16.5t44 9.5q17 2 44.5 4.5t57 7.5t53 14t31.5 25l4 2h6q2 0 7 -0.5t5 -4.5q0 -43 -13.5 -66t-40.5 -32.5t-66 -13.5q-40 -4 -81 -11.5t-78 -27.5q-36 -19 -61 -51t-44 -67q-33 -62 -44 -133q19 33 42 59
q18 19 44.5 35t56.5 26t55 10q81 0 134 -37.5t79 -100t26 -137.5z" />
    <glyph glyph-name="vecy" unicode="&#x432;" 
d="M678 153q0 65 -40 91t-99 26h-48q-24 0 -48 -1l-48 -2v-211q0 -16 18 -20.5t30 -4.5q32 0 72 3t77 14t61.5 36t24.5 69zM636 414q0 33 -15 51t-38.5 26t-50.5 9.5t-51 1.5q-5 0 -10.5 -0.5t-10.5 -0.5q-9 -1 -24.5 -2.5t-27.5 -7t-12 -19.5v-169q14 0 28.5 -0.5
t27.5 -0.5q31 0 70.5 4t66.5 21q20 13 33.5 38t13.5 49zM796 156q0 -58 -22.5 -90t-60 -46t-82.5 -17.5t-89 -3.5q-53 0 -106.5 1t-106.5 1q-25 0 -50 -2.5t-51 -2.5q-7 0 -15.5 5t-8.5 14q0 13 8 17t19 3.5t19 -0.5q29 0 35.5 18t6.5 42q0 93 -0.5 186t-0.5 187
q0 26 -16.5 30t-36.5 4q-12 0 -22 1.5t-10 17.5q0 15 11 17t23 2q29 0 57.5 -0.5t57.5 -0.5q44 0 88 2t87 2q32 0 69.5 -3.5t71 -15t55.5 -36t22 -66.5q0 -41 -21 -68t-54 -42t-69 -22q29 -3 62 -11t62.5 -23.5t48.5 -39.5t19 -60z" />
    <glyph glyph-name="gecy" unicode="&#x433;" 
d="M726 397q0 -11 -9.5 -16t-18.5 -5q-6 0 -13 3.5t-9 8.5q-10 20 -13 43.5t-17 45.5q-10 16 -33 21.5t-48 6t-43 0.5t-38 -5.5t-20 -29.5v-371q0 -40 9 -52t49 -12q8 0 15.5 -5t7.5 -14q0 -8 -8 -13t-16 -5q-55 0 -109.5 -0.5t-109.5 -0.5q-7 0 -16 4t-9 14q0 13 9.5 16
t21.5 2.5t20 -0.5q34 0 34 36v68q-1 73 -1 146v146q0 9 0.5 18.5t-0.5 19.5q-3 17 -22 24t-34 7q-24 0 -24 23q0 14 10.5 17t20.5 3q29 0 57 -1.5t57 -1.5q67 0 133.5 2.5t133.5 2.5q9 0 14 -4q2 -2 1 -2q4 -22 6.5 -44t5.5 -44l4 -26t2 -26z" />
    <glyph glyph-name="decy" unicode="&#x434;" 
d="M588 227q0 54 -0.5 108t-0.5 107q0 17 -3 35q-1 6 -3 13t-11 7h-116l-2 -24l-2 -24q-9 -106 -29.5 -210t-53.5 -205h152q17 0 33.5 0.5t32.5 0.5q3 96 3 192zM789 -79q0 -10 -6 -17.5t-17 -7.5q-16 0 -23 16q-10 18 -16.5 30t-23.5 25q-19 16 -48.5 24t-53.5 8h-190
q-28 0 -61.5 -1t-61.5 -11q-25 -9 -36.5 -23.5t-17.5 -29.5t-12.5 -25t-23.5 -10q-7 0 -13.5 5t-6.5 12q0 24 4 49.5t10 47.5q5 17 15.5 21.5t24.5 4t27 -0.5q18 0 33.5 16t21.5 32q32 94 49 193t17 198q0 11 -2 15.5t-15 4.5q-7 0 -15 -1t-16 -1q-11 0 -21 4.5t-10 17.5
q0 9 6.5 17.5t16.5 8.5q52 0 103.5 -0.5t103.5 -0.5q48 0 96 1t96 1q10 0 18.5 -6.5t8.5 -16.5q0 -22 -15.5 -22.5t-30.5 -0.5q-9 0 -15.5 -4t-6.5 -15q0 -106 -2 -212.5t-2 -213.5q0 -4 0.5 -7.5t0.5 -8.5q19 0 37.5 0.5t37.5 0.5h11t10 -3q5 -3 8 -18t4 -35t1.5 -37
t0.5 -24z" />
    <glyph glyph-name="iecy" unicode="&#x435;" 
d="M616 356q-1 28 -4 56.5t-13 52.5t-30.5 39t-56.5 15q-44 0 -72 -26.5t-44 -64.5t-23 -75q23 -1 45 -1h44q38 0 76.5 1t77.5 3zM749 124q0 -4 -3 -6q-3 -11 -14.5 -24.5t-25 -26t-23.5 -19.5q-35 -24 -79.5 -38t-87.5 -14q-37 0 -80.5 11t-74.5 31q-57 37 -83.5 97.5
t-26.5 126.5q0 74 30 137.5t94 103.5q31 19 69.5 30t73.5 11q61 0 108.5 -23.5t74.5 -67.5t27 -107q0 -19 -10.5 -23.5t-27.5 -4.5q-21 0 -41.5 1t-40.5 2q-28 2 -55.5 2h-56.5h-64t-64 -1q-1 -16 -2.5 -31.5t-1.5 -30.5q0 -35 9 -74t28 -73t49 -55t72 -21t83 14.5t72 43.5
q9 8 16 19.5t17 18.5q8 6 19 6q5 0 12.5 -4.5t7.5 -10.5z" />
    </font>
</defs>
</svg>
