<?xml version="1.0" standalone="no"?>
<!DOCTYPE svg PUBLIC "-//W3C//DTD SVG 1.1//EN" "http://www.w3.org/Graphics/SVG/1.1/DTD/svg11.dtd" >
<svg xmlns="http://www.w3.org/2000/svg" xmlns:xlink="http://www.w3.org/1999/xlink" version="1.1">
<metadata>
Created by FontForge 20170731 at Thu Oct 21 15:45:39 2021
 By Aleksey,,,
Copyright 2020 The Kaisei Project Authors (https://github.com/Font-Kai/Kaisei)
</metadata>
<defs>
<font id="KaiseiOpti-Bold" horiz-adv-x="1000" vert-adv-y="1000" >
  <font-face 
    font-family="Kaisei Opti"
    font-weight="700"
    font-stretch="normal"
    units-per-em="1000"
    panose-1="0 0 0 0 0 0 0 0 0 0"
    ascent="880"
    descent="-120"
    x-height="537"
    cap-height="754"
    bbox="-93 -213 1035 949"
    underline-thickness="50"
    underline-position="-175"
    unicode-range="U+000D-2F920"
  />
<missing-glyph 
d="M494 585q0 12 -12 12q-11 0 -11 -12q0 -11 11 -11q12 0 12 11zM638 196q0 -7 -5 -10.5t-12 -3.5q-16 0 -32 6t-30 16q-4 -12 -4 -28t5.5 -32.5t15.5 -29.5v-1.5v-0.5q0 -4 -4 -5t-6 -1q-14 0 -26 8.5t-26 8.5q-13 0 -28.5 -11t-14.5 -25q-6 -12 -18 -12q-5 0 -8.5 6.5
t-3.5 10.5q0 13 12.5 21.5t29.5 19t29.5 29t12.5 51.5q0 21 -5 27.5t-14 23.5q-14 26 -20.5 55t-6.5 58q0 15 2.5 30t2.5 30q0 8 -2.5 16t-10.5 12h-2q-21 1 -35.5 -15.5t-23 -40.5t-12.5 -48.5t-4 -40.5q0 -44 18 -93t50 -80q0 -12 -10.5 -14.5t-19.5 -2.5q-12 0 -23.5 1.5
t-23.5 3.5q-7 5 -7 13q0 4 2 7.5t6 3.5q11 0 21.5 -4t21.5 -6q0 1 0.5 2t0.5 2q0 5 -5 10t-8 9q-14 18 -23.5 46t-14.5 50q-8 0 -16 -4.5t-18 -4.5q-11 0 -17 8v7q23 16 33.5 39t16.5 49t15 49q8 19 18.5 35t22.5 32q6 8 15.5 20t12.5 21q2 5 2.5 10.5t0.5 10.5
q0 15 -10 22.5t-24 10t-26 2.5q-10 0 -20 -1t-20 -1l-3 4q8 16 26 16q9 0 17.5 -2t17.5 -2q14 0 21 7.5t15 15t26 7.5q25 0 44 -15t19 -41q0 -17 -6 -33t-6 -33q0 -16 11 -27.5t17 -25.5q11 -23 16.5 -51t5.5 -54q0 -8 -1 -16t-1 -16q0 -31 13.5 -52.5t27 -35.5t13.5 -23z
" />
    <glyph glyph-name=".notdef" 
d="M494 585q0 12 -12 12q-11 0 -11 -12q0 -11 11 -11q12 0 12 11zM638 196q0 -7 -5 -10.5t-12 -3.5q-16 0 -32 6t-30 16q-4 -12 -4 -28t5.5 -32.5t15.5 -29.5v-1.5v-0.5q0 -4 -4 -5t-6 -1q-14 0 -26 8.5t-26 8.5q-13 0 -28.5 -11t-14.5 -25q-6 -12 -18 -12q-5 0 -8.5 6.5
t-3.5 10.5q0 13 12.5 21.5t29.5 19t29.5 29t12.5 51.5q0 21 -5 27.5t-14 23.5q-14 26 -20.5 55t-6.5 58q0 15 2.5 30t2.5 30q0 8 -2.5 16t-10.5 12h-2q-21 1 -35.5 -15.5t-23 -40.5t-12.5 -48.5t-4 -40.5q0 -44 18 -93t50 -80q0 -12 -10.5 -14.5t-19.5 -2.5q-12 0 -23.5 1.5
t-23.5 3.5q-7 5 -7 13q0 4 2 7.5t6 3.5q11 0 21.5 -4t21.5 -6q0 1 0.5 2t0.5 2q0 5 -5 10t-8 9q-14 18 -23.5 46t-14.5 50q-8 0 -16 -4.5t-18 -4.5q-11 0 -17 8v7q23 16 33.5 39t16.5 49t15 49q8 19 18.5 35t22.5 32q6 8 15.5 20t12.5 21q2 5 2.5 10.5t0.5 10.5
q0 15 -10 22.5t-24 10t-26 2.5q-10 0 -20 -1t-20 -1l-3 4q8 16 26 16q9 0 17.5 -2t17.5 -2q14 0 21 7.5t15 15t26 7.5q25 0 44 -15t19 -41q0 -17 -6 -33t-6 -33q0 -16 11 -27.5t17 -25.5q11 -23 16.5 -51t5.5 -54q0 -8 -1 -16t-1 -16q0 -31 13.5 -52.5t27 -35.5t13.5 -23z
" />
    <glyph glyph-name=".null" horiz-adv-x="0" vert-adv-y="0" 
 />
    <glyph glyph-name="nonmarkingreturn" horiz-adv-x="333" 
 />
    <glyph glyph-name="CR" unicode="&#xd;" horiz-adv-x="600" 
 />
    <glyph glyph-name="space" unicode=" " horiz-adv-x="250" 
 />
    <glyph glyph-name="exclam" unicode="!" horiz-adv-x="400" 
d="M278 50q0 -31 -23.5 -53t-54.5 -22t-54.5 22t-23.5 53q0 32 23.5 53t54.5 21t54.5 -21t23.5 -53zM281 690q0 -20 -3.5 -40t-5.5 -40q-14 -106 -27.5 -212t-27.5 -213h-35q-8 107 -21.5 213.5t-30.5 211.5q-3 20 -6.5 40t-3.5 40q0 30 26.5 47.5t53.5 17.5q17 0 36 -8.5
t32 -23t13 -33.5z" />
    <glyph glyph-name="quotedbl" unicode="&#x22;" horiz-adv-x="390" 
d="M169 736q0 -34 -4.5 -69.5t-9.5 -70.5q-3 -19 -6 -44.5t-8 -43.5q-1 -5 -7 -15t-13 -10q-10 0 -14 8.5t-6 16.5q-5 25 -8.5 50t-6.5 50q-4 32 -8.5 64.5t-4.5 63.5q0 22 13.5 33.5t34.5 11.5q19 0 33.5 -13t14.5 -32zM317 736q0 -32 -4 -65.5t-9 -65.5q-3 -24 -6 -49
t-9 -48q-1 -7 -5.5 -16t-14.5 -9t-14 8.5t-6 16.5q-5 25 -8.5 50t-6.5 50q-4 32 -8.5 64.5t-4.5 63.5q0 22 13.5 33.5t34.5 11.5q19 0 33.5 -13t14.5 -32z" />
    <glyph glyph-name="numbersign" unicode="#" horiz-adv-x="780" 
d="M491 488h-165l-30 -165h165zM708 569l-16 -81h-142l-30 -165h146l-16 -82h-144l-45 -256h-60l46 256h-165l-47 -256h-59l49 256h-153l16 82h151l29 165h-154l16 81h152l35 200h59l-35 -200h163l36 200h58l-34 -200h144z" />
    <glyph glyph-name="dollar" unicode="$" horiz-adv-x="700" 
d="M472 169q0 49 -27.5 79.5t-66.5 52.5v-265q47 19 70.5 50t23.5 83zM312 687q-45 -14 -66.5 -42.5t-21.5 -75.5q0 -44 27 -72t61 -50v240zM601 182q0 -64 -32.5 -103.5t-83.5 -59.5t-107 -26v-75h-66v72q-28 2 -55 5.5t-53 13.5q-21 8 -41 17.5t-42 14.5q-5 38 -13.5 75
t-8.5 75q0 11 7 15t16 4q18 0 30 -5t18 -23q4 -11 6 -23.5t6 -23.5q16 -50 47.5 -74t82.5 -32v308q-30 15 -65.5 33t-67.5 41t-52.5 53.5t-20.5 69.5q0 60 29.5 99t76.5 60t100 26v67h66v-68q26 -2 49.5 -10t47.5 -18q17 -6 34.5 -8.5t36.5 -4.5q3 -29 5 -59t9 -60
q1 -4 2 -7.5t1 -7.5q0 -16 -16 -21.5t-28 -5.5q-10 0 -18 2t-13 12q-3 13 -5 26.5t-6 26.5q-10 37 -37.5 62t-61.5 39v-272q39 -18 78.5 -37.5t72.5 -45t52.5 -61t19.5 -86.5z" />
    <glyph glyph-name="percent" unicode="%" horiz-adv-x="886" 
d="M307 537q0 20 -1 48.5t-7.5 57t-22 47.5t-43.5 19t-43.5 -19t-22.5 -47.5t-8.5 -57t-1.5 -48.5q0 -17 3 -44t11 -54t23 -45t39 -18q29 0 44 17.5t21.5 43.5t7.5 53t1 47zM727 186q0 20 -1.5 48.5t-8 56t-22.5 46t-45 18.5q-28 0 -43.5 -19t-22 -47.5t-7.5 -57t-1 -48.5
q0 -17 3 -43.5t11 -53.5t22.5 -45t37.5 -18q29 0 45 17.5t22.5 43.5t8 53.5t1.5 48.5zM417 537q0 -48 -25.5 -92.5t-67 -73t-91.5 -28.5q-52 0 -93.5 27.5t-65.5 72t-24 94.5q0 36 14 72t39 65.5t58.5 47.5t71.5 18q56 0 97 -28.5t64 -75t23 -99.5zM775 716l-627 -735
l-35 26l627 736zM836 183q0 -48 -26 -92t-68 -72t-92 -28q-52 0 -93 27t-64.5 71t-23.5 94q0 36 14 71.5t39 65.5t58 48t70 18q57 0 98.5 -28.5t64.5 -74.5t23 -100z" />
    <glyph glyph-name="ampersand" unicode="&#x26;" horiz-adv-x="758" 
d="M445 79q-45 29 -90 77.5t-80.5 104t-54.5 104.5q-25 -31 -41 -73.5t-16 -82.5q0 -44 17 -82t49.5 -61t79.5 -23q38 0 71.5 6.5t64.5 29.5zM391 637q0 18 -12.5 38.5t-32.5 20.5q-28 0 -47 -16t-28 -40.5t-9 -49.5q0 -59 27 -113q22 19 45.5 44.5t40 55.5t16.5 60zM766 53
q0 -23 -18.5 -38t-43 -21.5t-43.5 -6.5q-46 0 -93.5 17t-81.5 48q-49 -34 -104 -47t-114 -13q-56 0 -107 21t-83 63t-32 103q0 49 20.5 92.5t54 79.5t71.5 63q-13 33 -22 68t-9 72q0 30 11 58.5t30 52.5q30 36 73.5 52t89.5 16q32 0 63 -12t51 -36.5t20 -60.5
q0 -39 -23.5 -69t-57 -52.5t-63.5 -39.5q-13 -7 -25 -15t-23 -17q20 -48 51 -101.5t68.5 -102t76.5 -84.5q19 31 24.5 68.5t5.5 71.5q0 13 -4.5 35t-14 40.5t-25.5 18.5q-4 0 -8.5 -0.5t-8.5 -0.5q-9 0 -9 7q0 10 3.5 22t16.5 12q32 0 64 2.5t63 9.5q24 6 45 21q6 5 18.5 19
t25 26t17.5 12q20 0 20 -19q0 -4 -6.5 -21t-14 -33.5t-10.5 -21.5q-5 -8 -8 -11.5t-13 -6.5q-5 -1 -15.5 -1h-15.5q-28 0 -55.5 -2t-55.5 -4q19 -5 38.5 -20.5t33 -36t13.5 -41.5q0 -57 -17.5 -102t-58.5 -85q30 -25 73 -45t83 -20q16 0 30.5 5t28.5 11z" />
    <glyph glyph-name="quotesingle" unicode="'" horiz-adv-x="280" 
d="M190 734q0 -22 -5 -54t-8 -55q-4 -30 -8 -61t-10 -61q-2 -7 -6 -15.5t-14 -8.5t-14 8.5t-6 15.5q-7 31 -11.5 64t-7.5 64q-1 16 -3 31t-4 31q-1 10 -3 20.5t-2 20.5q0 23 15 34.5t37 11.5q20 0 35 -12.5t15 -33.5z" />
    <glyph glyph-name="parenleft" unicode="(" horiz-adv-x="450" 
d="M409 -114q-140 79 -210.5 201t-70.5 282q0 167 70.5 293t210.5 214l14 -28q-20 -16 -37 -35t-31 -39q-39 -57 -61.5 -125t-32 -139.5t-9.5 -140.5q0 -57 8 -121t27.5 -127.5t52.5 -117t83 -89.5z" />
    <glyph glyph-name="parenright" unicode=")" horiz-adv-x="450" 
d="M327 369q0 -160 -70.5 -282t-210.5 -201l-14 28q50 35 82.5 89t52 117t27.5 127.5t8 121.5q0 70 -9.5 142.5t-32.5 141t-64 126.5q-13 19 -29 37t-35 32l14 28q140 -88 210.5 -214t70.5 -293z" />
    <glyph glyph-name="asterisk" unicode="*" horiz-adv-x="450" 
d="M396 534q0 -16 -12 -29.5t-29 -13.5q-10 0 -22 5q-3 2 -17 16t-32.5 33t-34 35.5t-21.5 21.5q3 -9 9 -30.5t13 -46t12 -43.5t5 -25q0 -18 -12 -29t-30 -11q-17 0 -29 11t-12 29q0 4 5 23.5t11.5 44.5t12.5 46.5t8 29.5q-7 -7 -21.5 -23t-31.5 -33.5t-31 -31.5t-20 -17
q-9 -6 -22 -6q-16 0 -28 14t-12 30q0 11 6 19.5t15 13.5q3 2 22.5 7.5t44 12t46 12t29.5 7.5q-7 2 -29.5 8.5t-49 13.5t-46 13t-22.5 7q-17 10 -17 29q0 17 14 31.5t32 14.5q8 0 15 -6q9 -7 17.5 -16t16.5 -17q36 -37 73 -73q-3 12 -9 33.5t-12.5 46t-11.5 44t-5 26.5
q0 18 13 26t28 8q14 0 28 -9t14 -25q0 -6 -5 -25.5t-12 -44.5t-13 -47t-9 -32q7 6 23.5 22.5t35 35.5t33.5 33t19 16q8 5 17 5q18 0 28 -15t10 -32q0 -10 -3.5 -18t-14.5 -12q-10 -4 -22 -7t-23 -6q-25 -7 -49.5 -13.5t-49.5 -14.5q9 -3 30.5 -8t45.5 -11t43 -11.5t24 -8.5
q21 -10 21 -33z" />
    <glyph glyph-name="plus" unicode="+" horiz-adv-x="750" 
d="M679 333h-274v-269h-60v269h-273v59h273v262h60v-262h274v-59z" />
    <glyph glyph-name="comma" unicode="," horiz-adv-x="350" 
d="M252 52q0 -29 -13 -65.5t-33 -70t-41 -54.5l-25 8q17 29 31 69t15 74q-11 -7 -25 -7q-24 0 -42.5 19.5t-18.5 43.5q0 34 20 54.5t54 20.5q42 0 60 -27t18 -65z" />
    <glyph glyph-name="hyphen" unicode="-" horiz-adv-x="400" 
d="M332 283h-263v77h263v-77z" />
    <glyph glyph-name="period" unicode="." horiz-adv-x="350" 
d="M251 82q0 -31 -22 -54t-54 -23q-31 0 -53.5 23t-22.5 54q0 32 22.5 54.5t53.5 22.5q32 0 54 -22.5t22 -54.5z" />
    <glyph glyph-name="slash" unicode="/" horiz-adv-x="500" 
d="M464 814l-382 -904l-46 23l382 904z" />
    <glyph glyph-name="zero" unicode="0" horiz-adv-x="590" 
d="M403 357q0 53 -2 107t-11 107q-4 26 -14.5 55.5t-29.5 50.5t-52 21q-34 0 -54.5 -28t-32 -72t-16 -92.5t-5.5 -90.5t-1 -65q0 -22 0.5 -61t4.5 -83.5t14.5 -85t30.5 -66.5t53 -26q35 0 54.5 18.5t30 46.5t15.5 56q11 52 13 104t2 104zM539 365q0 -61 -12.5 -125.5
t-41.5 -119.5t-79 -89t-124 -34q-68 0 -113 33t-71 86t-36.5 113.5t-10.5 115.5q0 48 7 101t23.5 103t45.5 90.5t72 64.5t104 24q59 0 100 -22.5t67.5 -60.5t41.5 -85t21 -97.5t6 -97.5z" />
    <glyph glyph-name="one" unicode="1" horiz-adv-x="590" 
d="M490 14q0 -7 -4 -13t-11 -6q-13 0 -27 1l-28 2q-23 2 -47 2h-48q-57 0 -114 -3q-10 -1 -20 -1.5t-20 -0.5q-19 0 -19 20q0 8 7 13t14 5q10 0 19.5 -1t19.5 -1q14 0 27 3t13 22q0 150 1 300t1 300q-7 -3 -26.5 -9.5t-41.5 -14t-40 -13t-22 -5.5q-10 0 -17 5.5t-7 15.5
t2.5 16t12.5 10t20 6t20 5q23 6 45 12.5t44 13.5q6 2 26 9t43 15t40.5 14t19.5 6q10 0 16.5 -3.5t6.5 -14.5q0 -166 -1.5 -333t-1.5 -334q0 -10 8.5 -18t17.5 -8q14 0 28 1t28 1q7 0 11 -6.5t4 -12.5z" />
    <glyph glyph-name="two" unicode="2" horiz-adv-x="590" 
d="M545 170q0 -3 -5 -24.5t-11.5 -49t-12.5 -50t-8 -28.5q-4 -13 -10.5 -15.5t-18.5 -2.5q-30 0 -59.5 2t-58.5 2q-26 0 -53 -0.5t-53 -0.5q-52 0 -104.5 -0.5t-105.5 -2.5q2 53 21.5 90.5t51.5 77.5q40 51 86 96.5t90 92.5q38 39 61.5 86.5t23.5 102.5q0 20 -3.5 44.5
t-13 48t-26 38.5t-42.5 15q-29 0 -52.5 -15.5t-37.5 -40.5q-13 -22 -17.5 -53.5t-4.5 -57.5q0 -14 -13.5 -22.5t-30.5 -12t-28 -3.5q-19 0 -37.5 18t-18.5 37q0 48 25 82.5t64 56.5t84 32.5t85 10.5q52 0 99.5 -19.5t78.5 -58t31 -95.5q0 -72 -35 -128t-89 -100
q-37 -30 -76.5 -56t-77 -53.5t-69.5 -61t-55 -79.5q58 0 115.5 1.5t115.5 2.5q29 1 56 7t52 22q19 13 31.5 29.5t24.5 35.5q4 6 8 10.5t11 4.5q12 0 12 -16z" />
    <glyph glyph-name="three" unicode="3" horiz-adv-x="590" 
d="M536 247q0 -39 -14 -79.5t-39 -74t-59 -55.5q-39 -25 -84.5 -36t-91.5 -11q-34 0 -70 7.5t-66.5 25.5t-49.5 49q-6 10 -10 21.5t-4 23.5q0 14 11.5 25t27.5 17t28 6q14 0 33.5 -6t19.5 -24q0 -24 6 -50t21.5 -44t45.5 -18q43 0 72.5 18.5t47 49t25 67t7.5 73.5
q0 35 -12 68.5t-37 55t-65 21.5q-16 0 -32.5 -2t-32.5 -4q-4 -1 -8.5 -2t-9.5 -1q-7 0 -11.5 7t-4.5 14q0 14 11.5 15.5t21.5 1.5q15 0 31 0.5t30 4.5q50 14 73 57.5t23 90.5q0 28 -7 61t-25.5 56.5t-54.5 23.5q-40 0 -63 -22.5t-32.5 -55.5t-9.5 -67q0 -11 -11 -18.5
t-25 -11t-23 -3.5q-26 0 -40 18.5t-14 42.5q0 12 8 29.5t15 27.5q25 36 61 56t77.5 28t81.5 8q47 0 93 -17t76 -52t30 -89q0 -44 -21.5 -79t-55.5 -59t-74 -35q49 -5 89.5 -19.5t65.5 -46t25 -88.5z" />
    <glyph glyph-name="four" unicode="4" horiz-adv-x="590" 
d="M303 589q-5 -9 -22.5 -36.5t-41 -66t-48.5 -79.5t-46.5 -76.5t-35 -58.5t-13.5 -24q0 -3 4 -3h203v120v120v104zM568 311q0 -6 -3 -28t-6 -45t-4 -33q-1 -7 -5.5 -8t-9.5 -1h-104q1 -31 0.5 -61.5t-0.5 -60.5q0 -13 4 -27t21 -14q14 0 27 1.5t26 1.5q8 0 12 -6t4 -13
t-4 -13t-12 -6q-14 0 -28.5 0.5t-28.5 1.5q-22 1 -44 1h-45t-46 -0.5t-46 -1.5q-12 -1 -24 -1.5t-25 -0.5q-7 0 -13 4.5t-6 12.5q0 14 8 17t19 3q8 0 16.5 -0.5t16.5 -0.5q21 0 28 9t7 28q0 32 -0.5 63.5t-0.5 62.5h-261q-18 0 -18 15q0 9 6 16q23 41 48 80.5t50 79.5
q51 83 100.5 167t100.5 166q11 18 32 18q12 0 24.5 0.5t25.5 0.5q9 0 18 -2.5t9 -14.5v-477h43q26 0 41.5 22.5t25.5 41.5q2 5 4 8.5t8 3.5q9 0 9 -10z" />
    <glyph glyph-name="five" unicode="5" horiz-adv-x="590" 
d="M539 252q0 -78 -36.5 -135t-98.5 -88t-137 -31q-41 0 -90 8.5t-82 35.5q-20 17 -32 35.5t-12 46.5q0 14 11.5 24t27.5 15t27 5q23 0 42.5 -11t19.5 -37q0 -34 15 -59.5t54 -25.5q44 0 72.5 21t45 55t23.5 73t7 74q0 26 -4 54.5t-15 53.5t-32 41t-54 16q-17 0 -37 -9
t-33 -21q-16 -16 -22 -38.5t-8 -45.5v-6.5t-2 -6.5q-5 -9 -16 -9q-5 0 -20 3.5t-32 8.5t-29 11t-12 12q0 9 3 19.5t4 19.5q10 63 11 127t1 128q0 54 -6 106q35 -4 69.5 -7t68.5 -3h126q35 0 66.5 4.5t60.5 23.5q5 3 9 3q3 0 6.5 -1.5t3.5 -6.5q0 -2 -4.5 -15.5t-9.5 -28
t-7 -18.5q-7 -17 -15.5 -19.5t-26.5 -2.5q-50 0 -100.5 2t-100.5 1h-54q-1 -59 -4 -118.5t-6 -118.5q39 26 77.5 34.5t84.5 8.5q55 0 100.5 -29.5t73.5 -77t28 -101.5z" />
    <glyph glyph-name="six" unicode="6" horiz-adv-x="590" 
d="M409 214q0 26 -2.5 60t-11.5 66.5t-29 54t-56 21.5q-34 0 -63 -18t-49 -44q-6 -22 -6.5 -46t-0.5 -47q0 -22 1 -52.5t5.5 -62.5t15.5 -60t31 -45.5t52 -17.5q37 0 59.5 19t34 48.5t15.5 62.5t4 61zM547 238q0 -79 -35 -133.5t-94.5 -82.5t-135.5 -28q-58 0 -104.5 26
t-77 70t-42.5 99q-5 26 -7 53t-2 54q0 33 8.5 71.5t18.5 69.5q48 135 140.5 219.5t230.5 122.5q11 3 21.5 5t21.5 2q8 0 8 -8q0 -4 -7.5 -7t-10.5 -5q-43 -20 -82.5 -44.5t-71.5 -59.5q-47 -50 -77 -112.5t-47 -128.5q35 17 61.5 24t64.5 7q63 0 112.5 -27t78 -75.5
t28.5 -111.5z" />
    <glyph glyph-name="seven" unicode="7" horiz-adv-x="590" 
d="M538 685q-41 -45 -76 -95.5t-58 -108.5q-38 -98 -51 -203t-16 -210q0 -22 -4 -41.5t-16.5 -32t-40.5 -12.5q-81 0 -81 84q0 11 1.5 23t3.5 23q25 154 86.5 300.5t170.5 261.5q-43 -1 -86.5 -2t-87.5 -3l-50 -2t-50 -6q-15 -4 -30 -9.5t-27 -16.5q-16 -16 -24.5 -36.5
t-16.5 -39.5q-6 -13 -18 -13q-15 0 -15 16q0 5 2 27t3 38q2 19 3 38.5t2 36.5q1 8 4 14t13 6q48 0 96 -1.5t97 -1.5q66 0 133 1t133 5v-40z" />
    <glyph glyph-name="eight" unicode="8" horiz-adv-x="590" 
d="M417 191q0 83 -45 125.5t-118 64.5q-49 -31 -73.5 -80.5t-24.5 -106.5q0 -42 12.5 -81t41.5 -63.5t78 -24.5q27 0 52 14q43 23 60 65t17 87zM398 577q0 55 -25 94.5t-86 39.5q-34 0 -54 -20t-28 -49.5t-8 -58.5q0 -61 30.5 -95.5t84.5 -56.5q41 20 63.5 61.5t22.5 84.5z
M553 228q0 -75 -34.5 -127t-93 -79.5t-129.5 -27.5q-46 0 -92 10.5t-84 33.5t-60.5 60.5t-22.5 91.5q0 38 17 75.5t45 62.5q23 21 51 37.5t55 31.5q-31 13 -62 34.5t-51 51t-20 67.5q0 48 20.5 83.5t54.5 59t76 35t85 11.5q35 0 71 -8.5t66 -26.5t48.5 -47t18.5 -70
q0 -64 -39 -108.5t-97 -65.5q42 -14 82.5 -38.5t67.5 -60.5t27 -86z" />
    <glyph glyph-name="nine" unicode="9" horiz-adv-x="590" 
d="M399 446q0 23 -0.5 54.5t-5 66t-15 64t-31 48t-53.5 18.5q-37 0 -59.5 -19t-34 -48.5t-15.5 -62.5t-4 -61q0 -25 2.5 -59.5t11.5 -67t29 -54t56 -21.5q35 0 63.5 18.5t48.5 43.5q5 20 6 40t1 40zM541 424q0 -34 -8 -71.5t-19 -69.5q-48 -135 -140.5 -219.5t-230.5 -122.5
q-10 -3 -21 -5t-22 -2q-8 0 -8 8q0 4 7.5 7.5t10.5 4.5q44 20 83 44.5t71 59.5q47 50 77.5 112.5t46.5 128.5q-34 -16 -61 -23.5t-65 -7.5q-62 0 -112 27.5t-78.5 75.5t-28.5 111q0 79 35 133.5t95 82.5t135 28q58 0 104.5 -26t77.5 -70t42 -99q5 -26 7 -53t2 -54z" />
    <glyph glyph-name="colon" unicode=":" horiz-adv-x="390" 
d="M273 84q0 -34 -22 -54t-56 -20t-56 20t-22 54q0 35 22 54.5t56 19.5t56 -19.5t22 -54.5zM273 442q0 -34 -22 -54t-56 -20t-56 20t-22 54q0 35 22 55t56 20t56 -20t22 -55z" />
    <glyph glyph-name="semicolon" unicode=";" horiz-adv-x="390" 
d="M273 49q0 -29 -12.5 -65t-32 -68.5t-40.5 -52.5l-29 9q11 17 22 42.5t18 52t6 46.5q-8 -5 -17.5 -6.5t-19.5 -1.5q-19 0 -34.5 18.5t-15.5 37.5q0 35 21 57.5t57 22.5q43 0 60 -27t17 -65zM272 441q0 -34 -22 -54t-56 -20q-33 0 -55 20t-22 54q0 35 22 55t55 20
q34 0 56 -20t22 -55z" />
    <glyph glyph-name="less" unicode="&#x3c;" horiz-adv-x="780" 
d="M685 42l-619 317l619 315v-80l-495 -235l495 -238v-79z" />
    <glyph glyph-name="equal" unicode="=" horiz-adv-x="750" 
d="M678 257h-605v55h605v-55zM678 414h-605v55h605v-55z" />
    <glyph glyph-name="greater" unicode="&#x3e;" horiz-adv-x="780" 
d="M685 359l-619 -317v79l495 238l-495 235v80z" />
    <glyph glyph-name="question" unicode="?" horiz-adv-x="560" 
d="M356 54q0 -31 -22 -52.5t-52 -21.5t-52 21.5t-22 52.5q0 30 22 52t52 22t52 -22t22 -52zM508 574q0 -37 -19.5 -72.5t-48.5 -58.5q-28 -22 -52.5 -34.5t-44 -30t-34.5 -56.5q-10 -26 -12 -65t-3 -68h-34q-3 20 -5 41t-2 41q0 21 1.5 42t5.5 41q8 32 22 53.5t30.5 39
t31.5 37t24.5 47t9.5 68.5q0 46 -21 81t-73 35q-46 0 -79 -28t-33 -76q0 -13 5 -25.5t5 -26.5q0 -32 -23.5 -44.5t-51.5 -12.5q-25 0 -40 19t-15 43q0 18 5.5 35.5t14.5 33.5q33 59 92.5 84t124.5 25q54 0 104 -16t82.5 -52.5t32.5 -99.5z" />
    <glyph glyph-name="at" unicode="@" horiz-adv-x="900" 
d="M540 437q0 12 -4 26.5t-13 25.5t-23 11q-25 0 -43 -19t-30.5 -49t-20 -63t-11 -63t-3.5 -48q0 -16 5 -38.5t17 -40t32 -17.5q15 0 25 11.5t16 23.5q3 7 9.5 31t14 56t14 64t11 56.5t4.5 32.5zM836 405q0 -45 -15 -96t-44 -96t-70 -73.5t-93 -28.5q-28 0 -58 12t-41 40
q-25 -20 -51.5 -32.5t-58.5 -12.5q-41 0 -69.5 23t-43 59t-14.5 73q0 43 15.5 88t43.5 83.5t67.5 62t87.5 23.5q23 0 46 -10t40 -25q12 11 32.5 20t36.5 9q11 0 22.5 -6.5t11.5 -19.5l-0.5 -1t-0.5 -2q-9 -28 -21.5 -67.5t-24.5 -83t-19.5 -83t-7.5 -67.5q0 -10 3.5 -27
t19.5 -17q30 0 51.5 21t36.5 54t24 70.5t13 72t4 56.5q0 79 -35 138t-95.5 92t-138.5 33q-66 0 -122 -31.5t-96.5 -82.5t-61.5 -111q-15 -40 -20.5 -82.5t-5.5 -85.5q0 -59 20 -115.5t58 -103t91 -75.5q25 -13 52.5 -20.5t56.5 -7.5q54 0 97 9.5t84 28t86 46.5q4 3 12 3
q5 0 10 -4.5t5 -10.5q0 -9 -5 -14.5t-11 -10.5q-34 -27 -83 -45.5t-100.5 -27.5t-94.5 -9q-80 0 -151.5 21t-127 68t-88.5 124q-13 32 -21.5 67.5t-8.5 69.5q0 91 32.5 169t90.5 136.5t135.5 91t168.5 32.5q95 0 173 -35.5t124.5 -105t46.5 -170.5z" />
    <glyph glyph-name="A" unicode="A" horiz-adv-x="774" 
d="M463 297q-28 85 -57.5 169t-56.5 169q-29 -85 -57.5 -169t-57.5 -169h229zM763 10q0 -15 -19 -15h-12t-13 1q-25 2 -51.5 2h-52.5h-66t-67 -2q-4 -1 -8 -1h-8q-14 0 -14 14q0 12 8.5 14.5t19.5 1.5t18 -1q18 0 26.5 7.5t8.5 26.5q0 11 -7 38.5t-17 60.5t-19.5 61.5
l-13.5 40.5h-255l-9 -27t-16.5 -49t-18.5 -55t-15 -46.5t-6 -23.5q0 -19 10 -26t25 -7.5t29 -0.5q5 0 8 -6.5t3 -11.5q0 -6 -4.5 -9t-9.5 -3q-33 0 -65.5 1.5t-64.5 1.5q-16 0 -32 -1t-33 -1q-5 0 -10 4t-5 9q0 11 8 14t18.5 2.5t17.5 -0.5q13 0 21.5 10.5t12.5 20.5
q59 148 112 297.5t103 300.5q4 11 10 31t6 30q0 6 -2.5 10.5t-2.5 8.5t10 6t21 3t14 1q21 3 41.5 6t41.5 5l245 -691q8 -24 21.5 -30.5t36.5 -6.5q9 0 15 -2.5t6 -13.5z" />
    <glyph glyph-name="B" unicode="B" horiz-adv-x="694" 
d="M503 201q0 40 -8.5 79.5t-33 66.5t-74.5 27q-34 0 -67.5 -1.5t-67.5 -1.5v-313q0 -28 14.5 -33t36.5 -5h24.5t24.5 1q50 3 83.5 28t50.5 65t17 87zM453 558q0 59 -17.5 89.5t-53.5 41t-90 10.5q-10 0 -20 -0.5t-20 -1.5v-296h29q20 0 44 1.5t46.5 8.5t37.5 22
q23 23 33.5 58t10.5 67zM646 218q0 -68 -31.5 -120.5t-95.5 -79.5q-36 -16 -80.5 -20.5t-83.5 -4.5h-18t-18 1q-73 3 -147 3q-28 0 -56 -2.5t-57 -2.5q-4 0 -7 3.5t-3 7.5q0 12 9.5 14.5t22.5 4.5t24 12t13 38q1 12 1 24v24q0 127 -0.5 253.5t-0.5 253.5q0 44 -15 54t-56 10
q-7 0 -12.5 5t-5.5 12q0 19 21 19q20 0 41 -2t41 -2q51 0 102 3.5t102 7.5q10 1 19.5 1.5t18.5 0.5q57 0 107.5 -13.5t82 -49.5t31.5 -104q0 -39 -20.5 -74t-51.5 -58q-10 -9 -22 -15.5t-25 -12.5q-2 -1 -7.5 -3.5t-5.5 -6.5q0 -3 5.5 -4.5t7.5 -2.5q16 -4 31 -8.5t30 -12.5
q46 -22 77.5 -61t31.5 -92z" />
    <glyph glyph-name="C" unicode="C" horiz-adv-x="725" 
d="M708 168q0 -5 -5 -14t-7 -14q-13 -23 -40 -48t-50 -41q-47 -33 -99 -43t-108 -10q-109 0 -186 45.5t-117.5 127t-40.5 188.5q0 106 39 191t115.5 135.5t187.5 50.5q50 0 85 -12t79 -28q21 -7 42 -10.5t43 -5.5q1 -22 3 -44.5t5 -45.5q2 -19 7 -39t5 -40q0 -19 -13.5 -28
t-30.5 -9q-28 0 -39 23q-3 8 -4 17.5t-3 16.5q-7 32 -24.5 69.5t-41.5 59.5q-19 17 -52 30.5t-59 13.5q-25 0 -46.5 -11t-41.5 -27q-43 -36 -68 -86t-35 -106.5t-10 -110.5q0 -36 4.5 -71.5t14.5 -70.5q14 -47 40.5 -88.5t66 -67t91.5 -25.5q74 0 134.5 37t100.5 97
q6 10 12.5 17.5t19.5 7.5t19.5 -10t6.5 -21z" />
    <glyph glyph-name="D" unicode="D" horiz-adv-x="821" 
d="M633 374q0 57 -12.5 114t-40.5 104t-74 75.5t-113 28.5q-68 0 -134 -3v-612q0 -26 8 -37t36 -11q34 0 71.5 3t73 13.5t62.5 31.5q65 53 94 132t29 161zM778 388q0 -64 -19 -126t-55.5 -114.5t-90.5 -88.5q-35 -23 -82 -37.5t-95.5 -20.5t-90.5 -6q-35 0 -69.5 2.5
t-69.5 2.5q-25 0 -50.5 -0.5t-51.5 -2.5q-10 -1 -19 -1.5t-18 -0.5q-18 0 -18 16q0 10 9 13t20 4.5t17 3.5q17 8 22 25t5 33v181v180q0 52 0.5 103.5t-2.5 102.5q0 2 -0.5 8.5t-0.5 7.5q-3 12 -16 16t-28 3.5t-25 -0.5q-8 0 -15 3.5t-7 13.5q0 19 19 19q25 0 49.5 -1.5
t49.5 -1.5q71 0 142.5 5.5t142.5 5.5q108 0 186 -42t119.5 -120t41.5 -186z" />
    <glyph glyph-name="E" unicode="E" horiz-adv-x="674" 
d="M648 172q0 -16 -3.5 -32.5t-5.5 -33.5q-2 -19 -4.5 -39t-4.5 -40q-3 -16 -9 -21.5t-23 -5.5q-102 0 -204 1.5t-204 1.5q-35 0 -70 -3.5t-70 -3.5q-17 0 -17 17t15 17.5t32 2.5q20 2 32.5 15.5t12.5 55.5v539q0 16 -5.5 31t-25.5 15q-12 0 -24 -0.5t-24 -0.5q-25 0 -25 24
q0 12 8 15.5t18 3.5q29 0 57 -1.5t56 -1.5q94 0 188 1.5t188 1.5q18 0 36 1.5t36 3.5q2 -16 4.5 -32t4.5 -32q3 -19 8.5 -40t5.5 -41q0 -12 -10 -19.5t-21 -7.5q-24 0 -32 21q-15 47 -44.5 78.5t-82.5 31.5h-180v-294q38 0 74.5 1t73.5 4t71 12q14 3 29.5 8t29.5 5
q12 0 12 -11q0 -7 -3.5 -21t-5.5 -21q-5 -13 -10 -15.5t-18 -2.5q-24 0 -47 3q-38 4 -77 5.5t-78 1.5q-22 0 -36.5 -11.5t-14.5 -35.5v-246q0 -24 6.5 -34t31.5 -10h60t67.5 3t64.5 13t50 30q17 17 33 45t26 50q5 12 10 16.5t18 4.5q12 0 16 -6t4 -17z" />
    <glyph glyph-name="F" unicode="F" horiz-adv-x="610" 
d="M598 588q0 -10 -10 -15.5t-19 -5.5q-11 0 -19.5 4.5t-11.5 16.5q-13 42 -40 73.5t-75 31.5h-158v-301h30h30q37 0 74.5 2t73.5 10q14 4 29 9t30 5q12 0 12 -11q0 -8 -3.5 -21t-6.5 -21q-4 -13 -9.5 -15.5t-18.5 -2.5q-46 0 -91 5t-91 5q-21 0 -40 -8.5t-19 -34.5v-232
q0 -30 11 -41t30 -11.5t41 -0.5q8 0 14.5 -3.5t6.5 -12.5q0 -21 -21 -21h-10t-10 1q-33 2 -66 2h-65q-33 0 -66 -2.5t-66 -2.5q-8 0 -15 2.5t-7 12.5q0 13 8.5 16t21.5 2.5t26 3t21.5 18t8.5 46.5v550q0 23 -7 35.5t-32 12.5q-9 0 -17.5 -0.5t-17.5 -0.5q-12 0 -23.5 2.5
t-11.5 18.5q0 9 6 14t14 5q35 0 69.5 -1.5t68.5 -1.5q148 0 295 3q26 1 53 2t53 5l8 -58l8 -58q1 -7 2.5 -15t1.5 -16z" />
    <glyph glyph-name="G" unicode="G" horiz-adv-x="781" 
d="M760 304q0 -8 -3.5 -15t-13.5 -7h-51v-207q-35 -12 -69 -26.5t-68 -30.5t-73.5 -20t-77.5 -4q-33 0 -71 7t-74 20.5t-63 32.5q-73 53 -106.5 135t-33.5 169q0 79 24.5 148t71 121t112 81.5t147.5 29.5q65 0 128 -20q9 -3 27.5 -10t37 -13.5t24.5 -6.5q15 0 21 11t11.5 22
t16.5 11q6 0 11.5 -3t5.5 -10q0 -46 1.5 -91t1.5 -91q0 -14 -9.5 -23t-23.5 -9q-17 0 -23.5 7.5t-11.5 22.5q-25 77 -77.5 124t-136.5 47q-40 0 -73 -19t-57.5 -49.5t-41.5 -66.5t-26 -70t-13 -70t-4 -72q0 -35 4 -70t14 -69q13 -46 39 -88t65.5 -69t91.5 -27q19 0 43.5 5
t47 15t37.5 26.5t15 40.5v132q0 8 -4.5 16t-13.5 8q-14 0 -28.5 -1.5t-28.5 -1.5q-8 0 -13.5 9.5t-5.5 16.5t6 12t13 5q14 0 28.5 -0.5t28.5 -0.5q34 0 67.5 0.5t67.5 1.5q18 1 36 2.5t36 1.5q8 0 11 -6.5t3 -13.5z" />
    <glyph glyph-name="H" unicode="H" horiz-adv-x="837" 
d="M805 715q0 -7 -4 -13t-12 -6q-13 0 -25.5 1t-26.5 1q-10 0 -13 -9t-3 -17q0 -64 -0.5 -127.5t-0.5 -128.5q0 -91 0.5 -181.5t0.5 -181.5q0 -8 3 -17t13 -9q14 0 26.5 1t25.5 1q8 0 11 -7t3 -14q0 -15 -16 -15q-8 0 -16 1t-16 1q-15 2 -30 2h-30h-69.5t-69.5 -2
q-10 0 -20.5 -1t-21.5 -1q-10 0 -13.5 6t-3.5 14t6 12t13 4q11 0 20.5 -1t19.5 -1q15 0 20.5 5.5t5.5 20.5v311h-329v-313q0 -15 6 -20.5t20 -5.5q10 0 20 1t20 1q8 0 14 -3.5t6 -12.5q0 -19 -18 -19q-37 0 -73.5 2.5t-72.5 2.5h-36.5t-36.5 -1q-13 -1 -25.5 -2.5
t-25.5 -1.5q-7 0 -10.5 6.5t-3.5 11.5t4 11t10 6q13 0 25.5 -1t25.5 -1q11 0 14 9t3 17v198v198v112.5v111.5q0 8 -3 17t-14 9q-13 0 -25.5 -1t-25.5 -1q-16 0 -16 18q0 7 4 13t12 6q26 0 51.5 -2t51.5 -2q41 0 82.5 2t82.5 2q19 0 19 -19q0 -13 -10.5 -15t-19.5 -2
q-7 0 -14 0.5t-15 0.5q-13 0 -19.5 -8t-6.5 -21v-271h329v275q0 15 -5.5 20.5t-20.5 5.5q-10 0 -19.5 -1t-20.5 -1q-6 0 -12.5 5t-6.5 12q0 19 19 19q12 0 24 -1l24 -2q23 -1 46 -1.5t46 -0.5q33 0 66.5 2.5t66.5 2.5q8 0 12 -5t4 -12z" />
    <glyph glyph-name="I" unicode="I" horiz-adv-x="413" 
d="M345 713q0 -17 -16 -17q-12 0 -24.5 0.5t-24.5 0.5q-10 0 -14 -8.5t-4 -17.5q0 -35 -0.5 -70.5t-0.5 -70.5q0 -110 0.5 -220.5t0.5 -220.5q0 -7 -1 -22t2.5 -27.5t14.5 -12.5q13 0 26 1t26 1q7 0 10 -5.5t3 -12.5t-4.5 -12.5t-12.5 -5.5q-34 0 -67.5 1t-67.5 1t-68 -1
t-68 -1q-10 0 -13 4t-3 13q0 8 3.5 13.5t11.5 5.5q11 0 22 -1t21 -1q14 0 19 9t6 21.5t1 21.5l1 574q0 9 -2 26.5t-14 18.5h-5.5h-5.5q-10 0 -19.5 -1t-19.5 -1q-19 0 -19 19q0 7 4.5 12t11.5 5q43 0 85.5 -2t85.5 -2q26 0 52.5 2t52.5 2q8 0 11 -6t3 -13z" />
    <glyph glyph-name="J" unicode="J" horiz-adv-x="456" 
d="M428 714q0 -7 -5.5 -13t-13.5 -6q-10 0 -21 0.5t-22 0.5q-17 0 -24 -11t-7.5 -25.5t-0.5 -27.5q-1 -133 -0.5 -266.5t0.5 -267.5q0 -78 -21 -141t-71.5 -100.5t-138.5 -37.5q-21 0 -43 0.5t-43 4.5q-16 4 -36 14t-35 25.5t-15 33.5q0 30 25 43t50 13q21 0 43.5 -10
t22.5 -36q-8 -4 -17 -11.5t-9 -18.5t10 -17.5t23.5 -8.5t21.5 -2q36 0 55 17.5t26 45t7.5 58t0.5 55.5v607q0 10 -0.5 24.5t-5 26.5t-17.5 14q-3 1 -6.5 1h-7.5q-13 0 -25.5 -1.5t-26.5 -1.5q-7 0 -11.5 6t-4.5 13t4 13.5t12 6.5q12 0 24.5 -0.5t24.5 -1.5q27 -1 54 -1.5
t55 -0.5q38 0 75.5 2t74.5 2q19 0 19 -20z" />
    <glyph glyph-name="K" unicode="K" horiz-adv-x="722" 
d="M721 16v-3.5t-1 -4.5q-4 -8 -16 -8h-43.5h-43.5h-64q-28 0 -41.5 9t-28.5 31q-57 82 -114 163.5t-115 163.5l-13 -10q1 -75 1 -150v-149q0 -9 4.5 -17.5t14.5 -8.5q13 0 26 1t26 1q7 0 10.5 -6t3.5 -12q0 -5 -4 -11.5t-10 -6.5q-24 0 -47.5 1.5t-46.5 1.5
q-34 0 -67.5 0.5t-66.5 -1.5q-13 -1 -26 -1.5t-27 -0.5q-9 0 -13 6t-4 14q0 16 17 16q12 0 23.5 -1t22.5 -1q20 0 24 11t4 27v575q0 34 -5.5 45.5t-20.5 12t-44 0.5q-6 0 -12.5 3.5t-6.5 10.5t3 13t11 6q22 0 43.5 -1.5t43.5 -1.5h70h69q14 0 28.5 1.5t28.5 1.5
q6 0 9.5 -5.5t3.5 -10.5t-3.5 -11t-9.5 -6q-13 0 -26 0.5t-26 0.5q-10 0 -15 -8t-5 -17q0 -36 -0.5 -72.5t-0.5 -72.5v-135q71 68 137.5 138t126.5 147q11 13 15 31q4 14 8 17t18 3l30 -1q23 0 46 1t46 1q17 0 17 -17q0 -13 -8 -15.5t-18 -2.5q-20 0 -38.5 -8.5t-33.5 -22.5
l-238 -227q71 -100 145.5 -197t150.5 -192q14 -17 32 -21t31 -5.5t13 -11.5z" />
    <glyph glyph-name="L" unicode="L" horiz-adv-x="670" 
d="M653 230q0 -16 -2 -32t-4 -33q-4 -35 -9 -70t-8 -70q0 -10 -4 -17q-5 -7 -15 -8.5t-18 -1.5q-12 0 -24 0.5t-25 0.5q-63 1 -126 1h-126h-114h-43.5t-43.5 -1q-11 -1 -22 -1.5t-22 -0.5q-9 0 -15.5 5t-6.5 14q0 10 6.5 15t14.5 5t16.5 -1t16.5 -1q16 0 25 4.5t9 22.5
v310.5t-1 309.5q0 12 -4.5 15.5t-15.5 3.5t-22.5 -1t-23.5 -1q-7 0 -13 5t-6 13q0 19 20 19q11 0 23 -1l24 -2q24 -1 47.5 -1.5t47.5 -0.5h39.5t38.5 1q14 1 27 2.5t26 1.5q16 0 16 -17q0 -7 -4 -13.5t-12 -6.5q-13 0 -25.5 1t-26.5 1q-11 0 -13.5 -5.5t-2.5 -15.5
q0 -37 -0.5 -73t-0.5 -73q0 -116 0.5 -233t0.5 -233q0 -10 5 -19t15 -12q13 -3 27 -3h27q75 0 130 15t93.5 55.5t63.5 117.5q3 9 8 16.5t15 7.5q6 0 11.5 -4t5.5 -11z" />
    <glyph glyph-name="M" unicode="M" horiz-adv-x="947" 
d="M928 18q0 -21 -17 -21q-36 0 -71.5 1t-70.5 1q-34 0 -68 -1.5t-68 -1.5q-10 0 -14 6.5t-4 14.5t6.5 12.5t13.5 4.5q9 0 18 -1t18 -1h5h5q17 2 18.5 19.5t1.5 29.5v520q-57 -142 -115.5 -282.5t-114.5 -283.5h-78q-57 148 -117.5 294t-118.5 294q0 -137 2 -273.5t2 -273.5
q0 -12 1.5 -28.5t18.5 -16.5q13 0 25 1t25 1q7 0 12 -5.5t5 -12.5q0 -5 -4 -11.5t-10 -6.5q-18 0 -36 1t-36 1q-32 0 -65 -1t-65 -1q-10 0 -13 5.5t-3 14.5q0 8 6.5 12t12.5 4q9 0 18.5 -1t18.5 -1q17 0 24.5 4.5t7.5 23.5q0 152 1.5 304.5t1.5 304.5q0 16 -5.5 23.5
t-22.5 7.5q-10 0 -20 -1t-20 -1q-8 0 -14 6t-6 14q0 19 20 19q24 0 48.5 -1t48.5 -1h58.5t58.5 3l223 -552q54 137 113.5 272.5t104.5 276.5q23 -1 46.5 -1.5t47.5 -0.5q31 0 62.5 2t62.5 2q8 0 11 -6.5t3 -12.5t-3 -13.5t-11 -7.5q-14 0 -28.5 0.5t-28.5 0.5
q-10 0 -14.5 -8.5t-4.5 -17.5q0 -58 -0.5 -117.5t-0.5 -118.5q0 -88 0.5 -176t0.5 -176q0 -9 1.5 -21t7 -21.5t17.5 -9.5t24 1t25 1q6 0 11 -4t5 -11z" />
    <glyph glyph-name="N" unicode="N" horiz-adv-x="780" 
d="M766 718q0 -19 -19 -19q-8 0 -16 1t-16 1q-4 0 -9 -0.5t-10 -0.5q-10 0 -13 -12.5t-3 -27v-20.5v-623q0 -7 -1.5 -12t-10.5 -6q-14 -2 -30 -1.5t-30 -0.5q-8 26 -22.5 50t-30.5 46q-92 134 -194.5 259t-196.5 257q0 -135 -0.5 -269.5t-0.5 -269.5q0 -9 2.5 -22.5
t14.5 -13.5q14 0 28.5 1t27.5 1q8 0 10.5 -7.5t2.5 -12.5q0 -7 -3.5 -13t-11.5 -6q-17 0 -34 2t-34 2q-23 0 -47 -0.5t-47 -2.5q-9 -1 -17.5 -1.5t-16.5 -0.5q-20 0 -20 21q0 8 6 13.5t13 5.5q10 0 19 -1.5t19 -1.5q15 0 22.5 4.5t7.5 22.5q0 138 2.5 276t2.5 276v25v25
t-4.5 26t-20.5 13q-12 0 -24.5 -1t-25.5 -1q-17 0 -17 19q0 18 18 18q26 0 52 -1t51 -1q23 0 46.5 0.5t46.5 0.5q59 -80 124.5 -154.5t125.5 -153.5q35 -47 71 -94t73 -93q0 106 0.5 212t0.5 212q0 9 -2.5 22.5t-15.5 13.5h-27q-6 0 -12 -1.5t-12 -1.5q-19 0 -19 21
q0 12 7 14.5t17 2.5q20 0 39.5 -1t38.5 -1q26 0 52.5 2t52.5 2q8 0 14 -5.5t6 -13.5z" />
    <glyph glyph-name="O" unicode="O" horiz-adv-x="820" 
d="M617 363q0 38 -6 84.5t-20 92.5t-38 84.5t-59.5 62t-84.5 23.5t-85 -23.5t-60.5 -62t-39.5 -84.5t-21.5 -92.5t-6.5 -84.5t7 -83.5t22 -91t39.5 -83t60.5 -60t84 -22.5q50 0 85.5 22.5t59 59.5t37.5 82t20 91t6 85zM762 365q0 -113 -40 -197t-118.5 -130t-194.5 -46
q-114 0 -193 46.5t-120 130t-41 194.5q0 78 24.5 146.5t71 120.5t112 81t146.5 29q114 0 193 -47.5t119.5 -132t40.5 -195.5z" />
    <glyph glyph-name="P" unicode="P" horiz-adv-x="624" 
d="M465 549q0 42 -14 77t-43.5 55.5t-74.5 20.5q-10 0 -20 0.5t-20 0.5q-25 0 -32 -4.5t-7 -32.5v-137t1 -137q15 -13 35 -16.5t39 -3.5q52 0 81.5 25.5t42 66.5t12.5 85zM609 552q0 -66 -23 -107.5t-62.5 -64.5t-90 -31.5t-106.5 -8.5q-18 0 -36 2l-36 4v-145.5v-145.5
q0 -8 3.5 -17t13.5 -9q13 0 25.5 1t25.5 1q7 0 11.5 -8t4.5 -13q0 -7 -5 -11t-11 -4q-13 0 -26 1t-27 2q-20 2 -41 2h-41q-48 0 -95 -3q-11 -1 -21.5 -1.5t-21.5 -0.5q-10 0 -13 6.5t-3 13.5q0 8 6 11.5t13 3.5q9 0 18 -1t19 -1h5h5q14 1 16.5 16t2.5 25v589q0 8 -2 23.5
t-14 16.5h-5.5h-4.5q-10 0 -20 -1t-20 -1q-7 0 -13.5 6t-6.5 13t6.5 13t13.5 6q11 0 22.5 -1t22.5 -2q23 -1 45.5 -1.5t44.5 -0.5q46 0 91.5 2.5t91.5 2.5q44 0 86.5 -9.5t76.5 -30.5t54.5 -56t20.5 -86z" />
    <glyph glyph-name="Q" unicode="Q" horiz-adv-x="820" 
d="M434 26q-16 32 -29.5 64t-27.5 65q-4 8 -8.5 16t-10.5 14q-11 11 -25 11q-17 0 -30 -14.5t-21 -33.5t-11 -33q12 -21 37 -41.5t54.5 -34.5t53.5 -14q5 0 9.5 0.5t8.5 0.5zM612 358q0 48 -9 104t-30 108.5t-58 90t-93 47.5q-4 1 -7.5 1h-7.5h-7t-7 -1q-54 -10 -89.5 -48
t-57 -91t-30.5 -109t-9 -102q0 -29 2.5 -64t10.5 -69t22 -60q11 14 29.5 31.5t40 30.5t40.5 13q44 0 69.5 -14t50.5 -51q16 -24 28 -49.5t24 -51.5q39 36 58 83t24.5 99t5.5 102zM796 -45q0 -3 -2 -7q-25 -36 -60 -52.5t-79 -16.5q-35 0 -67 5.5t-61 27.5q-22 17 -41.5 40
t-35.5 46q-9 -1 -18.5 -1h-18.5q-79 0 -143 27.5t-110 77t-70.5 116t-24.5 143.5q0 79 23.5 148t69 121t110.5 81t147 29q117 0 193 -50t113.5 -136t37.5 -196q0 -68 -24 -132t-68 -115.5t-105 -83.5q16 -20 38 -43.5t48 -39.5t53 -16q20 0 35.5 10.5t27 20.5t18.5 10
q5 0 9.5 -4t4.5 -10z" />
    <glyph glyph-name="R" unicode="R" horiz-adv-x="707" 
d="M462 550q0 74 -32.5 114t-109.5 40h-18h-17t-17 -2q-10 -3 -13 -9t-3 -17q0 -58 -0.5 -115.5t-0.5 -116.5v-41q7 -1 14 -1.5t14 -0.5q52 0 93.5 12.5t65.5 45t24 91.5zM716 14q0 -9 -16.5 -13.5t-39 -6t-42.5 -2t-27 -0.5q-38 0 -68.5 8t-51.5 45q-46 80 -90 162.5
t-88 164.5l-42 1q0 -79 0.5 -158.5t0.5 -159.5q0 -9 5 -17.5t15 -8.5q12 0 24 1t24 1q5 0 9.5 -6.5t4.5 -11.5q0 -7 -3.5 -12t-10.5 -5q-9 0 -17 1t-16 1q-18 2 -36 2h-36q-43 0 -86.5 -2t-87.5 -2q-17 0 -17 18q0 7 6 11.5t13 4.5q10 0 20 -1t20 -1q14 0 24 5t10 21v618
q0 15 -6 20.5t-20 5.5q-10 0 -20 -1t-20 -1q-7 0 -14.5 5t-7.5 13q0 19 22 19q10 0 20 -0.5t20 -1.5q20 -1 41 -1.5t41 -0.5q48 0 95.5 3.5t94.5 3.5q41 0 84 -7.5t80.5 -26.5t60.5 -51.5t23 -82.5q0 -61 -24.5 -98t-67 -57t-96.5 -31q44 -80 95 -157t103 -152
q14 -19 36 -33.5t45 -14.5q7 0 10.5 -1.5t3.5 -9.5z" />
    <glyph glyph-name="S" unicode="S" horiz-adv-x="594" 
d="M562 184q0 -58 -26 -96.5t-68.5 -60.5t-92.5 -31t-98 -9q-37 0 -71 10.5t-69 23.5q-17 6 -33.5 7.5t-34.5 1.5q-3 24 -6 47.5t-7 47.5q-2 17 -5 33t-3 32q0 14 5.5 23t20.5 9q14 0 21.5 -5.5t11.5 -18.5q7 -18 11.5 -37t11.5 -38q17 -47 55.5 -75t90.5 -28
q70 0 107.5 40.5t37.5 109.5q0 40 -17 66.5t-44 45.5t-58 36q-29 16 -59 30t-59 29q-32 17 -62.5 42.5t-50 59t-19.5 72.5q0 66 34.5 109t89 64t113.5 21q38 0 73.5 -10.5t69.5 -24.5q11 -4 20.5 -6t20.5 -2q8 0 15 0.5t14 1.5q3 -32 7 -64l8 -64q1 -5 1.5 -10.5t0.5 -10.5
q0 -14 -6 -25.5t-23 -11.5q-13 0 -19 6t-11 17q-12 31 -23 61t-32 56q-22 28 -55 41.5t-68 13.5q-34 0 -57 -18.5t-34 -47.5t-11 -60q0 -48 25.5 -74.5t63.5 -48.5q21 -11 42.5 -21.5t42.5 -20.5q50 -23 97.5 -55.5t79 -77t31.5 -105.5z" />
    <glyph glyph-name="T" unicode="T" horiz-adv-x="690" 
d="M684 551q0 -10 -5 -18.5t-16 -8.5q-16 0 -21.5 7t-9.5 20q-3 14 -9.5 34.5t-14 41t-15.5 31.5q-4 6 -9 11.5t-10 10.5q-7 9 -25 12.5t-37 4t-30 0.5h-28t-26 -6.5t-12 -24.5q-1 -34 -1 -69.5v-70.5q0 -114 0.5 -228t0.5 -228q0 -12 3.5 -28t19.5 -16q15 0 29.5 1t29.5 1
q8 0 12 -6.5t4 -12.5q0 -18 -17 -18q-11 0 -22.5 1t-22.5 2q-19 2 -38 2h-39h-66t-66 -2q-12 -1 -24.5 -2t-24.5 -1q-9 0 -14 6t-5 14q0 11 9 13.5t17 2.5q11 0 20.5 -0.5t19.5 -0.5q26 0 29.5 12t3.5 34v558q0 39 -4 52.5t-21 14t-56 0.5q-13 0 -35.5 -1t-33.5 -7
q-13 -7 -21 -18.5t-13 -25.5q-8 -23 -15.5 -47t-15.5 -47q-4 -14 -10 -20.5t-22 -6.5q-19 0 -19 20q0 26 5.5 59.5t6.5 62.5q1 16 0.5 32.5t2.5 31.5q1 7 7 7q11 0 22.5 -3t22.5 -5q12 -1 24.5 -1.5t25.5 -1.5q53 -1 110.5 -1.5t109.5 -0.5q59 0 124 1t124 1h12.5t12.5 1
q11 2 21.5 6t21.5 4q5 0 7 -5q3 -14 4 -32.5t2 -32.5q3 -28 6.5 -57.5t3.5 -58.5z" />
    <glyph glyph-name="U" unicode="U" horiz-adv-x="756" 
d="M743 715q0 -7 -4.5 -13.5t-12.5 -6.5q-13 0 -26 0.5t-26 0.5t-16 -12.5t-3 -22.5q0 -5 0.5 -10.5t0.5 -10.5q0 -91 0.5 -181t0.5 -180q0 -132 -65 -208.5t-202 -76.5q-135 0 -210 65t-75 205v45q0 86 0.5 172.5t0.5 173.5q0 9 -2 24.5t-14 16.5q-13 1 -26.5 0t-26.5 -1
q-7 0 -13 5.5t-6 12.5q0 8 5.5 14t13.5 6q12 0 23.5 -1t22.5 -2q23 -1 46 -1.5t45 -0.5h44.5t43.5 1q14 1 27.5 2.5t26.5 1.5q8 0 12.5 -6t4.5 -14q0 -7 -4.5 -12.5t-12.5 -5.5q-13 0 -25.5 1t-25.5 1q-10 0 -13 -8.5t-4 -16.5q-1 -16 -0.5 -32t0.5 -32q0 -90 -1.5 -179.5
t-1.5 -179.5q0 -43 3.5 -81.5t17.5 -68.5t44.5 -47t84.5 -17q72 0 115 33.5t62 88t19 118.5q0 99 -4 198t-4 198q0 15 -7 20.5t-21 5.5q-10 0 -19.5 -1t-20.5 -1q-7 0 -13 5t-6 13t5.5 14t13.5 6q16 0 31 -1.5t31 -2.5q10 -1 20 -1h20h22.5t22.5 1q16 0 31.5 2t31.5 2
q18 0 18 -18z" />
    <glyph glyph-name="V" unicode="V" horiz-adv-x="754" 
d="M750 714q0 -19 -20 -19q-10 0 -20 1t-19 1q-10 0 -18 -11t-11 -20q-16 -41 -28.5 -83t-26.5 -84q-25 -80 -52 -159t-54 -159q-13 -38 -25.5 -76t-25.5 -76q-4 -11 -12 -22.5t-22 -11.5l-88 -2q-36 113 -78.5 230t-83.5 232q-13 38 -25.5 70t-26.5 70q-5 16 -14 37.5
t-15 37.5q-7 17 -24.5 19t-32.5 2q-10 0 -18 3t-8 16q0 8 5 14.5t14 6.5q18 0 36.5 -1t37.5 -1h92t92 1q11 1 23 1.5t23 0.5q8 0 11.5 -6t3.5 -13t-3.5 -13t-11.5 -6q-16 0 -31.5 0.5t-31.5 0.5q-23 0 -23 -24q0 -10 3.5 -21.5t6.5 -21.5q42 -133 87 -269t87 -262
q44 129 82.5 260t71.5 262q3 14 7 30t4 30q0 17 -9 17.5t-23 0.5q-9 0 -17.5 -1.5t-17.5 -1.5q-8 0 -15.5 4.5t-7.5 14.5q0 18 17 18q14 0 28.5 -1t28.5 -1h27t26 1q26 0 53.5 2t53.5 2q8 0 13 -6.5t5 -13.5z" />
    <glyph glyph-name="W" unicode="W" 
d="M982 717q0 -16 -11 -18t-22 -2q-13 0 -24 -5t-17 -17q-5 -13 -8 -28t-6 -28q-33 -157 -70.5 -313t-73.5 -313h-115q-33 125 -70 248t-72 247q-35 -124 -73 -247.5t-76 -247.5h-108q-21 110 -44 219t-47 218l-32 147q-4 20 -8 40.5t-9 39.5q-6 22 -14.5 28.5t-21 6
t-30.5 -0.5q-10 0 -14.5 7.5t-4.5 15.5q0 7 7.5 12t13.5 5q29 0 59 -1.5t60 -1.5q36 0 71.5 1.5t70.5 1.5q7 0 12.5 -6t5.5 -12q0 -7 -5 -13t-13 -6q-7 0 -13.5 0.5t-13.5 0.5q-16 0 -21.5 -5.5t-5.5 -20.5q0 -5 0.5 -10.5t1.5 -10.5q20 -130 45.5 -260t47.5 -261
q28 98 58 195.5t55 195.5q9 32 16.5 63.5t15.5 62.5q3 14 6.5 27.5t7.5 26.5q5 14 11.5 19t21.5 5q12 0 22 -2t15 -14q6 -10 8.5 -24.5t5.5 -26.5q9 -32 18 -64.5t18 -65.5q29 -100 57.5 -199.5t57.5 -200.5q14 71 29.5 141.5t28.5 141.5q10 55 20.5 110t17.5 110
q2 12 3 24.5t1 24.5q0 5 -5.5 14.5t-12.5 9.5h-12h-12q-10 0 -19.5 -1t-20.5 -1q-7 0 -11.5 5t-4.5 12q0 18 15 18q18 0 36.5 -1t36.5 -1q37 0 73 1t73 1q18 0 18 -17z" />
    <glyph glyph-name="X" unicode="X" horiz-adv-x="765" 
d="M763 19q0 -14 -8 -17t-20 -3q-32 0 -65 0.5t-66 0.5q-34 0 -69 -1t-70 -1q-7 0 -12.5 3t-5.5 11q0 17 15 17h26q6 0 13.5 2t7.5 9q0 8 -14 34.5t-35 62t-43 71.5t-40 64t-24 38q-7 -11 -27 -41t-46 -68.5t-50.5 -75.5t-41 -63t-16.5 -30t3.5 -5.5t7.5 -1.5q16 0 31 1.5
t31 1.5q15 0 15 -15q0 -17 -17 -17q-10 0 -20 0.5t-20 0.5q-21 1 -41.5 1h-41.5q-25 0 -50.5 -1.5t-51.5 -1.5q-5 0 -10.5 6.5t-5.5 10.5q0 17 14.5 16.5t24.5 -0.5q17 0 30.5 3t26.5 14t23.5 23.5t20.5 25.5q45 56 93.5 124t85.5 129q-35 56 -69.5 111t-69.5 110
q-18 28 -35.5 56.5t-37.5 55.5q-4 6 -9.5 7.5t-13.5 1.5q-12 0 -23.5 -2t-23.5 -2q-18 0 -18 20q0 19 22 19q28 0 56.5 3.5t56.5 6.5q14 2 29 5t28 3q12 0 16.5 -4t9.5 -14q16 -28 30.5 -56.5t30.5 -57.5q24 -43 49.5 -86t50.5 -87q7 12 23.5 38.5t36 58.5t37.5 64t30 56.5
t12 33.5t-7 10q-10 3 -22 2.5t-23 -0.5q-9 0 -17 2t-8 14q0 17 16 17q17 0 34.5 -1t34.5 -1q30 0 60.5 0.5t60.5 1.5q10 1 19.5 1.5t19.5 0.5q16 0 16 -18q0 -13 -9.5 -17t-23.5 -4t-28 -1t-23 -9q-6 -4 -11.5 -9t-9.5 -11l-92 -132t-93 -131q34 -53 68.5 -105.5
t70.5 -104.5q23 -33 45.5 -66.5t47.5 -64.5q17 -22 36 -24.5t44 -2.5q18 0 18 -16z" />
    <glyph glyph-name="Y" unicode="Y" horiz-adv-x="693" 
d="M705 718q0 -16 -11.5 -16.5t-22.5 -0.5q-7 0 -16 -0.5t-15 -3.5q-6 -2 -13.5 -11t-10.5 -15q-52 -86 -103 -172.5t-102 -172.5q1 -64 0.5 -128.5t-0.5 -128.5q0 -13 4 -27.5t20 -14.5q14 0 27.5 1t26.5 1q8 0 12.5 -5.5t4.5 -12.5t-5.5 -11.5t-11.5 -4.5q-31 0 -62 2
t-62 2h-59.5t-58.5 -2q-12 -1 -24 -1.5t-24 -0.5q-19 0 -19 17q0 18 18 18q11 0 21 -1t20 -1q21 0 27.5 7.5t6 20.5t-0.5 28l1 183q0 31 -8.5 55.5t-20.5 51.5q-18 42 -38.5 83t-41.5 82q-17 34 -35.5 69t-39.5 66q-5 8 -15.5 14.5t-20.5 6.5q-7 0 -15 -1.5t-16 -1.5
t-14.5 5t-6.5 13q0 16 17 18q18 2 36 3l36 2q26 3 52.5 6t52.5 3q12 0 17.5 -4.5t10.5 -15.5q38 -90 77.5 -179t79.5 -178q9 14 28 47t41.5 74.5t43 83t33.5 74t13 46.5q0 9 -5.5 11.5t-13.5 2.5q-10 0 -19.5 -1.5t-19.5 -1.5q-22 0 -22 19q0 16 18 16q29 0 58 -1.5t58 -1.5
q24 0 48 1.5t48 1.5q16 0 16 -18z" />
    <glyph glyph-name="Z" unicode="Z" horiz-adv-x="645" 
d="M621 229q0 -10 -1.5 -20.5t-2.5 -21.5q-2 -19 -5 -38t-5 -38q-3 -22 -4 -43.5t-3 -43.5q-1 -11 -5 -19.5t-18 -8.5q-10 0 -19 2t-18 3q-7 0 -13.5 0.5t-13.5 0.5q-97 0 -194.5 -1.5t-195.5 -1.5h-32t-32 -2q-4 -1 -8.5 -1.5t-9.5 -0.5q-12 0 -17.5 9t-5.5 19q0 11 4 19
t10 16.5t11 15.5q49 71 97.5 141t92.5 143q9 14 28.5 46t44 71.5t47 78.5t37 69t14.5 42q0 20 -15.5 24.5t-30.5 4.5h-41q-23 0 -47 -0.5t-47 -4.5q-34 -6 -64.5 -35t-44.5 -61q-5 -13 -9 -25t-8 -25q-6 -25 -29 -25q-9 0 -15.5 6t-6.5 14q0 16 1.5 31t2.5 30q2 29 2 58.5
t2 58.5q1 9 4 12.5t12 3.5q13 0 25 -1l24 -2q38 -3 77.5 -3.5t78.5 -0.5q78 0 156.5 2.5t157.5 2.5q5 0 10 -6t5 -11q0 -13 -3.5 -19t-10.5 -15l-378 -572q-7 -11 -12.5 -23t-5.5 -25q0 -16 13.5 -19t25.5 -3q47 0 93 3t92 7q20 2 42 9t37 21q28 26 49 67t32 77q3 10 7 17.5
t16 7.5q8 0 14 -4.5t6 -12.5z" />
    <glyph glyph-name="bracketleft" unicode="[" horiz-adv-x="450" 
d="M432 -99h-270v953h270v-40h-179v-874h179v-39z" />
    <glyph glyph-name="backslash" unicode="\" horiz-adv-x="500" 
d="M459 -64l-40 -16l-377 857l41 16z" />
    <glyph glyph-name="bracketright" unicode="]" horiz-adv-x="450" 
d="M432 -99h-270v39h179v874h-179v40h270v-953z" />
    <glyph glyph-name="asciicircum" unicode="^" horiz-adv-x="560" 
d="M534 474h-87l-167 210l-167 -210h-87l211 271l86 -1z" />
    <glyph glyph-name="underscore" unicode="_" horiz-adv-x="500" 
d="M498 -119h-496v38h496v-38z" />
    <glyph glyph-name="grave" unicode="`" horiz-adv-x="390" 
d="M336 798l-13 -52l-269 54l19 77z" />
    <glyph glyph-name="a" unicode="a" horiz-adv-x="544" 
d="M334 106q-3 47 -4 94.5t0 95.5q-41 -7 -79.5 -25.5t-63.5 -49.5t-25 -79q0 -20 5.5 -43t20 -38.5t39.5 -15.5q18 0 38 10.5t38.5 24.5t30.5 26zM540 47q0 -4 -3.5 -9t-6.5 -8q-31 -36 -80 -36q-43 0 -69 19t-40 59q-32 -34 -68.5 -54t-85.5 -20q-35 0 -70.5 15.5
t-59 44.5t-23.5 67t19.5 67.5t49.5 51t61 35.5q40 17 82 26.5t84 19.5v4q0 18 -0.5 48.5t-6.5 61t-20 52t-41 21.5q-31 0 -55.5 -18t-34.5 -48q-2 -9 -3 -17.5t-3 -17.5q-2 -16 -18.5 -21.5t-30.5 -5.5q-17 0 -33 7.5t-16 28.5q0 8 2.5 14.5t5.5 13.5q16 38 48 56t70.5 24
t73.5 6q82 0 135 -44t53 -130v-151q-1 -28 -0.5 -57.5t2.5 -58.5q2 -17 8 -32.5t27 -15.5q14 0 23.5 6t17.5 6q4 0 5 -4t1 -6z" />
    <glyph glyph-name="b" unicode="b" horiz-adv-x="610" 
d="M437 279q0 33 -5.5 72t-20 74.5t-42.5 56.5q-10 8 -21 12.5t-23 4.5q-25 0 -50 -17.5t-38 -38.5q-1 -2 -3.5 -7.5t-2.5 -7.5v-345q0 -28 9 -42.5t39 -14.5q48 0 78.5 25t48 64t24.5 83t7 81zM573 278q0 -84 -33.5 -147t-94.5 -98t-146 -35q-31 0 -60.5 5.5t-60.5 5.5
q-17 0 -33 -4t-33 -4q-5 0 -10.5 2t-5.5 9q0 2 1 5t1 5q4 15 5.5 30.5t1.5 30.5v597q0 11 -3.5 24t-17.5 13q-16 0 -31 -1.5t-31 -1.5q-4 0 -6.5 4t-2.5 8q0 9 9 12q11 3 22.5 4.5t21.5 2.5q28 5 56 9.5t55 12.5q8 2 15.5 4.5t14.5 2.5q8 0 15.5 -5.5t7.5 -14.5v-259
q28 17 60.5 26.5t64.5 9.5q75 0 123 -34.5t71.5 -92t23.5 -126.5z" />
    <glyph glyph-name="c" unicode="c" horiz-adv-x="540" 
d="M529 133q0 -4 -2 -8.5t-4 -8.5q-21 -39 -56.5 -65.5t-78.5 -40.5t-86 -14q-37 0 -81 12t-76 34q-52 38 -76.5 94t-24.5 119q0 78 30 142.5t87.5 103.5t139.5 39q30 0 57 -9q8 -2 25.5 -10.5t34.5 -15.5t21 -7q11 0 21.5 8.5t16.5 8.5t6 -8q2 -10 2 -21.5t1 -22.5
q1 -24 3.5 -48t2.5 -48q0 -13 -4 -23t-19 -10q-10 0 -15 5t-7 13q-12 36 -24.5 70.5t-41.5 60.5q-11 11 -31.5 20.5t-36.5 9.5q-42 0 -69 -27t-43 -67t-22.5 -82.5t-6.5 -74.5q0 -30 7 -69.5t23 -76t42 -61t65 -24.5q37 0 75 16t64 42q8 8 16.5 17t15.5 19q3 5 6 9.5t7 8.5
q8 8 16 8t14 -5t6 -13z" />
    <glyph glyph-name="d" unicode="d" horiz-adv-x="606" 
d="M393 380q0 26 -8.5 54.5t-27 48.5t-50.5 20q-16 0 -31 -4t-29 -15q-28 -22 -44.5 -62t-23 -84.5t-6.5 -78.5q0 -28 3.5 -65.5t14.5 -73.5t33 -59.5t60 -23.5q23 0 45 16.5t39.5 39.5t24.5 43v244zM603 42q0 -9 -13.5 -17.5t-32.5 -14.5t-37 -9.5t-26 -3.5q-36 0 -59 22
t-36 53q-20 -28 -53.5 -50t-68.5 -22q-31 0 -65.5 6t-61.5 24q-55 37 -82 98.5t-27 125.5q0 83 30.5 145.5t89.5 97.5t144 35q21 0 44.5 -8.5t41.5 -18.5v173q0 11 -2.5 25.5t-17.5 14.5t-29.5 -1t-28.5 -1t-14 12t11 13q8 2 16 2t15 1q19 2 37 5l36 6q19 4 37 8t36 9
q5 2 9 3t8 1q15 0 15 -16v-651q0 -12 1.5 -27.5t9 -27t23.5 -11.5q11 0 22.5 5t18.5 5q5 0 7 -3.5t2 -7.5z" />
    <glyph glyph-name="e" unicode="e" horiz-adv-x="545" 
d="M378 351q0 20 -2 48t-9.5 54.5t-23.5 44.5t-44 18q-27 0 -47.5 -17.5t-34.5 -44t-22 -55t-12 -50.5q17 0 33.5 -0.5t32.5 -0.5q65 0 129 3zM522 130q0 -3 -1.5 -8.5t-3.5 -8.5q-7 -16 -26 -36.5t-34 -31.5q-67 -51 -155 -51q-79 0 -137 33.5t-89 93.5t-31 138t30.5 141.5
t88 101t138.5 37.5q93 0 149 -51t56 -146q0 -26 -24 -26q-44 0 -88 1t-88 1h-64t-64 -1q-3 -30 -3 -61q0 -28 7.5 -66t23 -74t40.5 -59.5t61 -23.5q45 0 75.5 13t54.5 37t49 57q3 4 6.5 6.5t8.5 2.5q7 0 13.5 -5.5t6.5 -13.5z" />
    <glyph glyph-name="f" unicode="f" horiz-adv-x="390" 
d="M417 629q0 -25 -27 -25q-13 0 -20 12t-12 30t-12 36t-21 30t-40 12q-23 0 -36 -14t-18 -33.5t-5 -38.5q0 -34 1.5 -67.5t2.5 -67.5h113q8 0 12 -5t4 -12t-4 -13t-12 -6h-109v-154q0 -59 0.5 -119t0.5 -119q0 -10 3.5 -27t16.5 -17q12 0 24.5 0.5t24.5 0.5q6 0 11 -7.5
t5 -12.5q0 -9 -7 -12.5t-14 -3.5q-36 0 -71.5 1.5t-70.5 1.5q-30 0 -60 -1t-60 -1q-17 0 -17 17q0 15 14 17q12 1 24 0t24 -1q17 0 20 16.5t3 28.5v394h-52q-10 0 -15 -7.5t-12 -7.5q-12 0 -12 14q0 3 3 13.5t4 13.5q4 11 14 9.5t19 -1.5h51v75q0 97 48 135t139 38
q29 0 58 -12.5t51 -12.5q5 0 8 1q2 -24 5 -49t3 -49z" />
    <glyph glyph-name="g" unicode="g" horiz-adv-x="552" 
d="M380 -41q0 39 -16.5 56t-43.5 22t-57 8l-75 8q-20 -23 -27 -46t-7 -52q0 -60 33.5 -82t87.5 -22q52 0 78.5 28.5t26.5 79.5zM337 375q0 18 -1 42t-7 47t-20 38t-39 15q-30 0 -46.5 -17.5t-23.5 -44t-8.5 -54.5t-1.5 -49q0 -22 2 -47t9.5 -47t23.5 -36t45 -14
q25 0 38.5 14.5t19.5 37t7.5 45.5t1.5 41v29zM535 512q0 -12 -15.5 -18t-34 -7.5t-27.5 -1.5q-11 0 -22.5 0.5t-22.5 1.5q16 -14 27.5 -37t18 -48.5t6.5 -46.5q0 -52 -28.5 -90t-73.5 -58t-93 -20h-21t-22 1q-15 -13 -24.5 -26.5t-9.5 -36.5q0 -8 8 -16.5t15 -10.5
q15 -5 32 -6.5t32 -3.5q39 -2 82 -4t80.5 -16.5t59.5 -54.5q6 -10 7.5 -20t1.5 -22q0 -43 -24.5 -71.5t-62 -45.5t-79 -24.5t-75.5 -7.5q-25 0 -64 3.5t-77.5 14.5t-64.5 32t-26 57q0 28 13 51t32.5 42.5t38.5 35.5q-12 3 -31 12.5t-19 24.5q0 11 10 27t25 33t29.5 31.5
l22.5 22.5q-46 25 -72 64.5t-26 92.5q0 55 30.5 92.5t78 57t96.5 19.5q14 0 29 -2t29 -5q16 -4 32 -8.5t33 -4.5q38 0 77 11q23 6 35 22t21 16t11.5 -10.5t2 -23t-0.5 -18.5z" />
    <glyph glyph-name="h" unicode="h" horiz-adv-x="636" 
d="M615 14q0 -18 -17 -18q-14 0 -28.5 1.5t-28.5 2.5q-20 1 -40.5 0.5t-40.5 -0.5q-24 0 -47.5 -2.5t-46.5 -2.5q-6 0 -11.5 5.5t-5.5 10.5q0 17 17 17q10 0 19 -1t19 -1q15 0 15 16q0 77 0.5 153.5t0.5 152.5q0 27 -2 59.5t-12 57.5q-9 23 -23 31t-38 8q-22 0 -45.5 -16
t-41.5 -38.5t-27 -41.5v-370q0 -11 14 -11q10 0 19 1.5t19 1.5q5 0 10.5 -5.5t5.5 -10.5q0 -18 -17 -18q-14 0 -28.5 1.5t-28.5 1.5h-20h-21h-53q-19 0 -38 -2t-38 -2q-16 0 -16 18q0 16 17 16q10 0 19 -1t19 -1q12 0 12 11v637q0 10 -2.5 24.5t-16.5 14.5q-13 0 -26.5 -2
t-26.5 -2q-5 0 -9 5t-4 10q0 10 13 12q41 9 82.5 14.5t81.5 17.5q8 3 16 3q14 0 14 -13v-290q29 27 68 48t79 21q68 0 105.5 -17t53 -56t15.5 -106v-317q0 -15 14 -15q9 0 18 1.5t18 1.5q7 0 11.5 -5t4.5 -11z" />
    <glyph glyph-name="i" unicode="i" horiz-adv-x="344" 
d="M314 12q0 -16 -16 -16q-29 0 -59 2.5t-60 2.5t-60.5 -2.5t-60.5 -2.5q-7 0 -10 5.5t-3 10.5q0 16 15 16q10 0 19 -1t18 -1q12 0 15.5 8t3.5 18v397q0 10 -2 22.5t-16 12.5q-13 0 -27 -2t-28 -2q-6 0 -11.5 3t-5.5 10q0 13 13 17q11 2 23.5 3.5t23.5 2.5q35 5 68.5 12.5
t67.5 15.5q3 0 6 0.5t5 0.5q15 0 15 -12q0 -120 -1 -240.5t-1 -240.5q0 -18 8 -22.5t20.5 -3.5t25.5 1q14 0 14 -15zM251 699q0 -31 -22.5 -54t-54.5 -23q-31 0 -54 23t-23 54q0 32 23 54.5t54 22.5q32 0 54.5 -22.5t22.5 -54.5z" />
    <glyph glyph-name="j" unicode="j" horiz-adv-x="380" 
d="M274 60q0 -35 -3 -72.5t-20 -70.5q-25 -50 -75 -76t-105 -26q-31 0 -64.5 8.5t-55.5 33.5q-7 8 -12.5 17t-5.5 19q0 26 23 42.5t47 16.5q14 0 16.5 -9t3.5 -20q2 -14 6.5 -30.5t15 -28t28.5 -11.5q28 0 42.5 17.5t20 42t5.5 46.5q0 122 -0.5 244.5t-0.5 244.5q0 10 -2 23
t-16 13q-13 0 -27 -2t-28 -2q-6 0 -11.5 3t-5.5 10q0 12 13 16q12 4 26.5 5t27.5 3q33 5 66 11.5t66 14.5q6 2 11 2q14 0 14 -13v-472zM276 699q0 -31 -22.5 -54t-54.5 -23q-31 0 -54 23t-23 54q0 32 23 54.5t54 22.5q32 0 54.5 -22.5t22.5 -54.5z" />
    <glyph glyph-name="k" unicode="k" horiz-adv-x="592" 
d="M595 15q0 -8 -5.5 -10.5t-11.5 -3.5q-24 -2 -48 -2.5t-47 -0.5q-13 0 -27.5 1t-26.5 5q-13 4 -22 15t-16 23q-37 65 -75 129t-73 130l-25 -17v-230q0 -18 7.5 -23t20 -3.5t27.5 1.5q14 0 14 -16t-16 -16q-29 0 -57.5 2t-57.5 2t-58 -2.5t-58 -2.5q-6 0 -9.5 5.5
t-3.5 11.5q0 15 16 15q10 0 19 -0.5t19 -0.5q12 0 14 8t2 18q1 14 1.5 28t0.5 27v485q0 22 -0.5 43t-1.5 43q-1 11 -3.5 24t-17.5 13q-10 0 -19.5 -1t-19.5 -1q-16 0 -16 14q0 10 11 13q12 3 25 4t25 3q28 5 55.5 12t55.5 14q3 1 5.5 1.5t5.5 0.5q15 0 15 -13
q0 -112 -1 -223.5t-1 -222.5q35 27 71 54.5t68 58.5q15 15 31 30.5t28 32.5q8 11 9.5 21.5t5 17.5t16.5 7q26 0 52 -0.5t51 -0.5q15 0 15 -13q0 -11 -7 -13t-15 -2q-15 0 -31.5 -6t-27.5 -14q-38 -29 -74.5 -60.5t-73.5 -63.5q10 -17 30.5 -52t46.5 -78t53 -84t49.5 -71.5
t35.5 -40.5q9 -7 17 -9t18 -5t10 -11z" />
    <glyph glyph-name="l" unicode="l" horiz-adv-x="346" 
d="M319 13q0 -16 -16 -16q-31 0 -61 2.5t-61 2.5q-32 0 -64.5 -2.5t-64.5 -2.5q-7 0 -10 5.5t-3 11.5q0 11 10.5 14t24 2t20.5 -1q22 0 22 24v81v263.5v263.5q0 11 -2 27.5t-19 16.5q-12 0 -23.5 -3.5t-23.5 -3.5q-15 0 -15 16q0 11 13 16q13 4 27.5 6t27.5 5
q30 7 59.5 14.5t58.5 14.5q3 1 6 1.5t6 0.5q6 0 11.5 -2.5t5.5 -10.5q0 -176 -1 -353t-1 -353q0 -17 10 -22t24 -3.5t25 1.5q14 0 14 -16z" />
    <glyph glyph-name="m" unicode="m" horiz-adv-x="920" 
d="M905 12q0 -16 -17 -16q-29 0 -58 2.5t-58 2.5t-58.5 -2.5t-59.5 -2.5q-6 0 -9.5 5.5t-3.5 10.5q0 15 18 15q8 0 16.5 -0.5t16.5 -0.5q12 0 14 7.5t2 17.5v297q0 27 -1.5 59.5t-12.5 57.5q-9 22 -22.5 30.5t-36.5 8.5q-28 0 -56 -22t-45 -42q4 -20 4.5 -40.5t0.5 -40.5
v-154v-154q0 -12 4.5 -19t17.5 -7q7 0 13.5 1t13.5 1q15 0 15 -15q0 -16 -17 -16q-28 0 -56.5 2.5t-57.5 2.5t-58 -2.5t-58 -2.5q-7 0 -10 5.5t-3 10.5q0 11 9 13.5t20.5 1.5t17.5 -1q14 0 17 6.5t3 18.5q0 74 -0.5 148.5t-0.5 148.5q0 27 -1.5 59.5t-12.5 57.5
q-10 23 -24 30t-38 7q-13 0 -32 -12.5t-36 -28.5t-26 -26v-192v-192q0 -12 4.5 -19t17.5 -7q7 0 14 1t14 1q14 0 14 -15q0 -16 -16 -16q-29 0 -57.5 2t-57.5 2q-30 0 -59.5 -2t-59.5 -2q-7 0 -10.5 5.5t-3.5 10.5q0 15 17 15q8 0 16.5 -0.5t17.5 -0.5q14 0 16.5 14t2.5 24
v190v190q0 11 -3 24t-19 13q-11 0 -22.5 -1.5t-22.5 -1.5q-6 0 -11.5 3.5t-5.5 10.5t4.5 10t8.5 4q13 4 27 5t27 3q12 3 34.5 9t44.5 11.5t30 5.5q12 0 17 -11q7 -11 10 -25.5t7 -27.5q36 30 72 45.5t83 15.5q38 0 74.5 -15t55.5 -49q35 31 73 49t84 18q69 0 103 -19
t45.5 -58.5t11.5 -103.5v-154v-154q0 -16 8.5 -21t21 -4t23.5 1q15 0 15 -15z" />
    <glyph glyph-name="n" unicode="n" horiz-adv-x="632" 
d="M609 14q0 -16 -16 -16q-29 0 -58.5 1.5t-58.5 1.5q-28 0 -57 -1.5t-58 -1.5q-7 0 -10 5.5t-3 11.5q0 15 16 15q9 0 18 -0.5t18 -0.5q15 0 15 13q0 84 0.5 168t0.5 168q0 27 -4.5 56t-20 49t-50.5 20q-22 0 -45.5 -16t-42 -38t-26.5 -41v-354q0 -9 2.5 -17t13.5 -8
q8 0 16.5 0.5t16.5 0.5q5 0 10 -4t5 -9q0 -19 -16 -19q-28 0 -55.5 2.5t-56.5 2.5q-30 0 -60.5 -2.5t-61.5 -2.5q-7 0 -10 5.5t-3 11.5q0 15 16 15q9 0 18 -0.5t19 -0.5q14 0 16 6t2 19v145v122v122q0 11 -3 24.5t-18 13.5q-10 0 -19.5 -1t-19.5 -1q-6 0 -13.5 2.5
t-7.5 10.5q0 6 4 9t9 4q10 3 21 4t21 3q26 5 51.5 11.5t50.5 13.5q4 2 8 3.5t8 1.5q8 0 14.5 -15t11 -32t5.5 -24q29 26 70 46.5t81 20.5q67 0 104.5 -17t53.5 -56.5t16 -105.5q0 -78 -1 -156t-1 -156q0 -10 6.5 -14.5t16.5 -4.5q7 0 13.5 1t13.5 1q14 0 14 -16z" />
    <glyph glyph-name="o" unicode="o" horiz-adv-x="620" 
d="M439 263q0 33 -4.5 75.5t-18.5 82.5t-40.5 66.5t-71.5 26.5q-41 0 -66 -26t-38.5 -65t-18.5 -80.5t-5 -71.5q0 -33 4.5 -75.5t18.5 -82.5t41 -66t72 -26q42 0 67.5 25.5t38.5 64t17 80t4 72.5zM575 258q0 -77 -35 -136.5t-95.5 -93.5t-137.5 -34t-136 36t-92.5 97
t-33.5 137q0 79 33 141.5t93 99t140 36.5q88 0 146.5 -35.5t88 -99t29.5 -148.5z" />
    <glyph glyph-name="p" unicode="p" horiz-adv-x="608" 
d="M435 266q0 21 -1 50.5t-5.5 61t-15 59t-29.5 44.5t-49 17q-40 0 -65.5 -23t-41.5 -58v-261q0 -25 9.5 -54.5t29.5 -50t50 -20.5q44 0 68.5 24.5t35 61.5t12.5 77.5t2 71.5zM572 280q0 -81 -27 -143.5t-83 -98t-142 -35.5q-22 0 -48.5 10.5t-44.5 21.5q0 -22 -0.5 -44.5
t0.5 -45.5v-81q0 -9 3.5 -18t14.5 -9q8 0 16.5 0.5t16.5 0.5q14 0 14 -15q0 -16 -15 -16q-28 0 -56 2t-57 2t-59 -2t-59 -2q-7 0 -10 5.5t-3 10.5q0 15 15 15q8 0 16 -0.5t15 -0.5q11 0 16 7.5t5 17.5q0 146 0.5 292.5t0.5 292.5q0 11 -3 24t-18 13q-10 0 -19.5 -1t-19.5 -1
q-6 0 -13.5 2.5t-7.5 10.5q0 6 4 9t9 4q11 4 23 5t23 3q51 9 98 24q4 2 8 3.5t8 1.5q7 0 12.5 -12t9 -26t5.5 -20q14 8 40 18.5t52.5 19t41.5 8.5q51 0 91 -22t68.5 -58.5t43.5 -81.5t15 -91z" />
    <glyph glyph-name="q" unicode="q" horiz-adv-x="608" 
d="M400 367q0 31 -10 64t-32 55.5t-59 22.5q-40 0 -65 -27t-39 -67.5t-19.5 -82.5t-5.5 -71q0 -27 6.5 -64.5t21 -74.5t38.5 -61.5t58 -24.5q29 0 53 17.5t38 44t14 54.5q0 53 0.5 107t0.5 108zM591 -177q0 -16 -16 -16q-28 0 -55.5 2.5t-55.5 2.5q-29 0 -59 -2.5t-59 -2.5
q-7 0 -10 5.5t-3 10.5q0 16 16 16q8 0 16 -1t15 -1q11 0 15.5 7.5t4.5 17.5v196q-22 -29 -55.5 -42t-68.5 -13q-30 0 -68 6.5t-63 23.5q-53 37 -79.5 97.5t-26.5 123.5q0 84 32.5 147t93.5 97.5t146 34.5q19 0 42.5 -6.5t45 -18t33.5 -26.5q7 6 23 18.5t32.5 23t23.5 10.5
t12 -3t5 -11v-61l-1 -603q0 -10 7 -14.5t16 -4.5q7 0 13.5 0.5t13.5 0.5q14 0 14 -15z" />
    <glyph glyph-name="r" unicode="r" horiz-adv-x="444" 
d="M443 419q0 -10 -5.5 -18.5t-16.5 -8.5q-17 0 -23 14q-6 13 -12.5 30.5t-17 30.5t-29.5 13q-10 0 -19 -4t-17 -10q-32 -22 -51.5 -62.5t-25.5 -79.5v1v-74v-74v-123q0 -17 9.5 -22t23 -3.5t24.5 1.5q14 0 14 -15q0 -16 -16 -16q-30 0 -60 1t-60 1q-31 0 -62 -1.5t-63 -1.5
q-7 0 -10 5.5t-3 10.5q0 15 16 15q10 0 19.5 -0.5t19.5 -0.5q12 0 16 8t4 18v143v143v38v38q0 11 -2 26t-8.5 27t-21.5 12q-10 0 -19.5 -2.5t-20.5 -2.5q-15 0 -15 15q0 11 11 15q14 5 29 6.5t29 4.5q13 3 34 8.5t41.5 10t31.5 4.5q15 0 22 -11q3 -5 6 -23.5t5 -37.5t2 -27
q31 39 69 71t92 32q14 0 29.5 -5.5t19.5 -21.5q5 -19 8 -48.5t3 -49.5z" />
    <glyph glyph-name="s" unicode="s" horiz-adv-x="446" 
d="M422 147q0 -47 -20 -76.5t-53 -45.5t-71.5 -22t-76.5 -6q-25 0 -49 5t-48 11q-10 2 -21 4.5t-22 2.5q-4 14 -11.5 41.5t-14 54t-6.5 37.5t7 14t15 3q12 0 18 -9q15 -21 24 -44t28 -43q14 -15 40.5 -30.5t47.5 -15.5q45 0 67.5 21t22.5 67q0 31 -19 52t-48.5 38
t-62.5 33.5t-62.5 36.5t-48.5 48.5t-19 69.5q0 51 28 83t71.5 47t87.5 15q20 0 39 -3t38 -11q9 -3 24.5 -7.5t24.5 -4.5q13 0 25 3q2 -28 6.5 -56t5.5 -56v-3q1 -10 -5.5 -16.5t-15.5 -6.5q-10 0 -14.5 4t-8.5 12q-13 29 -25.5 55.5t-33 43.5t-58.5 17q-40 0 -59 -31
t-19 -66q0 -28 21 -48t43 -32q27 -14 62.5 -31t68.5 -39t55 -50.5t22 -65.5z" />
    <glyph glyph-name="t" unicode="t" horiz-adv-x="372" 
d="M371 48q0 -14 -14.5 -24.5t-36 -17t-43.5 -9.5t-37 -3q-75 0 -104 30.5t-29 101.5q0 86 1 172t1 172h-46q-10 0 -17 -6.5t-13 -6.5q-10 0 -10 10q0 4 4 15t6 14q3 6 6 7t9 1h62v107q25 14 55 41t46 50q3 5 8 10.5t12 5.5q16 0 15 -14l-3 -200h103q8 0 14.5 -3.5
t6.5 -12.5q0 -19 -21 -19h-103l-2 -386q0 -16 6.5 -30.5t25.5 -14.5q17 0 34.5 3t32.5 10q5 2 9.5 4.5t9.5 2.5q12 0 12 -10z" />
    <glyph glyph-name="u" unicode="u" horiz-adv-x="628" 
d="M617 37q0 -8 -10 -14q-27 -19 -50 -23t-55 -4q-31 0 -52.5 26t-26.5 54q-29 -40 -68.5 -61.5t-89.5 -21.5q-96 0 -136 44.5t-40 138.5v67q0 52 0.5 103.5t0.5 103.5q0 11 -3 24t-18 13q-6 0 -11.5 -1t-11.5 -1q-7 0 -16 2t-9 11q0 8 3.5 11t9.5 4q11 3 24 4t24 2
q55 7 113 21q6 2 11 2q14 0 14 -13q0 -86 -2 -172.5t-2 -172.5q0 -24 1.5 -50.5t9 -49.5t25.5 -37t50 -14q34 0 62 26.5t41 54.5q1 2 4 9.5t3 8.5q0 80 -0.5 159.5t-0.5 158.5q0 11 -3 24t-18 13q-6 0 -12 -1t-13 -1t-15.5 2t-8.5 11q0 8 3.5 11t9.5 4q11 3 24 4t25 2
q56 8 111 21q3 1 5.5 1.5t5.5 0.5q15 0 15 -13q0 -109 -1 -218.5t-1 -219.5q0 -10 1 -22.5t7 -22t20 -9.5q11 0 22 5.5t19 5.5q5 0 7.5 -3.5t2.5 -7.5z" />
    <glyph glyph-name="v" unicode="v" horiz-adv-x="574" 
d="M583 525q0 -8 -5.5 -11t-13.5 -3h-9h-7q-19 0 -27 -18q-4 -10 -8 -22t-8 -23q-37 -113 -76 -224.5t-77 -224.5l-124 -5q-24 74 -47.5 148.5t-47.5 149.5q-13 41 -25.5 82t-26.5 81q-10 25 -25.5 28.5t-38.5 3.5q-15 0 -15 14q0 8 3 11t10 4q10 2 21.5 3.5t21.5 2.5
q22 3 43.5 6.5t43.5 6.5q7 2 13.5 3t13.5 1q14 0 19 -13q5 -12 8.5 -25t7.5 -26l31 -107q23 -79 46.5 -158.5t46.5 -159.5q36 107 70.5 214.5t58.5 217.5q1 5 1.5 9.5t0.5 9.5q0 9 -7 10.5t-14 1.5h-35q-8 0 -12.5 2t-4.5 12q0 5 4 8.5t8 3.5q24 0 48 -0.5t48 -0.5
q18 0 35.5 1t35.5 1q6 0 10.5 -4.5t4.5 -10.5z" />
    <glyph glyph-name="w" unicode="w" horiz-adv-x="852" 
d="M849 524q0 -12 -6.5 -13.5t-14.5 -1.5q-13 0 -26.5 -2.5t-20.5 -17.5q-4 -10 -7 -21.5t-6 -22.5q-31 -112 -64 -223.5t-67 -222.5l-110 -4q-25 93 -55 184.5t-57 184.5q-29 -92 -62.5 -182.5t-62.5 -182.5l-95 -4q-20 78 -40.5 156t-41.5 157l-20 80t-22 80
q-4 14 -11 20.5t-21 6.5q-7 0 -13.5 -1t-13.5 -1q-13 0 -13 13t13 16q1 0 17 2t39 4.5t46.5 5.5t40.5 4.5t19 1.5q8 0 10.5 -4t3.5 -10q9 -34 16.5 -68.5t14.5 -69.5q16 -70 31 -140t30 -141q29 101 61.5 202t63.5 201q5 14 9 20.5t20 7.5q7 1 14.5 1.5t14.5 0.5
q22 0 30 -18q5 -11 7 -23.5t5 -23.5q7 -23 13.5 -46.5t13.5 -46.5q21 -72 42.5 -143.5t43.5 -143.5q25 89 48.5 177.5t43.5 177.5q2 13 5.5 25.5t3.5 25.5q0 7 -11.5 9t-25 1.5t-18.5 -0.5q-16 0 -16 13q0 14 14 14h173q14 0 14 -14z" />
    <glyph glyph-name="x" unicode="x" horiz-adv-x="572" 
d="M576 14q0 -16 -16 -16q-21 0 -42 1t-42 1q-19 0 -37.5 -1t-36.5 -1q-10 0 -12.5 3t-6.5 10q-11 23 -23.5 45t-25.5 44q-17 32 -35.5 64t-37.5 63q-31 -46 -61.5 -91t-59.5 -92q-5 -8 -8.5 -16t-7.5 -17q-5 -11 -19 -11q-13 0 -27 0.5t-28 0.5q-10 0 -19.5 -1t-20.5 -1
q-4 0 -7.5 4.5t-3.5 8.5q0 11 8.5 12t16.5 1q14 0 23 2t20 11q15 12 39 40.5t50 62.5t48 65t32 49q-25 42 -52 84t-54 82q-10 17 -21 33t-24 32q-5 6 -11 7.5t-14 1.5q-10 0 -20 -1.5t-20 -1.5q-5 0 -9.5 4.5t-4.5 9.5q0 12 11 15t21 3q33 4 71.5 10.5t69.5 6.5q15 0 22 -12
q5 -7 9 -16.5t8 -17.5q23 -43 48.5 -85.5t49.5 -85.5q8 11 25.5 36.5t36.5 55t33 54t14 32.5q0 7 -1.5 9t-8.5 2t-14.5 -0.5t-15.5 -0.5q-16 0 -16 17q0 5 4.5 8t8.5 3q22 0 43.5 -1t43.5 -1q21 0 43 0.5t43 0.5q13 0 13 -14q0 -13 -10 -13.5t-20 -0.5q-7 0 -16 -1t-15 -5
q-12 -8 -21 -19q-37 -46 -76 -95t-71 -96q22 -35 44.5 -70.5t44.5 -70.5q16 -25 33 -48l34 -46q8 -10 15.5 -17.5t19.5 -11.5q8 -2 19 -2t19 -2.5t8 -12.5z" />
    <glyph glyph-name="y" unicode="y" horiz-adv-x="594" 
d="M601 521q0 -14 -14 -14.5t-24 -0.5q-13 0 -21 -8.5t-13 -19.5q-39 -84 -79 -167t-78 -167q-25 -58 -52.5 -116.5t-56.5 -115.5q-8 -16 -16.5 -32.5t-18.5 -33.5q-18 -28 -44 -40.5t-59 -12.5q-34 0 -61 20.5t-27 57.5q0 23 17.5 37.5t39.5 14.5q11 0 19 -4
q-1 -28 9 -39.5t38 -11.5q9 0 18 4.5t16 9.5q9 7 21.5 24.5t23 37t12.5 30.5q1 5 2 11t1 11q0 29 -14 74.5t-34.5 96.5t-40.5 96.5t-32 75.5q-13 34 -27.5 68.5t-34.5 64.5q-11 17 -25.5 19t-32.5 2q-4 0 -8.5 3t-4.5 8q0 14 13 17q28 5 58.5 7.5t58.5 6.5q11 2 21.5 3
t20.5 1q14 0 19 -5.5t9 -16.5q14 -30 25.5 -61t22.5 -63q21 -59 44 -119t42 -121q8 18 23.5 54.5t34 81t35.5 88.5t28 78.5t11 48.5q0 5 -6 5.5t-9 0.5q-10 0 -20.5 -0.5t-21.5 -0.5q-8 0 -14 2t-6 12q0 12 6.5 13t14.5 1q44 0 88.5 0.5t87.5 0.5q15 0 15 -17z" />
    <glyph glyph-name="z" unicode="z" horiz-adv-x="480" 
d="M477 171q0 -20 -4.5 -41t-6.5 -41q-1 -16 -3 -38t-5 -37q-1 -12 -13 -12q-62 0 -124.5 1t-124.5 1q-43 0 -87 -1.5t-88 -1.5q-7 0 -12 5t-5 12q0 3 8 14.5t19 25.5t20.5 26t12.5 17q19 29 39.5 57t39.5 57q39 60 77.5 122t72.5 125q4 6 7 12.5t3 13.5q0 14 -16 16
q-10 2 -22 2h-23q-20 0 -42 -1t-42 -4q-28 -4 -43 -17.5t-27 -37.5q-6 -13 -10.5 -26.5t-9.5 -27.5q-2 -7 -5.5 -13t-11.5 -6q-15 0 -15 18v3q1 23 2.5 45.5t2.5 44.5q1 11 1.5 22t1.5 21t11 10q7 0 14 -2.5t14 -2.5q36 0 73.5 -0.5t72.5 -0.5q41 0 82 0.5t82 1.5
q17 1 34.5 2t34.5 1q10 0 10 -13q0 -7 -4 -12q-15 -24 -32 -48l-34 -48q-30 -43 -61 -87t-59 -89q-7 -11 -24 -36.5t-36.5 -55.5t-33.5 -54.5t-14 -33.5q0 -19 7 -23t24 -4h36q36 -1 78 5t70 32q20 20 35 46t23 51q2 5 4.5 10.5t8.5 5.5q5 0 11 -2t6 -9z" />
    <glyph glyph-name="braceleft" unicode="{" horiz-adv-x="450" 
d="M352 -98q-37 5 -77 23.5t-67.5 50t-27.5 75.5q0 52 1 104t1 104q0 89 -83 119q83 32 83 120q0 53 -1 105.5t-1 104.5q0 44 27.5 75.5t67.5 50.5t77 24v-16q-35 -11 -52 -35.5t-22.5 -55.5t-5.5 -64v-97v-96q0 -26 -22.5 -51t-42.5 -38q-10 -7 -19.5 -10.5t-20.5 -8.5
q-4 -2 -8.5 -4t-9.5 -4q5 -1 9.5 -3t8.5 -4q19 -7 43.5 -24t43 -38.5t18.5 -45.5v-95v-96q0 -33 5.5 -64t22.5 -54.5t52 -35.5v-16z" />
    <glyph glyph-name="bar" unicode="|" horiz-adv-x="250" 
d="M160 -69h-70v876h70v-876z" />
    <glyph glyph-name="braceright" unicode="}" horiz-adv-x="450" 
d="M351 378q-83 -30 -83 -119q0 -52 1 -104t1 -104q0 -44 -27.5 -75.5t-67 -50t-77.5 -23.5v16q36 12 53 35.5t22 54.5t5 64q0 48 0.5 96t0.5 95q0 24 18.5 45.5t43 38.5t42.5 24q5 2 9.5 4t9.5 3q-5 2 -9.5 4t-9.5 4q-10 5 -20 8.5t-20 10.5q-20 13 -42 38t-22 51
q0 48 -0.5 96t-0.5 97q0 33 -5.5 64t-22.5 55.5t-52 35.5v16q38 -5 77.5 -24t67 -50.5t27.5 -75.5q0 -52 -1 -104.5t-1 -105.5q0 -88 83 -120z" />
    <glyph glyph-name="asciitilde" unicode="~" horiz-adv-x="700" 
d="M665 310q-31 -37 -74.5 -60.5t-91.5 -23.5q-46 0 -88.5 17.5t-81.5 40t-75 40t-69 17.5q-38 0 -73.5 -15t-65.5 -37l-22 32q20 22 48 41.5t60 32.5t62 13q49 0 91.5 -17t81.5 -39.5t77 -39.5t77 -17q35 0 66.5 16.5t57.5 36.5z" />
    <glyph glyph-name="uni00A0" unicode="&#xa0;" horiz-adv-x="250" 
 />
    <glyph glyph-name="exclamdown" unicode="&#xa1;" horiz-adv-x="400" 
d="M280 -148q0 -30 -26.5 -47.5t-53.5 -17.5q-16 0 -35 8.5t-32 23t-13 33.5q0 20 3 40l6 40q14 104 28 207.5t27 207.5h35q8 -104 21.5 -208t29.5 -207q3 -20 6.5 -40t3.5 -40zM278 482q0 -31 -23 -52.5t-54 -21.5t-54.5 21.5t-23.5 52.5q0 32 23.5 53.5t54.5 21.5
t54 -21.5t23 -53.5z" />
    <glyph glyph-name="cent" unicode="&#xa2;" horiz-adv-x="700" 
d="M330 604q-43 -22 -66.5 -62.5t-32.5 -87.5t-9 -92q0 -40 10 -85.5t33.5 -83t64.5 -55.5v466zM603 232q0 -4 -2 -8t-4 -9q-10 -16 -29 -35.5t-35 -30.5q-30 -22 -69.5 -35.5t-76.5 -17.5v-116h-57v117q-71 9 -127 41t-87.5 86.5t-31.5 130.5q0 73 31 134t86.5 101
t128.5 48v117h57v-117q26 -1 43.5 -6t40.5 -15q7 -3 20 -10t18 -7q13 0 23 9.5t20 9.5q6 0 8 -4t3 -9q2 -10 1.5 -20t0.5 -20q1 -25 2.5 -49.5t1.5 -48.5q0 -13 -4.5 -23t-20.5 -10t-24 18q-13 40 -26 72t-37 54t-70 33v-480q34 4 73 20t63 40q12 12 21.5 24.5t19.5 25.5
q7 10 18 10q8 0 14.5 -6t6.5 -14z" />
    <glyph glyph-name="sterling" unicode="&#xa3;" horiz-adv-x="700" 
d="M193 110q-4 3 -15.5 4.5t-17.5 1.5q-17 0 -34.5 -11.5t-17.5 -30.5q0 -10 11.5 -12.5t18.5 -2.5q21 0 34.5 17t20.5 34zM649 127q0 -14 -11.5 -37.5t-20.5 -35.5q-25 -35 -58.5 -48t-75.5 -13q-62 0 -118.5 25.5t-108.5 56.5q-21 -31 -54.5 -51.5t-71.5 -20.5
q-18 0 -37 4.5t-32 17t-13 34.5q0 32 22 50.5t53 26t56 7.5q6 0 12 -0.5t12 -1.5q4 15 5 30t1 30q0 50 -5 88.5t-15 87.5h-123v40h116q-5 30 -9.5 60.5t-4.5 60.5q0 61 27 105.5t74.5 69t106.5 24.5q47 0 89 -15q24 -7 47 -16t48 -11q2 -34 9.5 -69t7.5 -70q0 -13 -9 -20.5
t-22 -7.5q-10 0 -19 3t-14 12q-3 6 -3.5 12.5t-2.5 12.5q-5 29 -20 58.5t-39 49.5t-58 20q-37 0 -60 -23t-33.5 -56t-10.5 -65q0 -34 4 -67.5t9 -67.5h209v-40h-201q4 -22 5 -43t1 -42q0 -43 -7.5 -86t-24.5 -84q26 -10 63 -21.5t75 -19.5t65 -8q35 0 69 6.5t62 28.5
q5 4 14.5 15t13.5 11q6 0 6 -7z" />
    <glyph glyph-name="currency" unicode="&#xa4;" horiz-adv-x="550" 
d="M442 317q0 45 -21 85t-57.5 65t-82.5 25t-82.5 -25t-57.5 -65t-21 -85q0 -44 21 -84.5t58 -66t83 -25.5t82 26t57 66.5t21 83.5zM507 525l-60 -64q26 -34 38.5 -67t12.5 -77q0 -45 -12.5 -77.5t-38.5 -68.5l60 -61l-36 -39l-63 66q-31 -19 -60.5 -29.5t-65.5 -10.5
q-41 0 -74 12t-66 37l-61 -64l-37 39l62 64q-21 31 -32.5 62.5t-11.5 69.5q0 40 11 70t33 62l-63 65l37 37l62 -63q33 26 65 37t74 11q68 0 127 -39l63 66z" />
    <glyph glyph-name="yen" unicode="&#xa5;" horiz-adv-x="700" 
d="M678 715q0 -12 -9 -15t-22 -3t-26 -1t-21 -10q-7 -7 -17.5 -23t-19.5 -31.5t-14 -24.5q-30 -47 -58.5 -95.5t-59.5 -95.5h197v-40h-219v-102h219v-41h-219v-177q0 -14 11.5 -19t22.5 -5q9 0 18 1t17 1q9 0 16.5 -5.5t7.5 -14.5q0 -10 -9.5 -13.5t-17.5 -3.5
q-12 0 -24.5 1.5t-25.5 1.5q-13 1 -26.5 1h-27.5h-51t-52 -2q-12 0 -24 -1t-25 -1q-6 0 -12.5 6.5t-6.5 12.5q0 8 6.5 13t13.5 5q8 0 16.5 -0.5t16.5 -0.5q27 0 32 8.5t5 33.5v158h-211v41h211v102h-211v40h195q-34 68 -73.5 132.5t-81.5 127.5q-7 10 -13 17t-19 7
q-9 0 -17.5 -0.5t-16.5 -0.5q-7 0 -12.5 4.5t-5.5 11.5q0 8 7.5 12.5t14.5 4.5q37 0 74 -0.5t74 -0.5q8 0 15 -1.5t12 -9.5q2 -3 3.5 -6t2.5 -6q32 -73 67 -144t71 -142q7 10 23.5 38t37.5 63.5t40.5 70.5t32 60.5t12.5 32.5q0 10 -4 12.5t-13 2.5q-11 0 -21.5 -0.5
t-21.5 -0.5q-10 0 -15.5 2t-5.5 14q0 10 7 12.5t15 2.5q26 0 51.5 -0.5t50.5 -0.5q24 0 47.5 1.5t47.5 1.5q18 0 18 -19z" />
    <glyph glyph-name="brokenbar" unicode="&#xa6;" horiz-adv-x="400" 
d="M244 -91h-88v425h88v-425zM244 423h-88v426h88v-426z" />
    <glyph glyph-name="section" unicode="&#xa7;" horiz-adv-x="650" 
d="M447 349q0 38 -24 61.5t-57 39t-61 27.5q-26 -3 -52 -13t-43.5 -28.5t-17.5 -49.5q0 -30 18 -51.5t45 -36.5t56.5 -25.5t51.5 -18.5q38 9 61 31t23 64zM545 362q0 -37 -22 -62t-54 -41.5t-62 -26.5q34 -15 64 -37.5t49 -53t19 -71.5q0 -40 -19 -68t-50 -45.5t-67 -25
t-70 -7.5q-38 0 -78.5 4.5t-75.5 21.5t-58 52q-6 10 -11 21.5t-5 23.5q0 25 10.5 41.5t38.5 16.5q18 0 32 -9t18 -27q2 -10 2.5 -19.5t3.5 -19.5q8 -23 28 -40.5t45 -27t48 -9.5q48 0 81.5 31t33.5 80q0 32 -19.5 56.5t-45.5 41.5q-27 17 -58 31q-30 14 -65.5 27t-66.5 31.5
t-51 45.5t-20 69q0 34 19 62.5t49 47.5t62 24q-32 14 -60 33.5t-45 47.5t-17 66q0 47 27.5 79t69.5 48.5t83 16.5q29 0 61 -5.5t61 -18.5t48 -37q11 -13 20.5 -30.5t9.5 -35.5q0 -27 -18.5 -41t-44.5 -14q-10 0 -21.5 7t-14.5 17q-2 6 -3 13l-2 14q-4 38 -27 68t-65 30
q-43 0 -71 -31t-28 -73q0 -35 24 -57.5t62 -39.5t80 -32.5t80 -36t62 -50.5t24 -76z" />
    <glyph glyph-name="dieresis" unicode="&#xa8;" horiz-adv-x="500" 
d="M205 719q0 -24 -19.5 -41t-42.5 -17q-22 0 -42 17t-20 41q0 23 20 40t42 17q23 0 42.5 -17t19.5 -40zM419 719q0 -24 -19.5 -41t-42.5 -17q-22 0 -42 17t-20 41q0 23 20 40t42 17q23 0 42.5 -17t19.5 -40z" />
    <glyph glyph-name="copyright" unicode="&#xa9;" horiz-adv-x="740" 
d="M545 256q0 -3 -3 -9q-16 -25 -43.5 -44.5t-59.5 -30.5t-62 -11q-57 0 -100.5 24t-67.5 67t-24 99q0 58 23 104t66 73.5t103 27.5q17 0 34.5 -4t33.5 -11q3 -1 8 -3l10 -4q12 -5 16 -5q5 0 15.5 4.5t17.5 9.5q2 -22 3 -41l2 -38q1 -8 1.5 -17t0.5 -17q0 -12 -8.5 -17
t-18.5 -5q-15 0 -21 11q-2 4 -2 7q0 2 -0.5 4t-0.5 3q-5 20 -16 42.5t-27 38t-40 15.5q-29 0 -49 -17.5t-32.5 -44.5t-18.5 -57t-6 -54t5.5 -51t17.5 -51.5t31.5 -40t47.5 -15.5q32 0 57 11.5t43 24.5q18 15 29 26q14 12 18 12q5 0 11 -4t6 -12zM665 375q0 61 -23 114
t-64 93t-94.5 62.5t-113.5 22.5q-61 0 -114.5 -22.5t-94 -62.5t-63.5 -93t-23 -114t23 -114t63.5 -93t94 -62.5t114.5 -22.5q60 0 113.5 22.5t94.5 62.5t64 93t23 114zM696 374q0 -67 -25.5 -125.5t-70.5 -103t-104 -69.5t-126 -25t-126 25t-104 69t-70.5 103t-25.5 126
q0 68 25.5 126.5t70.5 102.5t104 69t126 25t126 -25t104 -69t70.5 -102.5t25.5 -126.5z" />
    <glyph glyph-name="ordfeminine" unicode="&#xaa;" horiz-adv-x="390" 
d="M242 473q-1 29 -1.5 57t-1.5 56q-24 -1 -49.5 -13t-42.5 -32.5t-17 -47.5q0 -22 10.5 -40.5t35.5 -18.5q18 0 37 12.5t29 26.5zM367 432q0 -1 -0.5 -2l-0.5 -1q-7 -15 -24.5 -23t-32.5 -8q-52 0 -64 48q-19 -21 -41.5 -33.5t-51.5 -12.5q-38 0 -66 20t-28 61q0 37 24 62
t55 38q24 11 50.5 16.5t51.5 11.5q0 20 -1.5 39.5t-9.5 37.5q-5 12 -13 24t-23 12q-22 0 -37.5 -17t-17.5 -38q-1 -4 -0.5 -7.5t-0.5 -7.5q-2 -7 -11 -9t-15 -2q-12 0 -23.5 7t-11.5 20q0 4 0.5 7t1.5 7q5 16 23.5 30t32.5 20q31 11 66 11q52 0 82 -30t30 -82v-135v-25
t1 -25q1 -8 2.5 -16.5t12.5 -8.5t20 8.5t13 8.5q7 0 7 -6z" />
    <glyph glyph-name="guillemetleft" unicode="&#xab;" horiz-adv-x="500" 
d="M284 442l-167 -192l167 -194h-85l-158 194l158 192h85zM461 442l-169 -192l169 -194h-87l-157 194l157 192h87z" />
    <glyph glyph-name="logicalnot" unicode="&#xac;" horiz-adv-x="580" 
d="M512 127h-55v207h-407v41h462v-248z" />
    <glyph glyph-name="softhyphen" unicode="&#xad;" horiz-adv-x="750" 
d="M679 333h-607v59h607v-59z" />
    <glyph glyph-name="registered" unicode="&#xae;" horiz-adv-x="740" 
d="M441 469q0 34 -12.5 49t-34.5 19.5t-51 4.5q-7 0 -20 -1t-13 -11q0 -34 -1 -67.5t-1 -67.5q15 -3 30 -3q26 0 49.5 6.5t38.5 23.5t15 47zM572 189q0 -8 -5.5 -11.5t-12.5 -5.5q-4 -1 -7.5 -1h-6.5h-7h-5h-13h-12t-11.5 0.5t-10.5 1.5q-10 3 -19 9.5t-17 19.5
q-25 41 -49.5 82.5t-47.5 83.5h-38v-160q0 -7 7 -8.5t12 -1.5q6 0 12 0.5t11 0.5q7 0 8.5 -4.5t1.5 -9.5q0 -12 -13 -12h-144q-4 0 -7 6t-3 8q0 6 4 8.5t8 3.5q2 0 4.5 0.5t4.5 -0.5h4.5h3.5q3 0 7 0.5t7 1.5q6 2 6 8v322q0 9 -12 11h-6h-6h-6h-5q-7 0 -9 5t-2 9q0 7 5 10
q2 1 5 1h5q17 0 33.5 -1t32.5 -1q25 0 49 2.5t49 2.5q28 0 59 -8.5t53 -29t22 -55.5q0 -48 -30.5 -71t-72.5 -32q24 -39 49.5 -77.5t53.5 -73.5q8 -10 17 -16t21 -8q2 -1 5.5 -0.5t7.5 -0.5q3 -1 6.5 -2.5t3.5 -6.5zM665 375q0 61 -23 114t-64 93t-94.5 62.5t-113.5 22.5
q-61 0 -114.5 -22.5t-94 -62.5t-63.5 -93t-23 -114t23 -114t63.5 -93t94 -62.5t114.5 -22.5q60 0 113.5 22.5t94.5 62.5t64 93t23 114zM696 374q0 -67 -25.5 -125.5t-70.5 -103t-104 -69.5t-126 -25t-126 25t-104 69t-70.5 103t-25.5 126q0 68 25.5 126.5t70.5 102.5t104 69
t126 25t126 -25t104 -69t70.5 -102.5t25.5 -126.5z" />
    <glyph glyph-name="macron" unicode="&#xaf;" horiz-adv-x="500" 
d="M379 680h-258v51h258v-51z" />
    <glyph glyph-name="degree" unicode="&#xb0;" horiz-adv-x="350" 
d="M262 688q0 36 -26 61t-61 25q-36 0 -61.5 -25t-25.5 -61t25.5 -61t61.5 -25q35 0 61 25t26 61zM293 688q0 -32 -16 -58.5t-43 -42t-59 -15.5t-58.5 15.5t-42.5 42t-16 58.5t15.5 58.5t42.5 42.5t59 16t59 -15.5t43 -42t16 -59.5z" />
    <glyph glyph-name="plusminus" unicode="&#xb1;" horiz-adv-x="750" 
d="M668 45h-585v55h585v-55zM668 401h-265v-237h-56v237h-264v55h264v208h56v-208h265v-55z" />
    <glyph glyph-name="twosuperior" unicode="&#xb2;" horiz-adv-x="390" 
d="M353 480q0 -7 -7 -26t-9 -29q-3 -10 -5 -21l-4 -22q-5 -4 -13 -4q-13 0 -26.5 1t-27.5 1q-53 0 -106 -2t-106 -2q-4 0 -10 2t-6 8q0 27 18.5 56t45.5 57t54.5 52t45.5 42q21 20 37.5 46t16.5 57q0 18 -5.5 38t-18 33.5t-34.5 13.5q-6 0 -16.5 -2.5t-16.5 -5.5
q-21 -9 -29.5 -23.5t-11 -30t-4 -29.5t-8.5 -23t-26 -9q-15 0 -28.5 10t-13.5 26q0 29 16.5 50t42 34t54 19t52.5 6q32 0 62 -11.5t50 -34.5t20 -59q0 -39 -15 -65t-39 -45t-52 -35.5t-55 -34.5q-10 -7 -28.5 -22.5t-34.5 -31.5t-21 -27q-2 -6 -2 -9q2 -2 3 -2q35 0 71 0.5
t71 2.5q34 2 50 11.5t22.5 21t11.5 20t17 8.5q4 0 11 -2.5t7 -7.5z" />
    <glyph glyph-name="threesuperior" unicode="&#xb3;" horiz-adv-x="390" 
d="M345 515q0 -52 -26 -84t-67.5 -46t-87.5 -14q-30 0 -60 9t-47 37q-4 8 -6.5 16t-2.5 17q0 14 12.5 24.5t25.5 10.5q15 0 21 -9t9.5 -22t8.5 -26.5t17.5 -22.5t37.5 -9q30 0 49 18t28 45t9 53q0 32 -19 58.5t-53 26.5q-14 0 -27 -3t-27 -3q-5 0 -11.5 4.5t-6.5 9.5
q0 11 9.5 14t21 2.5t17.5 -0.5q39 0 58 25t19 61q0 18 -6 37.5t-19 32.5t-34 13q-25 0 -42.5 -18.5t-22.5 -41.5q-1 -7 -1.5 -13.5t-2.5 -13.5q-2 -8 -7.5 -14t-15.5 -6q-14 0 -29.5 11t-15.5 27q0 11 5 21.5t12 18.5q24 30 60 41t72 11q32 0 60.5 -10.5t46 -32.5t17.5 -58
q0 -37 -26 -62.5t-57 -37.5q43 -3 73.5 -26.5t30.5 -70.5z" />
    <glyph glyph-name="acute" unicode="&#xb4;" horiz-adv-x="500" 
d="M393 724l-261 -80l-25 44l253 104z" />
    <glyph glyph-name="micro" unicode="&#xb5;" horiz-adv-x="600" 
d="M593 41q0 -9 -11.5 -16t-28 -12.5t-31.5 -8t-22 -2.5q-34 0 -56 20.5t-30 52.5q-31 -38 -72.5 -56t-90.5 -18q-26 0 -52 6t-46 24q-2 -40 -4.5 -80t-5.5 -81q-1 -11 -4 -19t-14 -13q-6 -3 -18 -4t-19 -1q-13 0 -30.5 5.5t-17.5 21.5l5 14t6 17q6 22 10 44l8 44
q19 129 19 258t1 259q0 15 -14 15q-10 0 -19 -1.5t-18 -1.5q-4 0 -9.5 2.5t-5.5 7.5q0 11 5 14.5t14 4.5q16 2 33 3.5t33 2.5q18 1 36 2.5t37 1.5q12 0 16 -5.5t4 -16.5q0 -88 -1 -176.5t-1 -177.5q0 -18 1 -38.5t8 -37.5q10 -25 34 -36.5t49 -11.5q43 0 77 28.5t39 71.5
q2 14 2 28.5v27.5q0 72 -1 143.5t-1 143.5q0 8 -2 15t-12 7q-11 0 -22 -2t-22 -2q-16 0 -16 14q0 8 8 10.5t14 3.5q20 3 40.5 5.5t40.5 4.5q17 2 34 3.5t34 1.5q5 0 9.5 -2.5t4.5 -8.5q0 -110 -0.5 -220.5t-0.5 -221.5q0 -12 1 -26t8 -23.5t24 -9.5q10 0 19 5t16 5q8 0 8 -8
z" />
    <glyph glyph-name="paragraph" unicode="&#xb6;" horiz-adv-x="800" 
d="M635 761h-72v-805h-64v805h-71v-805h-62v483q-52 5 -98 23t-74.5 54.5t-28.5 96.5q0 46 21.5 80.5t58.5 58.5q30 20 70 32t75 12h245v-35z" />
    <glyph glyph-name="periodcentered" unicode="&#xb7;" horiz-adv-x="300" 
d="M229 308q0 -33 -23 -56t-56 -23t-56 23t-23 56t23 56t56 23t56 -23t23 -56z" />
    <glyph glyph-name="cedilla" unicode="&#xb8;" horiz-adv-x="500" 
d="M367 -98q0 -27 -15.5 -43t-39 -23.5t-48.5 -10t-45 -2.5q-21 0 -44.5 7t-43.5 16q-7 3 -22.5 13t-15.5 18q0 6 5 8.5t10 2.5q7 0 17 -4t17 -6q38 -11 75 -11q10 0 28 3t32.5 10.5t14.5 20.5q0 11 -9.5 17.5t-22 9t-21.5 2.5q-22 0 -46.5 -7t-45.5 -14q16 31 30.5 62
t27.5 62l51 -7q-10 -17 -20.5 -34.5t-21.5 -34.5q24 3 48 3q20 0 44.5 -3.5t42.5 -16t18 -38.5z" />
    <glyph glyph-name="onesuperior" unicode="&#xb9;" horiz-adv-x="390" 
d="M335 386q0 -11 -12 -11h-28q-19 0 -37 0.5t-37 0.5q-18 0 -35.5 -0.5t-35.5 -0.5h-26q-11 0 -11 11q0 14 12 14q10 0 20 -0.5t20 -0.5q11 0 15.5 8t4.5 18v338q-3 -1 -17 -5.5t-30.5 -9.5t-28.5 -8.5t-13 -3.5q-4 0 -7.5 5t-3.5 9q0 8 2.5 12t10.5 6q32 8 68.5 19.5
t65.5 24.5q10 5 20 5q7 0 8.5 -4t1.5 -9q0 -49 -1 -98t-1 -98v-183q0 -13 4 -19.5t18 -6.5q10 0 20 0.5t20 0.5q13 0 13 -14z" />
    <glyph glyph-name="ordmasculine" unicode="&#xba;" horiz-adv-x="390" 
d="M273 567q0 20 -2.5 45t-11 48.5t-24.5 38.5t-43 15q-25 0 -40.5 -16t-24 -40t-11.5 -49t-3 -44q0 -21 3 -45.5t11.5 -46.5t25 -36t43.5 -14q26 0 41.5 15t23 37.5t10 47.5t2.5 44zM354 564q0 -47 -20 -84.5t-56.5 -59.5t-84.5 -22q-47 0 -82.5 22t-55 59.5t-19.5 83.5
q0 47 19.5 87t55.5 65t85 25q81 0 119.5 -50t38.5 -126z" />
    <glyph glyph-name="guillemetright" unicode="&#xbb;" horiz-adv-x="500" 
d="M285 250l-156 -194h-88l170 194l-170 192h88zM461 250l-157 -194h-86l168 194l-168 192h86z" />
    <glyph glyph-name="onequarter" unicode="&#xbc;" 
d="M646 101h135q0 50 0.5 98.5t0.5 97.5zM368 366q0 -11 -12 -11h-28q-19 0 -37 0.5t-37 0.5q-18 0 -35.5 -0.5t-35.5 -0.5h-26q-11 0 -11 11q0 14 12 14q10 0 20 -0.5t20 -0.5q11 0 15.5 8t4.5 18v338q-3 -1 -17 -5.5t-30.5 -9.5t-28.5 -8.5t-13 -3.5q-4 0 -7.5 5t-3.5 9
q0 8 2.5 12t10.5 6q32 8 68.5 19.5t65.5 24.5q10 5 20 5q7 0 8.5 -4t1.5 -9q0 -49 -1 -98t-1 -98v-183q0 -13 4 -19.5t18 -6.5q10 0 20 0.5t20 0.5q13 0 13 -14zM845 808l-631 -911l-36 27l632 908zM939 133q0 -10 -5.5 -32t-8.5 -33h-70v-80q0 -17 10.5 -20t24.5 -1t24.5 1
t10.5 -14q0 -12 -13 -12q-23 0 -46.5 1.5t-46.5 1.5t-46 -1.5t-46 -1.5q-12 0 -12 12t10 13.5t23 0t23 1.5t10 19v80h-178q-6 0 -8.5 5.5t-2.5 9.5q0 8 5 15q17 27 35.5 52.5t36.5 50.5q32 47 64.5 92.5t66.5 91.5q6 8 16 14.5t20 6.5q20 0 20 -22v-283h23q20 0 28.5 9.5
t12.5 19t11 9.5q8 0 8 -6z" />
    <glyph glyph-name="onehalf" unicode="&#xbd;" 
d="M381 359q0 -13 -13 -13q-25 0 -50 1.5t-51 1.5q-25 0 -50 -1.5t-50 -1.5q-11 0 -11 13q0 12 12 12q10 0 20 -0.5t20 -0.5q11 0 15.5 8.5t4.5 17.5v347q-8 -1 -28 -8t-38.5 -13.5t-22.5 -6.5q-7 0 -9 7.5t-2 12.5q0 6 4 8.5t9 3.5q25 6 50 13.5t49 16.5q10 4 29.5 11.5
t28.5 7.5q7 0 8.5 -4t1.5 -9v-83q0 -28 -1 -56t-1 -57v-191q0 -13 4 -19.5t18 -6.5q10 0 20 0.5t20 0.5q13 0 13 -12zM845 808l-631 -911l-36 27l632 908zM930 55q0 -8 -7 -27t-9 -30q-3 -10 -5 -21l-4 -22q-6 -4 -12 -4q-13 0 -26.5 1t-27.5 1q-37 0 -74.5 -1.5t-75.5 -1.5
q-16 0 -31.5 -1t-31.5 -1q-4 0 -10 3.5t-6 7.5q0 28 18 57.5t45 58.5t54.5 54t46.5 43q22 22 38.5 49t16.5 59q0 18 -5 38.5t-18 35t-36 14.5q-6 0 -16.5 -3t-16.5 -5q-21 -9 -29.5 -24t-11 -31.5t-4 -31t-8.5 -24t-26 -9.5q-16 0 -29 10.5t-13 26.5q0 30 16 52t41.5 35.5
t54 20t53.5 6.5q33 0 63.5 -12t49.5 -36.5t19 -60.5q0 -40 -14.5 -67.5t-38.5 -47t-52.5 -36.5t-55.5 -37q-9 -7 -28 -23t-35.5 -33t-20.5 -27q-2 -8 -3 -11q37 0 73.5 0.5t73.5 2.5q34 2 50 11.5t22.5 21.5t11 20.5t16.5 8.5q4 0 11 -2.5t7 -7.5z" />
    <glyph glyph-name="threequarters" unicode="&#xbe;" 
d="M772 102v196l-136 -196h136zM408 484q0 -49 -26.5 -83t-68 -51.5t-86.5 -17.5q-30 0 -67 11.5t-55 38.5q-4 7 -8.5 16.5t-4.5 17.5q0 17 14.5 30t30.5 13q11 0 14.5 -7.5t4.5 -15.5q2 -9 4 -17.5t6 -16.5q9 -18 27 -29.5t37 -11.5q33 0 54 18t31 45.5t10 56.5
q0 34 -22 60t-58 26q-14 0 -28.5 -3t-28.5 -3q-5 0 -10 4.5t-5 10.5q0 5 4.5 10t9.5 5h34q40 0 62 25t22 64q0 29 -16 56t-50 27q-26 0 -46.5 -18t-25.5 -43q-2 -8 -3 -19.5t-5.5 -20t-18.5 -8.5q-13 0 -29.5 12.5t-16.5 26.5q0 22 17 41q26 31 64 42.5t75 11.5
q33 0 64 -10.5t51 -33t20 -60.5t-29 -64t-61 -38q44 -3 78.5 -26t34.5 -72zM824 792l-632 -911l-36 27l633 908zM929 132q0 -8 -5.5 -30t-7.5 -33h-71v-80q0 -17 10.5 -20t24.5 -1t24.5 1t10.5 -14t-12 -13q-23 0 -46.5 1.5t-46.5 1.5t-46.5 -1.5t-46.5 -1.5q-11 0 -11 13
q0 12 10 13.5t23 0t23 1.5t10 19v80h-179q-4 0 -7.5 4t-3.5 7q0 11 6 19l100 144t102 142q6 8 16 15t20 7q20 0 20 -23v-282h23q21 0 29 9t12 18.5t11 9.5q8 0 8 -7z" />
    <glyph glyph-name="questiondown" unicode="&#xbf;" horiz-adv-x="560" 
d="M508 -29q0 -18 -5.5 -35.5t-14.5 -33.5q-33 -59 -92.5 -84t-124.5 -25q-53 0 -103.5 16t-83 53t-32.5 99q0 37 20 73t48 58q29 23 53 35t43.5 29.5t34.5 56.5q10 26 12 65.5t3 67.5h34q3 -20 5 -41t2 -41q0 -21 -1 -42t-6 -42q-7 -32 -21.5 -53.5t-31 -39t-31.5 -37
t-24.5 -46.5t-9.5 -69q0 -45 21 -80t73 -35q46 0 79 28t33 76q0 14 -5 26.5t-5 25.5q0 32 23.5 44.5t51.5 12.5q26 0 40.5 -19t14.5 -43zM352 481q0 -30 -22 -52t-52 -22t-52 22t-22 52t22 52t52 22t52 -22t22 -52z" />
    <glyph glyph-name="Agrave" unicode="&#xc0;" horiz-adv-x="774" 
d="M463 297q-28 85 -57.5 169t-56.5 169q-29 -85 -57.5 -169t-57.5 -169h229zM763 10q0 -15 -19 -15h-12t-13 1q-25 2 -51.5 2h-52.5h-66t-67 -2q-4 -1 -8 -1h-8q-14 0 -14 14q0 12 8.5 14.5t19.5 1.5t18 -1q18 0 26.5 7.5t8.5 26.5q0 11 -7 38.5t-17 60.5t-19.5 61.5
l-13.5 40.5h-255l-9 -27t-16.5 -49t-18.5 -55t-15 -46.5t-6 -23.5q0 -19 10 -26t25 -7.5t29 -0.5q5 0 8 -6.5t3 -11.5q0 -6 -4.5 -9t-9.5 -3q-33 0 -65.5 1.5t-64.5 1.5q-16 0 -32 -1t-33 -1q-5 0 -10 4t-5 9q0 11 8 14t18.5 2.5t17.5 -0.5q13 0 21.5 10.5t12.5 20.5
q59 148 112 297.5t103 300.5q4 11 10 31t6 30q0 6 -2.5 10.5t-2.5 8.5t10 6t21 3t14 1q21 3 41.5 6t41.5 5l245 -691q8 -24 21.5 -30.5t36.5 -6.5q9 0 15 -2.5t6 -13.5zM527 827l-14 -52l-273 54l19 76z" />
    <glyph glyph-name="Aacute" unicode="&#xc1;" horiz-adv-x="774" 
d="M463 297q-28 85 -57.5 169t-56.5 169q-29 -85 -57.5 -169t-57.5 -169h229zM763 10q0 -15 -19 -15h-12t-13 1q-25 2 -51.5 2h-52.5h-66t-67 -2q-4 -1 -8 -1h-8q-14 0 -14 14q0 12 8.5 14.5t19.5 1.5t18 -1q18 0 26.5 7.5t8.5 26.5q0 11 -7 38.5t-17 60.5t-19.5 61.5
l-13.5 40.5h-255l-9 -27t-16.5 -49t-18.5 -55t-15 -46.5t-6 -23.5q0 -19 10 -26t25 -7.5t29 -0.5q5 0 8 -6.5t3 -11.5q0 -6 -4.5 -9t-9.5 -3q-33 0 -65.5 1.5t-64.5 1.5q-16 0 -32 -1t-33 -1q-5 0 -10 4t-5 9q0 11 8 14t18.5 2.5t17.5 -0.5q13 0 21.5 10.5t12.5 20.5
q59 148 112 297.5t103 300.5q4 11 10 31t6 30q0 6 -2.5 10.5t-2.5 8.5t10 6t21 3t14 1q21 3 41.5 6t41.5 5l245 -691q8 -24 21.5 -30.5t36.5 -6.5q9 0 15 -2.5t6 -13.5zM530 828l-272 -54l-14 52l267 78z" />
    <glyph glyph-name="Acircumflex" unicode="&#xc2;" horiz-adv-x="774" 
d="M463 297q-28 85 -57.5 169t-56.5 169q-29 -85 -57.5 -169t-57.5 -169h229zM763 10q0 -15 -19 -15h-12t-13 1q-25 2 -51.5 2h-52.5h-66t-67 -2q-4 -1 -8 -1h-8q-14 0 -14 14q0 12 8.5 14.5t19.5 1.5t18 -1q18 0 26.5 7.5t8.5 26.5q0 11 -7 38.5t-17 60.5t-19.5 61.5
l-13.5 40.5h-255l-9 -27t-16.5 -49t-18.5 -55t-15 -46.5t-6 -23.5q0 -19 10 -26t25 -7.5t29 -0.5q5 0 8 -6.5t3 -11.5q0 -6 -4.5 -9t-9.5 -3q-33 0 -65.5 1.5t-64.5 1.5q-16 0 -32 -1t-33 -1q-5 0 -10 4t-5 9q0 11 8 14t18.5 2.5t17.5 -0.5q13 0 21.5 10.5t12.5 20.5
q59 148 112 297.5t103 300.5q4 11 10 31t6 30q0 6 -2.5 10.5t-2.5 8.5t10 6t21 3t14 1q21 3 41.5 6t41.5 5l245 -691q8 -24 21.5 -30.5t36.5 -6.5q9 0 15 -2.5t6 -13.5zM564 816l-9 -45l-170 55l-164 -53l-11 45l177 83z" />
    <glyph glyph-name="Atilde" unicode="&#xc3;" horiz-adv-x="774" 
d="M463 297q-28 85 -57.5 169t-56.5 169q-29 -85 -57.5 -169t-57.5 -169h229zM763 10q0 -15 -19 -15h-12t-13 1q-25 2 -51.5 2h-52.5h-66t-67 -2q-4 -1 -8 -1h-8q-14 0 -14 14q0 12 8.5 14.5t19.5 1.5t18 -1q18 0 26.5 7.5t8.5 26.5q0 11 -7 38.5t-17 60.5t-19.5 61.5
l-13.5 40.5h-255l-9 -27t-16.5 -49t-18.5 -55t-15 -46.5t-6 -23.5q0 -19 10 -26t25 -7.5t29 -0.5q5 0 8 -6.5t3 -11.5q0 -6 -4.5 -9t-9.5 -3q-33 0 -65.5 1.5t-64.5 1.5q-16 0 -32 -1t-33 -1q-5 0 -10 4t-5 9q0 11 8 14t18.5 2.5t17.5 -0.5q13 0 21.5 10.5t12.5 20.5
q59 148 112 297.5t103 300.5q4 11 10 31t6 30q0 6 -2.5 10.5t-2.5 8.5t10 6t21 3t14 1q21 3 41.5 6t41.5 5l245 -691q8 -24 21.5 -30.5t36.5 -6.5q9 0 15 -2.5t6 -13.5zM552 859q-24 -25 -45.5 -47t-59.5 -22q-27 0 -50.5 11t-42.5 22t-35 11q-8 0 -20 -10.5t-22.5 -23
t-15.5 -19.5l-39 26q23 33 47.5 59t68.5 26q25 0 46 -10.5t40 -21t38 -10.5q15 0 31.5 17.5t25.5 27.5z" />
    <glyph glyph-name="Adieresis" unicode="&#xc4;" horiz-adv-x="774" 
d="M463 297q-28 85 -57.5 169t-56.5 169q-29 -85 -57.5 -169t-57.5 -169h229zM763 10q0 -15 -19 -15h-12t-13 1q-25 2 -51.5 2h-52.5h-66t-67 -2q-4 -1 -8 -1h-8q-14 0 -14 14q0 12 8.5 14.5t19.5 1.5t18 -1q18 0 26.5 7.5t8.5 26.5q0 11 -7 38.5t-17 60.5t-19.5 61.5
l-13.5 40.5h-255l-9 -27t-16.5 -49t-18.5 -55t-15 -46.5t-6 -23.5q0 -19 10 -26t25 -7.5t29 -0.5q5 0 8 -6.5t3 -11.5q0 -6 -4.5 -9t-9.5 -3q-33 0 -65.5 1.5t-64.5 1.5q-16 0 -32 -1t-33 -1q-5 0 -10 4t-5 9q0 11 8 14t18.5 2.5t17.5 -0.5q13 0 21.5 10.5t12.5 20.5
q59 148 112 297.5t103 300.5q4 11 10 31t6 30q0 6 -2.5 10.5t-2.5 8.5t10 6t21 3t14 1q21 3 41.5 6t41.5 5l245 -691q8 -24 21.5 -30.5t36.5 -6.5q9 0 15 -2.5t6 -13.5zM341 819q0 -25 -21 -41t-44 -16q-22 0 -43 16t-21 41q0 24 21 40.5t43 16.5q23 0 44 -16.5t21 -40.5z
M562 819q0 -25 -20.5 -41t-43.5 -16t-44 16t-21 41q0 24 21 40.5t44 16.5t43.5 -16.5t20.5 -40.5z" />
    <glyph glyph-name="Aring" unicode="&#xc5;" horiz-adv-x="774" 
d="M462 297q-28 82 -57.5 163t-55.5 163q-28 -82 -56.5 -163t-57.5 -163h227zM446 826q0 26 -17.5 42.5t-42.5 16.5q-24 0 -42.5 -16.5t-18.5 -42.5q0 -25 18.5 -40t42.5 -15t42 15t18 40zM763 10q0 -15 -19 -15h-12t-13 1q-25 2 -51.5 2h-52.5h-66t-67 -2q-4 -1 -8 -1h-8
q-14 0 -14 14q0 12 8.5 14.5t19.5 1.5t18 -1q18 0 26.5 7.5t8.5 26.5q0 11 -7.5 38.5t-18 60.5t-20 61.5l-13.5 40.5h-252q-2 -6 -9.5 -27t-17 -49t-18.5 -55t-15 -46.5t-6 -23.5q0 -19 10 -26t25 -7.5t29 -0.5q5 0 8 -6.5t3 -11.5q0 -6 -4.5 -9t-9.5 -3q-33 0 -65.5 1.5
t-64.5 1.5q-16 0 -32 -1t-33 -1q-5 0 -10 4t-5 9q0 11 8 14t18.5 2.5t17.5 -0.5q13 0 21.5 10.5t12.5 20.5q58 145 112 291.5t103 294.5q4 11 10 31t6 30q0 6 -2.5 10.5t-2.5 8.5q0 5 6 5q11 2 22 2t22 1q20 2 40 4.5t39 4.5l244 -675q8 -24 21.5 -30.5t36.5 -6.5
q9 0 15 -2.5t6 -13.5zM475 826q0 -37 -27 -59.5t-62 -22.5q-36 0 -62.5 22.5t-26.5 59.5t26.5 61.5t62.5 24.5q35 0 62 -24.5t27 -61.5z" />
    <glyph glyph-name="AE" unicode="&#xc6;" horiz-adv-x="930" 
d="M456 371v301q0 5 -5.5 8t-9.5 4q-35 -78 -71 -156t-71 -157h157zM901 178q0 -20 -3 -40t-5 -40t-3 -40.5t-5 -40.5q-2 -13 -8.5 -17t-20.5 -4q-84 0 -168.5 1.5t-168.5 1.5q-33 0 -66.5 -2.5t-66.5 -2.5q-7 0 -13 6.5t-6 13.5q0 13 9 16t22.5 3t27 2.5t22.5 12.5t9 35
l-1 245h-176q-4 -9 -18 -39.5t-32 -70t-35.5 -78t-29 -65t-11.5 -29.5q0 -13 11 -15t20 -2q10 0 19.5 1t19.5 1q7 0 13.5 -4t6.5 -12q0 -9 -6 -12.5t-14 -3.5q-31 0 -62 0.5t-62 0.5q-19 0 -38 -1t-39 -1q-16 0 -16 19q0 8 6.5 11t13.5 3q6 0 11.5 -0.5t11.5 -0.5
q14 0 20 8.5t12 18.5q5 8 9 16.5t8 16.5q72 149 142 298.5t137 300.5q-10 0 -20 -0.5t-21 -0.5t-16 7.5t-5 17.5q0 8 6 15t13 7q27 0 54.5 -1t54.5 -1h140q42 0 84 0.5t84 1.5q29 1 57.5 1.5t56.5 2.5q4 -31 9 -61t11 -60q2 -6 3 -11.5t1 -11.5q0 -25 -23 -25q-12 0 -17.5 4
t-10.5 14q-16 38 -32.5 61t-42.5 33.5t-69 10.5h-114v-292q29 0 57.5 0.5t56.5 4.5q29 4 57 12t57 8q3 0 6.5 -4t3.5 -7t-3 -14t-7 -21t-6 -13q-12 -14 -28 -14q-17 0 -35 3q-26 2 -52.5 3.5t-52.5 1.5q-20 0 -37 -8.5t-17 -31.5v-242q0 -30 14 -36t39 -6h84q32 0 51 7
t39 32q18 22 29 47t24 50q4 8 9 13.5t14 5.5q17 0 17 -14z" />
    <glyph glyph-name="Ccedilla" unicode="&#xc7;" horiz-adv-x="725" 
d="M706 163q0 -5 -4.5 -14t-7.5 -14q-13 -23 -35.5 -45.5t-44.5 -37.5q-46 -33 -96.5 -43.5t-106.5 -10.5q-12 0 -24.5 0.5t-24.5 1.5q-9 -14 -19.5 -28t-19.5 -29q11 2 21 2h20q20 0 45 -3.5t43.5 -16t18.5 -39.5q0 -28 -15 -44t-38.5 -24t-49 -10.5t-45.5 -2.5
q-22 0 -46.5 7t-44.5 17q-7 4 -22 13.5t-15 17.5q0 6 8 8.5t12 2.5q11 0 20 -4t18 -7q31 -10 68 -10q10 0 25.5 3.5t28.5 11t13 20.5q0 15 -16.5 22.5t-29.5 7.5q-24 0 -48.5 -8.5t-47.5 -16.5q14 30 27.5 60.5t26.5 61.5q-81 23 -132.5 74.5t-76 122t-24.5 149.5
q0 106 39 192t115.5 136.5t187.5 50.5q33 0 57.5 -5.5t48 -15t52.5 -20.5q21 -7 42 -10t43 -5q1 -22 3 -45t5 -45q2 -20 7 -40t5 -40q0 -18 -13.5 -27t-30.5 -9q-13 0 -23.5 5t-15.5 18q-3 8 -4 17t-3 17q-7 32 -24.5 69t-41.5 59q-18 17 -48.5 31t-56.5 14q-25 0 -46.5 -11
t-41.5 -27q-43 -36 -68 -86.5t-35 -106.5t-10 -111q0 -36 4.5 -72t14.5 -71q14 -46 40.5 -87.5t66 -67t91.5 -25.5q25 0 53.5 7t50.5 17q43 19 67.5 46t50.5 64q7 9 12.5 14t18.5 5t19.5 -9.5t6.5 -20.5z" />
    <glyph glyph-name="Egrave" unicode="&#xc8;" horiz-adv-x="674" 
d="M648 172q0 -16 -3.5 -32.5t-5.5 -33.5q-2 -19 -4.5 -39t-4.5 -40q-3 -16 -9 -21.5t-23 -5.5q-102 0 -204 1.5t-204 1.5q-35 0 -70 -3.5t-70 -3.5q-17 0 -17 17q0 14 9.5 16.5t23 2t27 3.5t23 19.5t9.5 49.5v539q0 16 -5.5 31t-25.5 15q-12 0 -24 -0.5t-24 -0.5
q-25 0 -25 24q0 12 8 15.5t18 3.5q29 0 57 -1.5t56 -1.5q94 0 188 1.5t188 1.5q18 0 36 1.5t36 3.5q2 -16 4.5 -32t4.5 -32q3 -19 8.5 -40t5.5 -41q0 -12 -10 -19.5t-21 -7.5q-24 0 -32 21q-15 47 -44.5 78.5t-82.5 31.5h-180v-294q38 0 74.5 1t73.5 4t71 12q14 3 29.5 8
t29.5 5q12 0 12 -11q0 -7 -3.5 -21t-5.5 -21q-5 -13 -10 -15.5t-18 -2.5q-24 0 -47 3q-38 4 -77 5.5t-78 1.5q-22 0 -36.5 -11.5t-14.5 -35.5v-246q0 -24 6.5 -34t31.5 -10h60t67.5 3t64.5 13t50 30q17 17 33 45t26 50q5 12 10 16.5t18 4.5q12 0 16 -6t4 -17zM480 827
l-14 -52l-272 54l20 76z" />
    <glyph glyph-name="Eacute" unicode="&#xc9;" horiz-adv-x="674" 
d="M648 172q0 -16 -3.5 -32.5t-5.5 -33.5q-2 -19 -4.5 -39t-4.5 -40q-3 -16 -9 -21.5t-23 -5.5q-102 0 -204 1.5t-204 1.5q-35 0 -70 -3.5t-70 -3.5q-17 0 -17 17q0 14 9.5 16.5t23 2t27 3.5t23 19.5t9.5 49.5v539q0 16 -5.5 31t-25.5 15q-12 0 -24 -0.5t-24 -0.5
q-25 0 -25 24q0 12 8 15.5t18 3.5q29 0 57 -1.5t56 -1.5q94 0 188 1.5t188 1.5q18 0 36 1.5t36 3.5q2 -16 4.5 -32t4.5 -32q3 -19 8.5 -40t5.5 -41q0 -12 -10 -19.5t-21 -7.5q-24 0 -32 21q-15 47 -44.5 78.5t-82.5 31.5h-180v-294q38 0 74.5 1t73.5 4t71 12q14 3 29.5 8
t29.5 5q12 0 12 -11q0 -7 -3.5 -21t-5.5 -21q-5 -13 -10 -15.5t-18 -2.5q-24 0 -47 3q-38 4 -77 5.5t-78 1.5q-22 0 -36.5 -11.5t-14.5 -35.5v-246q0 -24 6.5 -34t31.5 -10h60t67.5 3t64.5 13t50 30q17 17 33 45t26 50q5 12 10 16.5t18 4.5q12 0 16 -6t4 -17zM480 828
l-272 -54l-14 52l266 78z" />
    <glyph glyph-name="Ecircumflex" unicode="&#xca;" horiz-adv-x="674" 
d="M648 172q0 -16 -3.5 -32.5t-5.5 -33.5q-2 -19 -4.5 -39t-4.5 -40q-3 -16 -9 -21.5t-23 -5.5q-102 0 -204 1.5t-204 1.5q-35 0 -70 -3.5t-70 -3.5q-17 0 -17 17q0 14 9.5 16.5t23 2t27 3.5t23 19.5t9.5 49.5v539q0 16 -5.5 31t-25.5 15q-12 0 -24 -0.5t-24 -0.5
q-25 0 -25 24q0 12 8 15.5t18 3.5q29 0 57 -1.5t56 -1.5q94 0 188 1.5t188 1.5q18 0 36 1.5t36 3.5q2 -16 4.5 -32t4.5 -32q3 -19 8.5 -40t5.5 -41q0 -12 -10 -19.5t-21 -7.5q-24 0 -32 21q-15 47 -44.5 78.5t-82.5 31.5h-180v-294q38 0 74.5 1t73.5 4t71 12q14 3 29.5 8
t29.5 5q12 0 12 -11q0 -7 -3.5 -21t-5.5 -21q-5 -13 -10 -15.5t-18 -2.5q-24 0 -47 3q-38 4 -77 5.5t-78 1.5q-22 0 -36.5 -11.5t-14.5 -35.5v-246q0 -24 6.5 -34t31.5 -10h60t67.5 3t64.5 13t50 30q17 17 33 45t26 50q5 12 10 16.5t18 4.5q12 0 16 -6t4 -17zM513 816
l-9 -45l-169 55l-163 -53l-11 45l176 83z" />
    <glyph glyph-name="Edieresis" unicode="&#xcb;" horiz-adv-x="674" 
d="M648 172q0 -16 -3.5 -32.5t-5.5 -33.5q-2 -19 -4.5 -39t-4.5 -40q-3 -16 -9 -21.5t-23 -5.5q-102 0 -204 1.5t-204 1.5q-35 0 -70 -3.5t-70 -3.5q-17 0 -17 17q0 14 9.5 16.5t23 2t27 3.5t23 19.5t9.5 49.5v539q0 16 -5.5 31t-25.5 15q-12 0 -24 -0.5t-24 -0.5
q-25 0 -25 24q0 12 8 15.5t18 3.5q29 0 57 -1.5t56 -1.5q94 0 188 1.5t188 1.5q18 0 36 1.5t36 3.5q2 -16 4.5 -32t4.5 -32q3 -19 8.5 -40t5.5 -41q0 -12 -10 -19.5t-21 -7.5q-24 0 -32 21q-15 47 -44.5 78.5t-82.5 31.5h-180v-294q38 0 74.5 1t73.5 4t71 12q14 3 29.5 8
t29.5 5q12 0 12 -11q0 -7 -3.5 -21t-5.5 -21q-5 -13 -10 -15.5t-18 -2.5q-24 0 -47 3q-38 4 -77 5.5t-78 1.5q-22 0 -36.5 -11.5t-14.5 -35.5v-246q0 -24 6.5 -34t31.5 -10h60t67.5 3t64.5 13t50 30q17 17 33 45t26 50q5 12 10 16.5t18 4.5q12 0 16 -6t4 -17zM291 819
q0 -25 -20.5 -41t-43.5 -16q-22 0 -43 16t-21 41q0 24 21 40.5t43 16.5q23 0 43.5 -16.5t20.5 -40.5zM511 819q0 -25 -20.5 -41t-43.5 -16t-43.5 16t-20.5 41q0 24 20.5 40.5t43.5 16.5t43.5 -16.5t20.5 -40.5z" />
    <glyph glyph-name="Igrave" unicode="&#xcc;" horiz-adv-x="413" 
d="M345 713q0 -17 -16 -17q-12 0 -24.5 0.5t-24.5 0.5q-10 0 -14 -8.5t-4 -17.5q0 -35 -0.5 -70.5t-0.5 -70.5q0 -110 0.5 -220.5t0.5 -220.5q0 -7 -1 -22t2.5 -27.5t14.5 -12.5q13 0 26 1t26 1q7 0 10 -5.5t3 -12.5t-4.5 -12.5t-12.5 -5.5q-34 0 -67.5 1t-67.5 1t-68 -1
t-68 -1q-10 0 -13 4t-3 13q0 8 3.5 13.5t11.5 5.5q11 0 22 -1t21 -1q14 0 19 9t6 21.5t1 21.5l1 574q0 9 -2 26.5t-14 18.5h-5.5h-5.5q-10 0 -19.5 -1t-19.5 -1q-19 0 -19 19q0 7 4.5 12t11.5 5q43 0 85.5 -2t85.5 -2q26 0 52.5 2t52.5 2q8 0 11 -6t3 -13zM344 827l-13 -52
l-262 54l18 76z" />
    <glyph glyph-name="Iacute" unicode="&#xcd;" horiz-adv-x="413" 
d="M345 713q0 -17 -16 -17q-12 0 -24.5 0.5t-24.5 0.5q-10 0 -14 -8.5t-4 -17.5q0 -35 -0.5 -70.5t-0.5 -70.5q0 -110 0.5 -220.5t0.5 -220.5q0 -7 -1 -22t2.5 -27.5t14.5 -12.5q13 0 26 1t26 1q7 0 10 -5.5t3 -12.5t-4.5 -12.5t-12.5 -5.5q-34 0 -67.5 1t-67.5 1t-68 -1
t-68 -1q-10 0 -13 4t-3 13q0 8 3.5 13.5t11.5 5.5q11 0 22 -1t21 -1q14 0 19 9t6 21.5t1 21.5l1 574q0 9 -2 26.5t-14 18.5h-5.5h-5.5q-10 0 -19.5 -1t-19.5 -1q-19 0 -19 19q0 7 4.5 12t11.5 5q43 0 85.5 -2t85.5 -2q26 0 52.5 2t52.5 2q8 0 11 -6t3 -13zM344 828l-262 -54
l-13 52l257 78z" />
    <glyph glyph-name="Icircumflex" unicode="&#xce;" horiz-adv-x="413" 
d="M345 713q0 -17 -16 -17q-12 0 -24.5 0.5t-24.5 0.5q-10 0 -14 -8.5t-4 -17.5q0 -35 -0.5 -70.5t-0.5 -70.5q0 -110 0.5 -220.5t0.5 -220.5q0 -7 -1 -22t2.5 -27.5t14.5 -12.5q13 0 26 1t26 1q7 0 10 -5.5t3 -12.5t-4.5 -12.5t-12.5 -5.5q-34 0 -67.5 1t-67.5 1t-68 -1
t-68 -1q-10 0 -13 4t-3 13q0 8 3.5 13.5t11.5 5.5q11 0 22 -1t21 -1q14 0 19 9t6 21.5t1 21.5l1 574q0 9 -2 26.5t-14 18.5h-5.5h-5.5q-10 0 -19.5 -1t-19.5 -1q-19 0 -19 19q0 7 4.5 12t11.5 5q43 0 85.5 -2t85.5 -2q26 0 52.5 2t52.5 2q8 0 11 -6t3 -13zM378 822l-9 -46
l-164 55l-159 -53l-11 45l172 83z" />
    <glyph glyph-name="Idieresis" unicode="&#xcf;" horiz-adv-x="413" 
d="M345 713q0 -17 -16 -17q-12 0 -24.5 0.5t-24.5 0.5q-10 0 -14 -8.5t-4 -17.5q0 -35 -0.5 -70.5t-0.5 -70.5q0 -110 0.5 -220.5t0.5 -220.5q0 -7 -1 -22t2.5 -27.5t14.5 -12.5q13 0 26 1t26 1q7 0 10 -5.5t3 -12.5t-4.5 -12.5t-12.5 -5.5q-34 0 -67.5 1t-67.5 1t-68 -1
t-68 -1q-10 0 -13 4t-3 13q0 8 3.5 13.5t11.5 5.5q11 0 22 -1t21 -1q14 0 19 9t6 21.5t1 21.5l1 574q0 9 -2 26.5t-14 18.5h-5.5h-5.5q-10 0 -19.5 -1t-19.5 -1q-19 0 -19 19q0 7 4.5 12t11.5 5q43 0 85.5 -2t85.5 -2q26 0 52.5 2t52.5 2q8 0 11 -6t3 -13zM162 819
q0 -24 -20 -40.5t-43 -16.5q-22 0 -42 16.5t-20 40.5t20 40.5t42 16.5q23 0 43 -16.5t20 -40.5zM376 819q0 -24 -19.5 -40.5t-42.5 -16.5t-43 16.5t-20 40.5t20 40.5t43 16.5t42.5 -16.5t19.5 -40.5z" />
    <glyph glyph-name="Eth" unicode="&#xd0;" horiz-adv-x="821" 
d="M615 372q0 57 -12 113.5t-39 104t-72.5 76t-112.5 28.5q-31 0 -61.5 -1t-61.5 -2v-293h112v-50h-112v-269q0 -25 6.5 -36.5t34.5 -11.5q51 0 106 8t96 40q44 35 69.5 83t36 102t10.5 108zM760 386q0 -63 -17 -125t-51.5 -115t-89.5 -89q-35 -23 -80.5 -37.5t-93 -20.5
t-89.5 -6q-34 0 -68 2.5t-68 2.5q-25 0 -49.5 -0.5t-48.5 -2.5q-10 -1 -19 -1.5t-18 -0.5q-18 0 -18 16q0 10 9.5 13t21 4.5t17.5 3.5q17 8 20 25t3 33v130v130h-75v50h75v51q0 52 0.5 103.5t-2.5 102.5q0 1 -0.5 8t-0.5 8q-4 16 -24 17.5t-34 1.5q-8 0 -19 2.5t-11 14.5
q0 6 6 12.5t13 6.5q23 0 47 -1.5t47 -1.5q70 0 139 5t139 5q109 0 184.5 -42t115 -119.5t39.5 -185.5z" />
    <glyph glyph-name="Ntilde" unicode="&#xd1;" horiz-adv-x="780" 
d="M766 718q0 -19 -19 -19q-8 0 -16 1t-16 1q-4 0 -9 -0.5t-10 -0.5q-10 0 -13 -12.5t-3 -27v-20.5v-623q0 -7 -1.5 -12t-10.5 -6q-14 -2 -30 -1.5t-30 -0.5q-8 26 -22.5 50t-30.5 46q-92 134 -194.5 259t-196.5 257q0 -135 -0.5 -269.5t-0.5 -269.5q0 -9 2.5 -22.5
t14.5 -13.5q14 0 28.5 1t27.5 1q8 0 10.5 -7.5t2.5 -12.5q0 -7 -3.5 -13t-11.5 -6q-17 0 -34 2t-34 2q-23 0 -47 -0.5t-47 -2.5q-9 -1 -17.5 -1.5t-16.5 -0.5q-20 0 -20 21q0 8 6 13.5t13 5.5q10 0 19 -1.5t19 -1.5q15 0 22.5 4.5t7.5 22.5q0 138 2.5 276t2.5 276v25v25
t-4.5 26t-20.5 13q-12 0 -24.5 -1t-25.5 -1q-17 0 -17 19q0 18 18 18q26 0 52 -1t51 -1q23 0 46.5 0.5t46.5 0.5q59 -80 124.5 -154.5t125.5 -153.5q35 -47 71 -94t73 -93q0 106 0.5 212t0.5 212q0 9 -2.5 22.5t-15.5 13.5h-27q-6 0 -12 -1.5t-12 -1.5q-19 0 -19 21
q0 12 7 14.5t17 2.5q20 0 39.5 -1t38.5 -1q26 0 52.5 2t52.5 2q8 0 14 -5.5t6 -13.5zM554 862q-23 -25 -44.5 -47t-59.5 -22q-27 0 -50.5 11t-42.5 22t-35 11q-8 0 -21 -10t-24.5 -21.5t-17.5 -18.5l-33 20q23 33 47 58.5t68 25.5q25 0 46 -10t40 -20.5t38 -10.5
q15 0 33 14.5t26 25.5z" />
    <glyph glyph-name="Ograve" unicode="&#xd2;" horiz-adv-x="820" 
d="M617 363q0 38 -6 84.5t-20 92.5t-38 84.5t-59.5 62t-84.5 23.5t-85 -23.5t-60.5 -62t-39.5 -84.5t-21.5 -92.5t-6.5 -84.5t7 -83.5t22 -91t39.5 -83t60.5 -60t84 -22.5q50 0 85.5 22.5t59 59.5t37.5 82t20 91t6 85zM762 365q0 -113 -40 -197t-118.5 -130t-194.5 -46
q-114 0 -193 46.5t-120 130t-41 194.5q0 78 24.5 146.5t71 120.5t112 81t146.5 29q114 0 193 -47.5t119.5 -132t40.5 -195.5zM553 827l-14 -52l-272 54l19 76z" />
    <glyph glyph-name="Oacute" unicode="&#xd3;" horiz-adv-x="820" 
d="M617 363q0 38 -6 84.5t-20 92.5t-38 84.5t-59.5 62t-84.5 23.5t-85 -23.5t-60.5 -62t-39.5 -84.5t-21.5 -92.5t-6.5 -84.5t7 -83.5t22 -91t39.5 -83t60.5 -60t84 -22.5q50 0 85.5 22.5t59 59.5t37.5 82t20 91t6 85zM762 365q0 -113 -40 -197t-118.5 -130t-194.5 -46
q-114 0 -193 46.5t-120 130t-41 194.5q0 78 24.5 146.5t71 120.5t112 81t146.5 29q114 0 193 -47.5t119.5 -132t40.5 -195.5zM553 828l-272 -54l-14 52l267 78z" />
    <glyph glyph-name="Ocircumflex" unicode="&#xd4;" horiz-adv-x="820" 
d="M617 363q0 38 -6 84.5t-20 92.5t-38 84.5t-59.5 62t-84.5 23.5t-85 -23.5t-60.5 -62t-39.5 -84.5t-21.5 -92.5t-6.5 -84.5t7 -83.5t22 -91t39.5 -83t60.5 -60t84 -22.5q50 0 85.5 22.5t59 59.5t37.5 82t20 91t6 85zM762 365q0 -113 -40 -197t-118.5 -130t-194.5 -46
q-114 0 -193 46.5t-120 130t-41 194.5q0 78 24.5 146.5t71 120.5t112 81t146.5 29q114 0 193 -47.5t119.5 -132t40.5 -195.5zM587 816l-10 -45l-169 55l-164 -53l-11 45l177 83z" />
    <glyph glyph-name="Otilde" unicode="&#xd5;" horiz-adv-x="820" 
d="M617 363q0 38 -6 84.5t-20 92.5t-38 84.5t-59.5 62t-84.5 23.5t-85 -23.5t-60.5 -62t-39.5 -84.5t-21.5 -92.5t-6.5 -84.5t7 -83.5t22 -91t39.5 -83t60.5 -60t84 -22.5q50 0 85.5 22.5t59 59.5t37.5 82t20 91t6 85zM762 365q0 -113 -40 -197t-118.5 -130t-194.5 -46
q-114 0 -193 46.5t-120 130t-41 194.5q0 78 24.5 146.5t71 120.5t112 81t146.5 29q114 0 193 -47.5t119.5 -132t40.5 -195.5zM574 859q-23 -25 -44.5 -47t-59.5 -22q-27 0 -50.5 11t-42.5 22t-35 11q-8 0 -19.5 -10.5t-22.5 -23t-16 -19.5l-38 26q23 33 47 59t68 26
q25 0 46 -10.5t40 -21t38 -10.5q14 0 31 17.5t26 27.5z" />
    <glyph glyph-name="Odieresis" unicode="&#xd6;" horiz-adv-x="820" 
d="M617 363q0 38 -6 84.5t-20 92.5t-38 84.5t-59.5 62t-84.5 23.5t-85 -23.5t-60.5 -62t-39.5 -84.5t-21.5 -92.5t-6.5 -84.5t7 -83.5t22 -91t39.5 -83t60.5 -60t84 -22.5q50 0 85.5 22.5t59 59.5t37.5 82t20 91t6 85zM762 365q0 -113 -40 -197t-118.5 -130t-194.5 -46
q-114 0 -193 46.5t-120 130t-41 194.5q0 78 24.5 146.5t71 120.5t112 81t146.5 29q114 0 193 -47.5t119.5 -132t40.5 -195.5zM364 819q0 -25 -20.5 -41t-43.5 -16t-44 16t-21 41q0 24 21 40.5t44 16.5t43.5 -16.5t20.5 -40.5zM585 819q0 -25 -21 -41t-44 -16q-22 0 -43 16
t-21 41q0 24 21 40.5t43 16.5q23 0 44 -16.5t21 -40.5z" />
    <glyph glyph-name="multiply" unicode="&#xd7;" horiz-adv-x="750" 
d="M642 140l-41 -41l-224 221l-228 -226l-40 43l227 226l-220 217l40 42l220 -220l219 217l42 -42l-219 -216z" />
    <glyph glyph-name="Oslash" unicode="&#xd8;" horiz-adv-x="820" 
d="M610 369q0 43 -5.5 86t-17.5 85l-334 -399q24 -47 62.5 -78t93.5 -31q48 0 82.5 22.5t57.5 60t36.5 82t19 90t5.5 82.5zM568 593q-22 51 -61 86t-98 35q-41 0 -73 -20t-55 -52.5t-38 -69.5t-23 -71q-15 -66 -15 -132q0 -45 7 -91.5t21 -88.5zM756 369
q0 -112 -38.5 -194.5t-115.5 -128t-193 -45.5q-58 0 -114.5 15t-103.5 51l-72 -86l-37 25l75 91q-52 55 -72 127t-20 145q0 77 23 145t67.5 119.5t108.5 81t145 29.5q60 0 118.5 -17t105.5 -56l83 99l38 -32l-85 -101q48 -55 67.5 -126t19.5 -142z" />
    <glyph glyph-name="Ugrave" unicode="&#xd9;" horiz-adv-x="756" 
d="M743 715q0 -7 -4.5 -13.5t-12.5 -6.5q-13 0 -26 0.5t-26 0.5t-16 -12.5t-3 -22.5q0 -5 0.5 -10.5t0.5 -10.5q0 -91 0.5 -181t0.5 -180q0 -132 -65 -208.5t-202 -76.5q-135 0 -210 65t-75 205v45q0 86 0.5 172.5t0.5 173.5q0 9 -2 24.5t-14 16.5q-13 1 -26.5 0t-26.5 -1
q-7 0 -13 5.5t-6 12.5q0 8 5.5 14t13.5 6q12 0 23.5 -1t22.5 -2q23 -1 46 -1.5t45 -0.5h44.5t43.5 1q14 1 27.5 2.5t26.5 1.5q8 0 12.5 -6t4.5 -14q0 -7 -4.5 -12.5t-12.5 -5.5q-13 0 -25.5 1t-25.5 1q-10 0 -13 -8.5t-4 -16.5q-1 -16 -0.5 -32t0.5 -32q0 -90 -1.5 -179.5
t-1.5 -179.5q0 -43 3.5 -81.5t17.5 -68.5t44.5 -47t84.5 -17q72 0 115 33.5t62 88t19 118.5q0 99 -4 198t-4 198q0 15 -7 20.5t-21 5.5q-10 0 -19.5 -1t-20.5 -1q-7 0 -13 5t-6 13t5.5 14t13.5 6q16 0 31 -1.5t31 -2.5q10 -1 20 -1h20h22.5t22.5 1q16 0 31.5 2t31.5 2
q18 0 18 -18zM521 827l-14 -52l-272 54l19 76z" />
    <glyph glyph-name="Uacute" unicode="&#xda;" horiz-adv-x="756" 
d="M743 715q0 -7 -4.5 -13.5t-12.5 -6.5q-13 0 -26 0.5t-26 0.5t-16 -12.5t-3 -22.5q0 -5 0.5 -10.5t0.5 -10.5q0 -91 0.5 -181t0.5 -180q0 -132 -65 -208.5t-202 -76.5q-135 0 -210 65t-75 205v45q0 86 0.5 172.5t0.5 173.5q0 9 -2 24.5t-14 16.5q-13 1 -26.5 0t-26.5 -1
q-7 0 -13 5.5t-6 12.5q0 8 5.5 14t13.5 6q12 0 23.5 -1t22.5 -2q23 -1 46 -1.5t45 -0.5h44.5t43.5 1q14 1 27.5 2.5t26.5 1.5q8 0 12.5 -6t4.5 -14q0 -7 -4.5 -12.5t-12.5 -5.5q-13 0 -25.5 1t-25.5 1q-10 0 -13 -8.5t-4 -16.5q-1 -16 -0.5 -32t0.5 -32q0 -90 -1.5 -179.5
t-1.5 -179.5q0 -43 3.5 -81.5t17.5 -68.5t44.5 -47t84.5 -17q72 0 115 33.5t62 88t19 118.5q0 99 -4 198t-4 198q0 15 -7 20.5t-21 5.5q-10 0 -19.5 -1t-20.5 -1q-7 0 -13 5t-6 13t5.5 14t13.5 6q16 0 31 -1.5t31 -2.5q10 -1 20 -1h20h22.5t22.5 1q16 0 31.5 2t31.5 2
q18 0 18 -18zM521 828l-272 -54l-14 52l267 78z" />
    <glyph glyph-name="Ucircumflex" unicode="&#xdb;" horiz-adv-x="756" 
d="M743 715q0 -7 -4.5 -13.5t-12.5 -6.5q-13 0 -26 0.5t-26 0.5t-16 -12.5t-3 -22.5q0 -5 0.5 -10.5t0.5 -10.5q0 -91 0.5 -181t0.5 -180q0 -132 -65 -208.5t-202 -76.5q-135 0 -210 65t-75 205v45q0 86 0.5 172.5t0.5 173.5q0 9 -2 24.5t-14 16.5q-13 1 -26.5 0t-26.5 -1
q-7 0 -13 5.5t-6 12.5q0 8 5.5 14t13.5 6q12 0 23.5 -1t22.5 -2q23 -1 46 -1.5t45 -0.5h44.5t43.5 1q14 1 27.5 2.5t26.5 1.5q8 0 12.5 -6t4.5 -14q0 -7 -4.5 -12.5t-12.5 -5.5q-13 0 -25.5 1t-25.5 1q-10 0 -13 -8.5t-4 -16.5q-1 -16 -0.5 -32t0.5 -32q0 -90 -1.5 -179.5
t-1.5 -179.5q0 -43 3.5 -81.5t17.5 -68.5t44.5 -47t84.5 -17q72 0 115 33.5t62 88t19 118.5q0 99 -4 198t-4 198q0 15 -7 20.5t-21 5.5q-10 0 -19.5 -1t-20.5 -1q-7 0 -13 5t-6 13t5.5 14t13.5 6q16 0 31 -1.5t31 -2.5q10 -1 20 -1h20h22.5t22.5 1q16 0 31.5 2t31.5 2
q18 0 18 -18zM555 816l-10 -45l-169 55l-164 -53l-11 45l177 83z" />
    <glyph glyph-name="Udieresis" unicode="&#xdc;" horiz-adv-x="756" 
d="M743 715q0 -7 -4.5 -13.5t-12.5 -6.5q-13 0 -26 0.5t-26 0.5t-16 -12.5t-3 -22.5q0 -5 0.5 -10.5t0.5 -10.5q0 -91 0.5 -181t0.5 -180q0 -132 -65 -208.5t-202 -76.5q-135 0 -210 65t-75 205v45q0 86 0.5 172.5t0.5 173.5q0 9 -2 24.5t-14 16.5q-13 1 -26.5 0t-26.5 -1
q-7 0 -13 5.5t-6 12.5q0 8 5.5 14t13.5 6q12 0 23.5 -1t22.5 -2q23 -1 46 -1.5t45 -0.5h44.5t43.5 1q14 1 27.5 2.5t26.5 1.5q8 0 12.5 -6t4.5 -14q0 -7 -4.5 -12.5t-12.5 -5.5q-13 0 -25.5 1t-25.5 1q-10 0 -13 -8.5t-4 -16.5q-1 -16 -0.5 -32t0.5 -32q0 -90 -1.5 -179.5
t-1.5 -179.5q0 -43 3.5 -81.5t17.5 -68.5t44.5 -47t84.5 -17q72 0 115 33.5t62 88t19 118.5q0 99 -4 198t-4 198q0 15 -7 20.5t-21 5.5q-10 0 -19.5 -1t-20.5 -1q-7 0 -13 5t-6 13t5.5 14t13.5 6q16 0 31 -1.5t31 -2.5q10 -1 20 -1h20h22.5t22.5 1q16 0 31.5 2t31.5 2
q18 0 18 -18zM332 819q0 -25 -20.5 -41t-43.5 -16t-44 16t-21 41q0 24 21 40.5t44 16.5t43.5 -16.5t20.5 -40.5zM553 819q0 -25 -21 -41t-44 -16q-22 0 -43 16t-21 41q0 24 21 40.5t43 16.5q23 0 44 -16.5t21 -40.5z" />
    <glyph glyph-name="Yacute" unicode="&#xdd;" horiz-adv-x="693" 
d="M704 718q0 -16 -11.5 -16.5t-22.5 -0.5q-7 0 -16 -0.5t-15 -3.5q-6 -2 -13.5 -11t-10.5 -15q-52 -86 -103 -172.5t-102 -172.5q1 -64 0.5 -128.5t-0.5 -128.5q0 -13 4 -27.5t20 -14.5q14 0 27.5 1t26.5 1q8 0 12.5 -5.5t4.5 -12.5t-5.5 -11.5t-11.5 -4.5q-31 0 -62 2
t-62 2h-59.5t-58.5 -2q-12 -1 -24 -1.5t-24 -0.5q-19 0 -19 17q0 18 18 18q11 0 21 -1t20 -1q21 0 27.5 7.5t6 20.5t-0.5 28l1 183q0 31 -8.5 55.5t-20.5 51.5q-18 42 -38.5 83t-41.5 82q-17 34 -35.5 69t-39.5 66q-5 8 -15.5 14.5t-20.5 6.5q-7 0 -15 -1.5t-16 -1.5
t-14.5 5t-6.5 13q0 16 17 18q18 2 36 3l36 2q26 3 52.5 6t52.5 3q12 0 17.5 -4.5t10.5 -15.5q38 -90 77.5 -179t79.5 -178q9 14 28 47t41.5 74.5t43 83t33.5 74t13 46.5q0 9 -5.5 11.5t-13.5 2.5q-10 0 -19.5 -1.5t-19.5 -1.5q-22 0 -22 19q0 16 18 16q29 0 58 -1.5t58 -1.5
q24 0 48 1.5t48 1.5q16 0 16 -18zM490 828l-273 -54l-14 52l267 78z" />
    <glyph glyph-name="Thorn" unicode="&#xde;" horiz-adv-x="742" 
d="M530 417q0 77 -49 115t-121 38h-36q-19 0 -38 -3t-38 -7v-289q23 -15 52 -20t56 -5q83 0 128.5 44.5t45.5 126.5zM659 418q0 -70 -26 -112t-70 -63.5t-98 -28.5t-111 -7q-26 0 -52.5 3t-52.5 7v-119q0 -13 1.5 -27.5t9.5 -25t25 -10.5q8 0 16.5 0.5t16.5 0.5q9 0 18.5 -4
t9.5 -15q0 -16 -13 -20t-25 -4q-27 0 -54.5 2t-54.5 2q-34 0 -69 -2.5t-70 -2.5q-10 0 -18 5.5t-8 16.5q0 12 8.5 15.5t19.5 3.5t19 1q32 5 40 26t8 49q0 83 0.5 167t0.5 167q0 56 -0.5 112t-0.5 111q0 30 -27 30q-13 0 -25.5 0.5t-25.5 0.5q-10 0 -17.5 6t-7.5 16
q0 9 8.5 14.5t15.5 5.5h132q35 0 69.5 1.5t68.5 1.5q11 0 17 -3.5t6 -15.5q0 -10 -8 -14.5t-17 -4.5q-11 0 -22.5 -0.5t-22.5 -0.5q-10 0 -17.5 -6t-7.5 -17v-38t-1 -38q41 1 82 3.5t81 2.5q46 0 90.5 -10t80 -32.5t57 -59t21.5 -90.5z" />
    <glyph glyph-name="germandbls" unicode="&#xdf;" horiz-adv-x="615" 
d="M579 200q0 -57 -17.5 -104t-56 -74.5t-101.5 -27.5q-44 0 -77 22t-47 65q3 21 3.5 42t3.5 42q1 7 3.5 13t11.5 6q8 0 9.5 -8.5t2.5 -13.5q2 -20 10.5 -47t25 -47.5t41.5 -20.5t39 23.5t20.5 57t8 65.5t1.5 49q0 56 -21.5 101.5t-77.5 65.5q-13 5 -25 11.5t-12 23.5
q0 11 6 19t13 16q24 27 33 61t9 70q0 27 -5.5 55.5t-22 48t-50.5 19.5q-35 0 -55 -25t-29 -61.5t-11 -74t-2 -61.5v-442q0 -12 3 -25t19 -13q10 0 19.5 0.5t19.5 0.5q6 0 9 -6t3 -11q0 -7 -3 -12.5t-11 -5.5q-10 0 -20.5 1t-21.5 2q-21 2 -42.5 2h-42.5q-25 0 -50 -2t-50 -2
q-7 0 -13 3.5t-6 12.5q0 12 6 15t16 3q8 0 16 -0.5t15 -0.5q17 0 22 9t5 24v347q-15 0 -30 -1t-30 -1q-8 0 -14.5 3.5t-6.5 12.5q0 11 7 14.5t16 3.5q14 0 29 -0.5t29 -0.5q-3 33 -3 66q0 47 10.5 92t34 82t61 59t91.5 22q44 0 86 -18.5t70 -52.5t28 -82q0 -40 -14.5 -68
t-34 -46.5t-35 -30.5t-16.5 -20q4 -6 25 -13.5t50 -21t57 -38.5t47 -66.5t19 -105.5z" />
    <glyph glyph-name="agrave" unicode="&#xe0;" horiz-adv-x="544" 
d="M334 106q-3 47 -4 94.5t0 95.5q-41 -7 -79.5 -25.5t-63.5 -49.5t-25 -79q0 -20 5.5 -43t20 -38.5t39.5 -15.5q18 0 38 10.5t38.5 24.5t30.5 26zM540 47q0 -4 -3.5 -9t-6.5 -8q-31 -36 -80 -36q-43 0 -69 19t-40 59q-32 -34 -68.5 -54t-85.5 -20q-35 0 -70.5 15.5
t-59 44.5t-23.5 67t19.5 67.5t49.5 51t61 35.5q40 17 82 26.5t84 19.5v4q0 18 -0.5 48.5t-6.5 61t-20 52t-41 21.5q-31 0 -55.5 -18t-34.5 -48q-2 -9 -3 -17.5t-3 -17.5q-2 -16 -18.5 -21.5t-30.5 -5.5q-17 0 -33 7.5t-16 28.5q0 8 2.5 14.5t5.5 13.5q16 38 48 56t70.5 24
t73.5 6q82 0 135 -44t53 -130v-151q-1 -28 -0.5 -57.5t2.5 -58.5q2 -17 8 -32.5t27 -15.5q14 0 23.5 6t17.5 6q4 0 5 -4t1 -6zM413 697l-13 -53l-269 55l19 76z" />
    <glyph glyph-name="aacute" unicode="&#xe1;" horiz-adv-x="544" 
d="M334 106q-3 47 -4 94.5t0 95.5q-41 -7 -79.5 -25.5t-63.5 -49.5t-25 -79q0 -20 5.5 -43t20 -38.5t39.5 -15.5q18 0 38 10.5t38.5 24.5t30.5 26zM540 47q0 -4 -3.5 -9t-6.5 -8q-31 -36 -80 -36q-43 0 -69 19t-40 59q-32 -34 -68.5 -54t-85.5 -20q-35 0 -70.5 15.5
t-59 44.5t-23.5 67t19.5 67.5t49.5 51t61 35.5q40 17 82 26.5t84 19.5v4q0 18 -0.5 48.5t-6.5 61t-20 52t-41 21.5q-31 0 -55.5 -18t-34.5 -48q-2 -9 -3 -17.5t-3 -17.5q-2 -16 -18.5 -21.5t-30.5 -5.5q-17 0 -33 7.5t-16 28.5q0 8 2.5 14.5t5.5 13.5q16 38 48 56t70.5 24
t73.5 6q82 0 135 -44t53 -130v-151q-1 -28 -0.5 -57.5t2.5 -58.5q2 -17 8 -32.5t27 -15.5q14 0 23.5 6t17.5 6q4 0 5 -4t1 -6zM413 699l-269 -55l-13 53l263 78z" />
    <glyph glyph-name="acircumflex" unicode="&#xe2;" horiz-adv-x="544" 
d="M334 106q-3 47 -4 94.5t0 95.5q-41 -7 -79.5 -25.5t-63.5 -49.5t-25 -79q0 -20 5.5 -43t20 -38.5t39.5 -15.5q18 0 38 10.5t38.5 24.5t30.5 26zM540 47q0 -4 -3.5 -9t-6.5 -8q-31 -36 -80 -36q-43 0 -69 19t-40 59q-32 -34 -68.5 -54t-85.5 -20q-35 0 -70.5 15.5
t-59 44.5t-23.5 67t19.5 67.5t49.5 51t61 35.5q40 17 82 26.5t84 19.5v4q0 18 -0.5 48.5t-6.5 61t-20 52t-41 21.5q-31 0 -55.5 -18t-34.5 -48q-2 -9 -3 -17.5t-3 -17.5q-2 -16 -18.5 -21.5t-30.5 -5.5q-17 0 -33 7.5t-16 28.5q0 8 2.5 14.5t5.5 13.5q16 38 48 56t70.5 24
t73.5 6q82 0 135 -44t53 -130v-151q-1 -28 -0.5 -57.5t2.5 -58.5q2 -17 8 -32.5t27 -15.5q14 0 23.5 6t17.5 6q4 0 5 -4t1 -6zM446 688l-9 -46l-167 55l-162 -53l-10 46l174 82z" />
    <glyph glyph-name="atilde" unicode="&#xe3;" horiz-adv-x="544" 
d="M334 106q-3 47 -4 94.5t0 95.5q-41 -7 -79.5 -25.5t-63.5 -49.5t-25 -79q0 -20 5.5 -43t20 -38.5t39.5 -15.5q18 0 38 10.5t38.5 24.5t30.5 26zM540 47q0 -4 -3.5 -9t-6.5 -8q-31 -36 -80 -36q-43 0 -69 19t-40 59q-32 -34 -68.5 -54t-85.5 -20q-35 0 -70.5 15.5
t-59 44.5t-23.5 67t19.5 67.5t49.5 51t61 35.5q40 17 82 26.5t84 19.5v4q0 18 -0.5 48.5t-6.5 61t-20 52t-41 21.5q-31 0 -55.5 -18t-34.5 -48q-2 -9 -3 -17.5t-3 -17.5q-2 -16 -18.5 -21.5t-30.5 -5.5q-17 0 -33 7.5t-16 28.5q0 8 2.5 14.5t5.5 13.5q16 38 48 56t70.5 24
t73.5 6q82 0 135 -44t53 -130v-151q-1 -28 -0.5 -57.5t2.5 -58.5q2 -17 8 -32.5t27 -15.5q14 0 23.5 6t17.5 6q4 0 5 -4t1 -6zM432 733q-22 -25 -43.5 -47t-59.5 -22q-26 0 -49.5 11t-42.5 21.5t-34 10.5q-8 0 -19.5 -10.5t-22.5 -22.5t-16 -19l-37 26q22 32 46 58t68 26
q25 0 45.5 -10.5t39.5 -21t37 -10.5q14 0 30.5 17.5t25.5 27.5z" />
    <glyph glyph-name="adieresis" unicode="&#xe4;" horiz-adv-x="544" 
d="M334 106q-3 47 -4 94.5t0 95.5q-41 -7 -79.5 -25.5t-63.5 -49.5t-25 -79q0 -20 5.5 -43t20 -38.5t39.5 -15.5q18 0 38 10.5t38.5 24.5t30.5 26zM540 47q0 -4 -3.5 -9t-6.5 -8q-31 -36 -80 -36q-43 0 -69 19t-40 59q-32 -34 -68.5 -54t-85.5 -20q-35 0 -70.5 15.5
t-59 44.5t-23.5 67t19.5 67.5t49.5 51t61 35.5q40 17 82 26.5t84 19.5v4q0 18 -0.5 48.5t-6.5 61t-20 52t-41 21.5q-31 0 -55.5 -18t-34.5 -48q-2 -9 -3 -17.5t-3 -17.5q-2 -16 -18.5 -21.5t-30.5 -5.5q-17 0 -33 7.5t-16 28.5q0 8 2.5 14.5t5.5 13.5q16 38 48 56t70.5 24
t73.5 6q82 0 135 -44t53 -130v-151q-1 -28 -0.5 -57.5t2.5 -58.5q2 -17 8 -32.5t27 -15.5q14 0 23.5 6t17.5 6q4 0 5 -4t1 -6zM227 696q0 -24 -20.5 -40.5t-43.5 -16.5q-22 0 -43 16.5t-21 40.5t21 40.5t43 16.5q23 0 43.5 -16.5t20.5 -40.5zM445 696q0 -24 -20.5 -40.5
t-43.5 -16.5t-43.5 16.5t-20.5 40.5t20.5 40.5t43.5 16.5t43.5 -16.5t20.5 -40.5z" />
    <glyph glyph-name="aring" unicode="&#xe5;" horiz-adv-x="544" 
d="M334 106q-3 47 -4 94.5t0 95.5q-41 -7 -79.5 -25.5t-63.5 -49.5t-25 -79q0 -20 5.5 -43t20 -38.5t39.5 -15.5q18 0 38 10.5t38.5 24.5t30.5 26zM332 673q0 26 -17.5 43t-42.5 17t-43 -17t-18 -43q0 -25 18 -42.5t43 -17.5t42.5 17.5t17.5 42.5zM540 47q0 -4 -3.5 -9
t-6.5 -8q-31 -36 -80 -36q-43 0 -69 19t-40 59q-32 -34 -68.5 -54t-85.5 -20q-35 0 -70.5 15.5t-59 44.5t-23.5 67t19.5 67.5t49.5 51t61 35.5q40 17 82 26.5t84 19.5v4q0 18 -0.5 48.5t-6.5 61t-20 52t-41 21.5q-31 0 -55.5 -18t-34.5 -48q-2 -9 -3 -17.5t-3 -17.5
q-2 -16 -18.5 -21.5t-30.5 -5.5q-17 0 -33 7.5t-16 28.5q0 8 2.5 14.5t5.5 13.5q16 38 48 56t70.5 24t73.5 6q82 0 135 -44t53 -130v-151q-1 -28 -0.5 -57.5t2.5 -58.5q2 -17 8 -32.5t27 -15.5q14 0 23.5 6t17.5 6q4 0 5 -4t1 -6zM361 673q0 -37 -26 -62.5t-63 -25.5
t-63 25.5t-26 62.5t26 62.5t63 25.5t63 -25.5t26 -62.5z" />
    <glyph glyph-name="ae" unicode="&#xe6;" horiz-adv-x="869" 
d="M360 127q-8 44 -8.5 88.5t-1.5 88.5h-2q-31 0 -64.5 -10.5t-63 -30.5t-48 -48t-18.5 -63q0 -39 20.5 -67t63.5 -28q20 0 43 11.5t44.5 28t34.5 30.5zM685 364q0 24 -2 51.5t-10 52t-26.5 40.5t-50.5 16q-30 0 -52 -16t-36.5 -41t-23.5 -53t-14 -52q20 -2 40 -2.5t40 -0.5
q34 0 67.5 1.5t67.5 3.5zM824 128q0 -1 -1.5 -5t-2.5 -6q-10 -18 -31.5 -38.5t-38.5 -33.5q-34 -25 -73.5 -37t-81.5 -12q-34 0 -76.5 8t-79 26.5t-54.5 51.5q-43 -34 -87.5 -56.5t-100.5 -22.5q-40 0 -74.5 14.5t-55.5 44t-21 73.5q0 40 19 70.5t49 53t64 36.5
q41 17 85 25.5t87 17.5v9q0 30 -2.5 59.5t-15.5 56.5q-10 20 -26 38.5t-41 18.5q-40 0 -64.5 -27t-33.5 -64q-1 -4 -2 -9.5t-3 -9.5q-4 -7 -12.5 -13t-17.5 -6q-20 0 -39.5 8.5t-19.5 33.5q0 13 4 22q9 26 39 48.5t55 30.5q23 8 51.5 12.5t53.5 4.5q43 0 83.5 -15.5
t66.5 -51.5q35 33 81 51t94 18q93 0 148 -54t55 -148q0 -19 -8 -25t-25 -6q-22 0 -44 1.5t-44 2.5q-25 2 -50 2h-50q-30 0 -59.5 -0.5t-59.5 -1.5l-2 -30t-1 -30q0 -32 7 -70.5t23.5 -74t43.5 -58t67 -22.5q48 0 81.5 17t56 39.5t37 39.5t24.5 17q23 0 23 -24z" />
    <glyph glyph-name="ccedilla" unicode="&#xe7;" horiz-adv-x="540" 
d="M507 135q0 -4 -2 -8.5t-4 -8.5q-21 -39 -58 -67t-82 -42t-89 -11q-8 -14 -17.5 -28t-17.5 -28q21 3 44 3q20 0 45 -4t43 -16.5t18 -39.5t-15 -43.5t-38 -24t-48.5 -10t-45.5 -2.5q-22 0 -46 7t-44 17q-7 3 -21.5 12.5t-14.5 17.5q0 7 7.5 9.5t11.5 2.5q11 0 20 -4t18 -7
q33 -11 67 -11q10 0 25.5 3.5t28 11t12.5 20.5q0 16 -16 23.5t-29 7.5q-24 0 -48 -8.5t-46 -16.5q11 30 26.5 58.5t27.5 58.5q-90 24 -138 91t-48 160q0 78 30 142.5t87.5 103.5t139.5 39q30 0 57 -9q20 -7 36 -16t35 -18q2 0 3 -0.5t2 -0.5q12 0 21.5 9.5t17.5 9.5
q6 0 8 -4t3 -9q2 -10 1.5 -19.5t0.5 -19.5q1 -25 2.5 -49.5t1.5 -49.5q0 -12 -4 -22t-19 -10q-10 0 -15 4.5t-7 13.5q-12 36 -25.5 71t-42.5 62q-11 11 -30.5 21.5t-35.5 10.5t-31.5 -6t-28.5 -17q-30 -27 -47.5 -66.5t-24.5 -82.5t-7 -82q0 -30 6.5 -69t21.5 -76t41 -61.5
t64 -24.5q53 0 93.5 27t70.5 67q3 5 6 9.5t7 8.5q8 8 16 8t14 -5t6 -13z" />
    <glyph glyph-name="egrave" unicode="&#xe8;" horiz-adv-x="545" 
d="M378 351q0 20 -2 48t-9.5 54.5t-23.5 44.5t-44 18q-27 0 -47.5 -17.5t-34.5 -44t-22 -55t-12 -50.5q17 0 33.5 -0.5t32.5 -0.5q65 0 129 3zM522 130q0 -3 -1.5 -8.5t-3.5 -8.5q-7 -16 -26 -36.5t-34 -31.5q-67 -51 -155 -51q-79 0 -137 33.5t-89 93.5t-31 138t30.5 141.5
t88 101t138.5 37.5q93 0 149 -51t56 -146q0 -26 -24 -26q-44 0 -88 1t-88 1h-64t-64 -1q-3 -30 -3 -61q0 -28 7.5 -66t23 -74t40.5 -59.5t61 -23.5q45 0 75.5 13t54.5 37t49 57q3 4 6.5 6.5t8.5 2.5q7 0 13.5 -5.5t6.5 -13.5zM414 700l-14 -52l-269 54l19 76z" />
    <glyph glyph-name="eacute" unicode="&#xe9;" horiz-adv-x="545" 
d="M378 351q0 20 -2 48t-9.5 54.5t-23.5 44.5t-44 18q-27 0 -47.5 -17.5t-34.5 -44t-22 -55t-12 -50.5q17 0 33.5 -0.5t32.5 -0.5q65 0 129 3zM522 130q0 -3 -1.5 -8.5t-3.5 -8.5q-7 -16 -26 -36.5t-34 -31.5q-67 -51 -155 -51q-79 0 -137 33.5t-89 93.5t-31 138t30.5 141.5
t88 101t138.5 37.5q93 0 149 -51t56 -146q0 -26 -24 -26q-44 0 -88 1t-88 1h-64t-64 -1q-3 -30 -3 -61q0 -28 7.5 -66t23 -74t40.5 -59.5t61 -23.5q45 0 75.5 13t54.5 37t49 57q3 4 6.5 6.5t8.5 2.5q7 0 13.5 -5.5t6.5 -13.5zM414 706l-269 -55l-14 53l264 78z" />
    <glyph glyph-name="ecircumflex" unicode="&#xea;" horiz-adv-x="545" 
d="M378 351q0 20 -2 48t-9.5 54.5t-23.5 44.5t-44 18q-27 0 -47.5 -17.5t-34.5 -44t-22 -55t-12 -50.5q17 0 33.5 -0.5t32.5 -0.5q65 0 129 3zM522 130q0 -3 -1.5 -8.5t-3.5 -8.5q-7 -16 -26 -36.5t-34 -31.5q-67 -51 -155 -51q-79 0 -137 33.5t-89 93.5t-31 138t30.5 141.5
t88 101t138.5 37.5q93 0 149 -51t56 -146q0 -26 -24 -26q-44 0 -88 1t-88 1h-64t-64 -1q-3 -30 -3 -61q0 -28 7.5 -66t23 -74t40.5 -59.5t61 -23.5q45 0 75.5 13t54.5 37t49 57q3 4 6.5 6.5t8.5 2.5q7 0 13.5 -5.5t6.5 -13.5zM447 675l-10 -45l-166 55l-162 -53l-11 45
l175 83z" />
    <glyph glyph-name="edieresis" unicode="&#xeb;" horiz-adv-x="545" 
d="M378 351q0 20 -2 48t-9.5 54.5t-23.5 44.5t-44 18q-27 0 -47.5 -17.5t-34.5 -44t-22 -55t-12 -50.5q17 0 33.5 -0.5t32.5 -0.5q65 0 129 3zM522 130q0 -3 -1.5 -8.5t-3.5 -8.5q-7 -16 -26 -36.5t-34 -31.5q-67 -51 -155 -51q-79 0 -137 33.5t-89 93.5t-31 138t30.5 141.5
t88 101t138.5 37.5q93 0 149 -51t56 -146q0 -26 -24 -26q-44 0 -88 1t-88 1h-64t-64 -1q-3 -30 -3 -61q0 -28 7.5 -66t23 -74t40.5 -59.5t61 -23.5q45 0 75.5 13t54.5 37t49 57q3 4 6.5 6.5t8.5 2.5q7 0 13.5 -5.5t6.5 -13.5zM227 696q0 -24 -20 -40.5t-43 -16.5t-43.5 16.5
t-20.5 40.5t20.5 40.5t43.5 16.5t43 -16.5t20 -40.5zM445 696q0 -24 -20.5 -40.5t-43.5 -16.5q-22 0 -42.5 16.5t-20.5 40.5t20.5 40.5t42.5 16.5q23 0 43.5 -16.5t20.5 -40.5z" />
    <glyph glyph-name="igrave" unicode="&#xec;" horiz-adv-x="344" 
d="M314 12q0 -16 -16 -16q-29 0 -59 2.5t-60 2.5t-60.5 -2.5t-60.5 -2.5q-7 0 -10 5.5t-3 10.5q0 16 15 16q10 0 19 -1t18 -1q12 0 15.5 8t3.5 18v397q0 10 -2 22.5t-16 12.5q-13 0 -27 -2t-28 -2q-6 0 -11.5 3t-5.5 10q0 13 13 17q11 2 23.5 3.5t23.5 2.5q35 5 68.5 12.5
t67.5 15.5q3 0 6 0.5t5 0.5q15 0 15 -12q0 -120 -1 -240.5t-1 -240.5q0 -18 8 -22.5t20.5 -3.5t25.5 1q14 0 14 -15zM309 700l-13 -52l-261 54l18 76z" />
    <glyph glyph-name="iacute" unicode="&#xed;" horiz-adv-x="344" 
d="M314 12q0 -16 -16 -16q-29 0 -59 2.5t-60 2.5t-60.5 -2.5t-60.5 -2.5q-7 0 -10 5.5t-3 10.5q0 16 15 16q10 0 19 -1t18 -1q12 0 15.5 8t3.5 18v397q0 10 -2 22.5t-16 12.5q-13 0 -27 -2t-28 -2q-6 0 -11.5 3t-5.5 10q0 13 13 17q11 2 23.5 3.5t23.5 2.5q35 5 68.5 12.5
t67.5 15.5q3 0 6 0.5t5 0.5q15 0 15 -12q0 -120 -1 -240.5t-1 -240.5q0 -18 8 -22.5t20.5 -3.5t25.5 1q14 0 14 -15zM309 706l-261 -55l-13 53l256 78z" />
    <glyph glyph-name="icircumflex" unicode="&#xee;" horiz-adv-x="344" 
d="M314 12q0 -16 -16 -16q-29 0 -59 2.5t-60 2.5t-60.5 -2.5t-60.5 -2.5q-7 0 -10 5.5t-3 10.5q0 16 15 16q10 0 19 -1t18 -1q12 0 15.5 8t3.5 18v397q0 10 -2 22.5t-16 12.5q-13 0 -27 -2t-28 -2q-6 0 -11.5 3t-5.5 10q0 13 13 17q11 2 23.5 3.5t23.5 2.5q35 5 68.5 12.5
t67.5 15.5q3 0 6 0.5t5 0.5q15 0 15 -12q0 -120 -1 -240.5t-1 -240.5q0 -18 8 -22.5t20.5 -3.5t25.5 1q14 0 14 -15zM343 675l-9 -45l-164 55l-159 -53l-10 45l171 83z" />
    <glyph glyph-name="idieresis" unicode="&#xef;" horiz-adv-x="344" 
d="M314 12q0 -16 -16 -16q-29 0 -59 2.5t-60 2.5t-60.5 -2.5t-60.5 -2.5q-7 0 -10 5.5t-3 10.5q0 16 15 16q10 0 19 -1t18 -1q12 0 15.5 8t3.5 18v397q0 10 -2 22.5t-16 12.5q-13 0 -27 -2t-28 -2q-6 0 -11.5 3t-5.5 10q0 13 13 17q11 2 23.5 3.5t23.5 2.5q35 5 68.5 12.5
t67.5 15.5q3 0 6 0.5t5 0.5q15 0 15 -12q0 -120 -1 -240.5t-1 -240.5q0 -18 8 -22.5t20.5 -3.5t25.5 1q14 0 14 -15zM137 696q0 -24 -19.5 -40.5t-42.5 -16.5t-42.5 16.5t-19.5 40.5t19.5 40.5t42.5 16.5t42.5 -16.5t19.5 -40.5zM331 696q0 -24 -19.5 -40.5t-42.5 -16.5
q-22 0 -42 16.5t-20 40.5t20 40.5t42 16.5q23 0 42.5 -16.5t19.5 -40.5z" />
    <glyph glyph-name="eth" unicode="&#xf0;" horiz-adv-x="620" 
d="M436 266q0 36 -4.5 79t-19 82t-43.5 64t-77 25q-44 0 -71 -26.5t-41 -66.5t-18.5 -83t-4.5 -76q0 -36 4.5 -77.5t19 -78.5t43 -60.5t76.5 -23.5q46 0 73.5 24.5t41 62t17.5 79.5t4 76zM558 284q0 -79 -30.5 -146t-89.5 -107.5t-143 -40.5q-76 0 -133 37t-89 98.5
t-32 135.5q0 57 17.5 108.5t51 92.5t81.5 64.5t108 23.5q70 0 128 -41q-13 50 -42.5 102.5t-59.5 93.5l-100 -68l-37 44l99 71q-22 23 -47.5 40.5t-51.5 33.5q-6 3 -16 9t-10 14q0 24 23 24q25 0 53.5 -14.5t54 -35t42.5 -37.5l94 67l37 -50l-89 -62q82 -96 131.5 -212.5
t49.5 -244.5z" />
    <glyph glyph-name="ntilde" unicode="&#xf1;" horiz-adv-x="632" 
d="M609 14q0 -16 -16 -16q-29 0 -58.5 1.5t-58.5 1.5q-28 0 -57 -1.5t-58 -1.5q-7 0 -10 5.5t-3 11.5q0 15 16 15q9 0 18 -0.5t18 -0.5q15 0 15 13q0 84 0.5 168t0.5 168q0 27 -4.5 56t-20 49t-50.5 20q-22 0 -45.5 -16t-42 -38t-26.5 -41v-354q0 -9 2.5 -17t13.5 -8
q8 0 16.5 0.5t16.5 0.5q5 0 10 -4t5 -9q0 -19 -16 -19q-28 0 -55.5 2.5t-56.5 2.5q-30 0 -60.5 -2.5t-61.5 -2.5q-7 0 -10 5.5t-3 11.5q0 15 16 15q9 0 18 -0.5t19 -0.5q14 0 16 6t2 19v145v122v122q0 11 -3 24.5t-18 13.5q-10 0 -19.5 -1t-19.5 -1q-6 0 -13.5 2.5
t-7.5 10.5q0 6 4 9t9 4q10 3 21 4t21 3q26 5 51.5 11.5t50.5 13.5q4 2 8 3.5t8 1.5q8 0 14.5 -15t11 -32t5.5 -24q29 26 70 46.5t81 20.5q67 0 104.5 -17t53.5 -56.5t16 -105.5q0 -78 -1 -156t-1 -156q0 -10 6.5 -14.5t16.5 -4.5q7 0 13.5 1t13.5 1q14 0 14 -16zM479 705
q-22 -25 -43.5 -47t-60.5 -22q-26 0 -49.5 11t-42.5 22t-35 11q-8 0 -20 -10.5t-22.5 -23t-15.5 -19.5l-37 26q23 32 47 58t67 26q25 0 46 -10t40 -20.5t37 -10.5q15 0 31.5 17.5t25.5 27.5z" />
    <glyph glyph-name="ograve" unicode="&#xf2;" horiz-adv-x="620" 
d="M439 263q0 33 -4.5 75.5t-18.5 82.5t-40.5 66.5t-71.5 26.5q-41 0 -66 -26t-38.5 -65t-18.5 -80.5t-5 -71.5q0 -33 4.5 -75.5t18.5 -82.5t41 -66t72 -26q42 0 67.5 25.5t38.5 64t17 80t4 72.5zM575 258q0 -77 -35 -136.5t-95.5 -93.5t-137.5 -34t-136 36t-92.5 97
t-33.5 137q0 79 33 141.5t93 99t140 36.5q88 0 146.5 -35.5t88 -99t29.5 -148.5zM452 694l-14 -52l-270 54l19 76z" />
    <glyph glyph-name="oacute" unicode="&#xf3;" horiz-adv-x="620" 
d="M439 263q0 33 -4.5 75.5t-18.5 82.5t-40.5 66.5t-71.5 26.5q-41 0 -66 -26t-38.5 -65t-18.5 -80.5t-5 -71.5q0 -33 4.5 -75.5t18.5 -82.5t41 -66t72 -26q42 0 67.5 25.5t38.5 64t17 80t4 72.5zM575 258q0 -77 -35 -136.5t-95.5 -93.5t-137.5 -34t-136 36t-92.5 97
t-33.5 137q0 79 33 141.5t93 99t140 36.5q88 0 146.5 -35.5t88 -99t29.5 -148.5zM452 700l-270 -54l-14 52l265 79z" />
    <glyph glyph-name="ocircumflex" unicode="&#xf4;" horiz-adv-x="620" 
d="M439 263q0 33 -4.5 75.5t-18.5 82.5t-40.5 66.5t-71.5 26.5q-41 0 -66 -26t-38.5 -65t-18.5 -80.5t-5 -71.5q0 -33 4.5 -75.5t18.5 -82.5t41 -66t72 -26q42 0 67.5 25.5t38.5 64t17 80t4 72.5zM575 258q0 -77 -35 -136.5t-95.5 -93.5t-137.5 -34t-136 36t-92.5 97
t-33.5 137q0 79 33 141.5t93 99t140 36.5q88 0 146.5 -35.5t88 -99t29.5 -148.5zM485 686l-9 -46l-168 55l-162 -53l-11 46l175 82z" />
    <glyph glyph-name="otilde" unicode="&#xf5;" horiz-adv-x="620" 
d="M439 263q0 33 -4.5 75.5t-18.5 82.5t-40.5 66.5t-71.5 26.5q-41 0 -66 -26t-38.5 -65t-18.5 -80.5t-5 -71.5q0 -33 4.5 -75.5t18.5 -82.5t41 -66t72 -26q42 0 67.5 25.5t38.5 64t17 80t4 72.5zM575 258q0 -77 -35 -136.5t-95.5 -93.5t-137.5 -34t-136 36t-92.5 97
t-33.5 137q0 79 33 141.5t93 99t140 36.5q88 0 146.5 -35.5t88 -99t29.5 -148.5zM473 714q-23 -25 -44.5 -47t-59.5 -22q-26 0 -49.5 11t-42.5 21.5t-34 10.5q-8 0 -20 -10.5t-22.5 -22.5t-15.5 -19l-38 25q23 33 47 59t68 26q25 0 45.5 -10.5t39.5 -21t37 -10.5
q15 0 31 17.5t25 27.5z" />
    <glyph glyph-name="odieresis" unicode="&#xf6;" horiz-adv-x="620" 
d="M439 263q0 33 -4.5 75.5t-18.5 82.5t-40.5 66.5t-71.5 26.5q-41 0 -66 -26t-38.5 -65t-18.5 -80.5t-5 -71.5q0 -33 4.5 -75.5t18.5 -82.5t41 -66t72 -26q42 0 67.5 25.5t38.5 64t17 80t4 72.5zM575 258q0 -77 -35 -136.5t-95.5 -93.5t-137.5 -34t-136 36t-92.5 97
t-33.5 137q0 79 33 141.5t93 99t140 36.5q88 0 146.5 -35.5t88 -99t29.5 -148.5zM264 693q0 -24 -20 -40.5t-43 -16.5t-43.5 16.5t-20.5 40.5q0 25 20.5 41.5t43.5 16.5t43 -16.5t20 -41.5zM483 693q0 -24 -20.5 -40.5t-43.5 -16.5q-22 0 -42.5 16.5t-20.5 40.5
q0 25 20.5 41.5t42.5 16.5q23 0 43.5 -16.5t20.5 -41.5z" />
    <glyph glyph-name="divide" unicode="&#xf7;" horiz-adv-x="750" 
d="M435 151q0 -25 -17.5 -42.5t-42.5 -17.5t-42.5 17.5t-17.5 42.5t17.5 42.5t42.5 17.5t42.5 -17.5t17.5 -42.5zM678 334h-605v57h605v-57zM435 573q0 -25 -17.5 -42.5t-42.5 -17.5t-42.5 17.5t-17.5 42.5t17.5 42.5t42.5 17.5t42.5 -17.5t17.5 -42.5z" />
    <glyph glyph-name="oslash" unicode="&#xf8;" horiz-adv-x="620" 
d="M450 257q0 32 -2.5 63.5t-10.5 62.5l-245 -289q17 -37 48 -58.5t73 -21.5q47 0 74 24.5t41 62.5t18 79.5t4 76.5zM416 437q-17 32 -45.5 51t-65.5 19q-45 0 -72.5 -26t-42.5 -66t-20 -83t-5 -77q0 -25 2 -51t7 -51zM574 253q0 -77 -34 -138.5t-94 -97t-138 -35.5
q-45 0 -87.5 13.5t-77.5 41.5l-56 -63l-37 34l56 67q-30 37 -44.5 83t-14.5 93q0 77 32.5 143t92 106t140.5 40q40 0 80 -10t74 -33l51 59l38 -37l-49 -57q38 -43 53 -98t15 -111z" />
    <glyph glyph-name="ugrave" unicode="&#xf9;" horiz-adv-x="628" 
d="M617 37q0 -8 -10 -14q-27 -19 -50 -23t-55 -4q-31 0 -52.5 26t-26.5 54q-29 -40 -68.5 -61.5t-89.5 -21.5q-96 0 -136 44.5t-40 138.5v67q0 52 0.5 103.5t0.5 103.5q0 11 -3 24t-18 13q-6 0 -11.5 -1t-11.5 -1q-7 0 -16 2t-9 11q0 8 3.5 11t9.5 4q11 3 24 4t24 2
q55 7 113 21q6 2 11 2q14 0 14 -13q0 -86 -2 -172.5t-2 -172.5q0 -24 1.5 -50.5t9 -49.5t25.5 -37t50 -14q34 0 62 26.5t41 54.5q1 2 4 9.5t3 8.5q0 80 -0.5 159.5t-0.5 158.5q0 11 -3 24t-18 13q-6 0 -12 -1t-13 -1t-15.5 2t-8.5 11q0 8 3.5 11t9.5 4q11 3 24 4t25 2
q56 8 111 21q3 1 5.5 1.5t5.5 0.5q15 0 15 -13q0 -109 -1 -218.5t-1 -219.5q0 -10 1 -22.5t7 -22t20 -9.5q11 0 22 5.5t19 5.5q5 0 7.5 -3.5t2.5 -7.5zM456 697l-14 -53l-270 55l19 76z" />
    <glyph glyph-name="uacute" unicode="&#xfa;" horiz-adv-x="628" 
d="M617 37q0 -8 -10 -14q-27 -19 -50 -23t-55 -4q-31 0 -52.5 26t-26.5 54q-29 -40 -68.5 -61.5t-89.5 -21.5q-96 0 -136 44.5t-40 138.5v67q0 52 0.5 103.5t0.5 103.5q0 11 -3 24t-18 13q-6 0 -11.5 -1t-11.5 -1q-7 0 -16 2t-9 11q0 8 3.5 11t9.5 4q11 3 24 4t24 2
q55 7 113 21q6 2 11 2q14 0 14 -13q0 -86 -2 -172.5t-2 -172.5q0 -24 1.5 -50.5t9 -49.5t25.5 -37t50 -14q34 0 62 26.5t41 54.5q1 2 4 9.5t3 8.5q0 80 -0.5 159.5t-0.5 158.5q0 11 -3 24t-18 13q-6 0 -12 -1t-13 -1t-15.5 2t-8.5 11q0 8 3.5 11t9.5 4q11 3 24 4t25 2
q56 8 111 21q3 1 5.5 1.5t5.5 0.5q15 0 15 -13q0 -109 -1 -218.5t-1 -219.5q0 -10 1 -22.5t7 -22t20 -9.5q11 0 22 5.5t19 5.5q5 0 7.5 -3.5t2.5 -7.5zM456 699l-270 -55l-14 53l265 78z" />
    <glyph glyph-name="ucircumflex" unicode="&#xfb;" horiz-adv-x="628" 
d="M617 37q0 -8 -10 -14q-27 -19 -50 -23t-55 -4q-31 0 -52.5 26t-26.5 54q-29 -40 -68.5 -61.5t-89.5 -21.5q-96 0 -136 44.5t-40 138.5v67q0 52 0.5 103.5t0.5 103.5q0 11 -3 24t-18 13q-6 0 -11.5 -1t-11.5 -1q-7 0 -16 2t-9 11q0 8 3.5 11t9.5 4q11 3 24 4t24 2
q55 7 113 21q6 2 11 2q14 0 14 -13q0 -86 -2 -172.5t-2 -172.5q0 -24 1.5 -50.5t9 -49.5t25.5 -37t50 -14q34 0 62 26.5t41 54.5q1 2 4 9.5t3 8.5q0 80 -0.5 159.5t-0.5 158.5q0 11 -3 24t-18 13q-6 0 -12 -1t-13 -1t-15.5 2t-8.5 11q0 8 3.5 11t9.5 4q11 3 24 4t25 2
q56 8 111 21q3 1 5.5 1.5t5.5 0.5q15 0 15 -13q0 -109 -1 -218.5t-1 -219.5q0 -10 1 -22.5t7 -22t20 -9.5q11 0 22 5.5t19 5.5q5 0 7.5 -3.5t2.5 -7.5zM490 688l-10 -46l-168 55l-163 -53l-11 45l176 83z" />
    <glyph glyph-name="udieresis" unicode="&#xfc;" horiz-adv-x="628" 
d="M617 37q0 -8 -10 -14q-27 -19 -50 -23t-55 -4q-31 0 -52.5 26t-26.5 54q-29 -40 -68.5 -61.5t-89.5 -21.5q-96 0 -136 44.5t-40 138.5v67q0 52 0.5 103.5t0.5 103.5q0 11 -3 24t-18 13q-6 0 -11.5 -1t-11.5 -1q-7 0 -16 2t-9 11q0 8 3.5 11t9.5 4q11 3 24 4t24 2
q55 7 113 21q6 2 11 2q14 0 14 -13q0 -86 -2 -172.5t-2 -172.5q0 -24 1.5 -50.5t9 -49.5t25.5 -37t50 -14q34 0 62 26.5t41 54.5q1 2 4 9.5t3 8.5q0 80 -0.5 159.5t-0.5 158.5q0 11 -3 24t-18 13q-6 0 -12 -1t-13 -1t-15.5 2t-8.5 11q0 8 3.5 11t9.5 4q11 3 24 4t25 2
q56 8 111 21q3 1 5.5 1.5t5.5 0.5q15 0 15 -13q0 -109 -1 -218.5t-1 -219.5q0 -10 1 -22.5t7 -22t20 -9.5q11 0 22 5.5t19 5.5q5 0 7.5 -3.5t2.5 -7.5zM268 696q0 -24 -20.5 -40.5t-43.5 -16.5q-22 0 -43 16.5t-21 40.5t21 40.5t43 16.5q23 0 43.5 -16.5t20.5 -40.5z
M488 696q0 -24 -20.5 -40.5t-43.5 -16.5t-43.5 16.5t-20.5 40.5t20.5 40.5t43.5 16.5t43.5 -16.5t20.5 -40.5z" />
    <glyph glyph-name="yacute" unicode="&#xfd;" horiz-adv-x="594" 
d="M601 521q0 -14 -14 -14.5t-24 -0.5q-13 0 -21 -8.5t-13 -19.5q-39 -84 -79 -167t-78 -167q-25 -58 -52.5 -116.5t-56.5 -115.5q-8 -16 -16.5 -32.5t-18.5 -33.5q-18 -28 -44 -40.5t-59 -12.5q-34 0 -61 20.5t-27 57.5q0 23 17.5 37.5t39.5 14.5q11 0 19 -4
q-1 -28 9 -39.5t38 -11.5q9 0 18 4.5t16 9.5q9 7 21.5 24.5t23 37t12.5 30.5q1 5 2 11t1 11q0 29 -14 74.5t-34.5 96.5t-40.5 96.5t-32 75.5q-13 34 -27.5 68.5t-34.5 64.5q-11 17 -25.5 19t-32.5 2q-4 0 -8.5 3t-4.5 8q0 14 13 17q28 5 58.5 7.5t58.5 6.5q11 2 21.5 3
t20.5 1q14 0 19 -5.5t9 -16.5q14 -30 25.5 -61t22.5 -63q21 -59 44 -119t42 -121q8 18 23.5 54.5t34 81t35.5 88.5t28 78.5t11 48.5q0 5 -6 5.5t-9 0.5q-10 0 -20.5 -0.5t-21.5 -0.5q-8 0 -14 2t-6 12q0 12 6.5 13t14.5 1q44 0 88.5 0.5t87.5 0.5q15 0 15 -17zM439 698
l-270 -55l-14 53l265 78z" />
    <glyph glyph-name="thorn" unicode="&#xfe;" horiz-adv-x="608" 
d="M471 295q0 32 -5.5 69t-19.5 69.5t-40 53.5t-67 21q-29 0 -56.5 -16.5t-47 -42.5t-27.5 -53q-1 -3 -1 -10q0 -4 0.5 -9t0.5 -10q0 -22 -0.5 -43.5t-0.5 -43.5v-105q0 -29 15.5 -57t41 -46.5t55.5 -18.5q47 0 77 23.5t46.5 60.5t22.5 79t6 79zM594 293q0 -85 -32 -148
t-93 -97.5t-148 -34.5q-64 0 -114 39v-118q0 -22 10.5 -29t25.5 -6.5t30 0.5q7 0 16.5 -5.5t9.5 -13.5q0 -9 -9 -14t-17 -5q-30 0 -60 1.5t-60 1.5q-28 0 -55.5 -2t-55.5 -2q-8 0 -15.5 5.5t-7.5 13.5q0 17 16.5 18.5t27.5 1.5q22 0 26.5 20t4.5 36l-1 498v93.5t-2 92.5
q-1 15 -3.5 23.5t-20.5 8.5q-9 0 -18.5 -1t-18.5 -1q-7 0 -17 3t-10 13q0 8 2 11.5t10 7.5q7 3 15 4t15 2q33 3 66 9q17 4 34 7.5t34 3.5q8 0 15 -1.5t12 -9.5v-21v-49.5v-61v-55v-30.5v-12q32 29 69.5 44.5t80.5 15.5q74 0 127.5 -34.5t82 -93t28.5 -129.5z" />
    <glyph glyph-name="ydieresis" unicode="&#xff;" horiz-adv-x="594" 
d="M601 521q0 -14 -14 -14.5t-24 -0.5q-13 0 -21 -8.5t-13 -19.5q-39 -84 -79 -167t-78 -167q-25 -58 -52.5 -116.5t-56.5 -115.5q-8 -16 -16.5 -32.5t-18.5 -33.5q-18 -28 -44 -40.5t-59 -12.5q-34 0 -61 20.5t-27 57.5q0 23 17.5 37.5t39.5 14.5q11 0 19 -4
q-1 -28 9 -39.5t38 -11.5q9 0 18 4.5t16 9.5q9 7 21.5 24.5t23 37t12.5 30.5q1 5 2 11t1 11q0 29 -14 74.5t-34.5 96.5t-40.5 96.5t-32 75.5q-13 34 -27.5 68.5t-34.5 64.5q-11 17 -25.5 19t-32.5 2q-4 0 -8.5 3t-4.5 8q0 14 13 17q28 5 58.5 7.5t58.5 6.5q11 2 21.5 3
t20.5 1q14 0 19 -5.5t9 -16.5q14 -30 25.5 -61t22.5 -63q21 -59 44 -119t42 -121q8 18 23.5 54.5t34 81t35.5 88.5t28 78.5t11 48.5q0 5 -6 5.5t-9 0.5q-10 0 -20.5 -0.5t-21.5 -0.5q-8 0 -14 2t-6 12q0 12 6.5 13t14.5 1q44 0 88.5 0.5t87.5 0.5q15 0 15 -17zM251 695
q0 -24 -20.5 -40.5t-43.5 -16.5q-22 0 -43 16.5t-21 40.5t21 40.5t43 16.5q23 0 43.5 -16.5t20.5 -40.5zM471 695q0 -24 -20.5 -40.5t-43.5 -16.5t-43.5 16.5t-20.5 40.5t20.5 40.5t43.5 16.5t43.5 -16.5t20.5 -40.5z" />
    <glyph glyph-name="idotless" unicode="&#x131;" horiz-adv-x="350" 
d="M314 14q0 -7 -5 -11.5t-12 -4.5q-34 0 -67.5 1t-68.5 1q-28 0 -56 -1t-57 -1q-4 0 -9 4.5t-5 9.5q0 11 7.5 13.5t15.5 2.5h41q13 0 17 7.5t4 18.5q0 105 0.5 210t0.5 210q0 7 -1.5 13t-10.5 6q-16 0 -32 -3.5t-33 -3.5q-5 0 -9.5 4t-4.5 10q0 8 3.5 11.5t10.5 4.5
q34 8 67.5 14t66.5 14q10 2 21 5t21 3q9 0 11.5 -4t2.5 -12q0 -121 -1 -241.5t-1 -240.5q0 -11 7 -18.5t18 -7.5t20.5 0.5t19.5 0.5q7 0 12.5 -4t5.5 -11z" />
    <glyph glyph-name="Lslash" unicode="&#x141;" horiz-adv-x="720" 
d="M691 226q0 -19 -3 -38t-5 -38q-3 -32 -8.5 -64t-7.5 -64q0 -10 -4 -17q-4 -6 -15 -7.5t-18 -1.5q-42 0 -84 0.5t-83 0.5q-58 0 -115.5 -0.5t-115.5 -0.5h-46t-46 -1q-11 0 -22 -1t-22 -1q-8 0 -15 4.5t-7 14.5q0 19 21 19q8 0 16.5 -0.5t16.5 -0.5q16 0 25 4.5t9 22.5
v244l-111 -65l-28 36l139 83v174q0 37 -0.5 74t-0.5 74q0 11 -4 15t-15 4q-12 0 -23.5 -0.5t-23.5 -0.5q-7 0 -13 5t-6 12q0 20 20 20q12 0 23.5 -1t23.5 -2q32 -2 63.5 -2.5t62.5 -0.5q25 0 49 3t47 3q16 0 16 -18q0 -7 -3.5 -13t-12.5 -6q-13 0 -26 0.5t-26 0.5
q-10 0 -13 -4t-3 -15q0 -37 -0.5 -74t-0.5 -74v-93l132 78l28 -41l-159 -93v-140v-141v-36q0 -20 12.5 -27t30 -7h31.5q76 0 129.5 14.5t90 55t61.5 118.5q3 8 8 15.5t15 7.5q6 0 11 -4t5 -10z" />
    <glyph glyph-name="lslash" unicode="&#x142;" horiz-adv-x="363" 
d="M358 488l-117 -81v-32q0 -81 0.5 -162.5t0.5 -162.5q0 -23 24 -23q11 0 22 0.5t21 0.5q8 0 12.5 -5.5t4.5 -13.5q0 -6 -4 -11t-11 -5q-32 0 -64.5 2t-64.5 2q-31 0 -61 -2t-61 -2q-6 0 -10 5t-4 10q0 11 6.5 14.5t15.5 3.5h37q13 0 17 6.5t4 17.5q0 70 0.5 139.5
t1.5 139.5l-100 -72l-26 41l126 91q-1 76 -1.5 152t-0.5 152q0 6 -2.5 12.5t-10.5 6.5q-19 0 -38 -7t-38 -7q-4 0 -8 4.5t-4 8.5q0 13 7 16t17 6q12 3 38 10.5t55.5 15.5t53.5 14t32 6q13 0 13 -14v-300l91 64z" />
    <glyph glyph-name="OE" unicode="&#x152;" horiz-adv-x="940" 
d="M493 683q0 8 -15.5 13.5t-36.5 9t-40 5t-25 1.5q-16 0 -34 -5.5t-32 -12.5q-41 -19 -69.5 -57t-46 -85t-25.5 -96t-8 -91q0 -57 11 -116t36.5 -109.5t71 -81.5t114.5 -31q20 0 43 4.5t40 17.5t17 38zM916 599q0 -13 -11 -21t-22 -8q-19 0 -27 13.5t-14 34t-17 41
t-35.5 34t-70.5 13.5h-103v-297h2q26 0 51 0.5t50 3.5q26 3 51 8t50 12q3 1 9 1q13 0 13 -11q0 -3 -3 -14.5t-6.5 -22.5t-5.5 -14q-4 -8 -8 -11t-14 -3q-22 0 -43 3q-24 2 -48.5 3.5t-49.5 1.5q-21 0 -34.5 -9t-13.5 -32v-242q0 -29 10.5 -35.5t36.5 -6.5h67q35 0 50.5 10
t34.5 37q17 23 30.5 47t26.5 49q5 8 10.5 13t15.5 5q8 0 12.5 -5.5t4.5 -12.5q0 -19 -3 -39.5t-6 -40.5q-2 -21 -3.5 -44t-7.5 -44q-3 -17 -19 -17q-91 0 -181 2t-181 2q-12 0 -24 -2t-23 -4q-21 -4 -41 -6t-41 -2q-115 0 -195 47.5t-121 132.5t-41 196q0 79 24.5 148.5
t71.5 122.5t113 83t148 30q21 0 42 -2t43 -2h150q42 0 84.5 1.5t85.5 1.5q50 0 101 3q3 -31 8 -61.5t11 -61.5q2 -7 4 -14.5t2 -14.5z" />
    <glyph glyph-name="oe" unicode="&#x153;" horiz-adv-x="965" 
d="M450 255q0 37 -5 80t-20 82t-44.5 63.5t-78.5 24.5q-46 0 -74.5 -26t-43.5 -65.5t-20.5 -82.5t-5.5 -78q0 -39 5.5 -81t21 -78.5t46 -59t79.5 -22.5q47 0 75 24t42 62t18.5 80t4.5 77zM787 364q0 24 -2.5 51.5t-10.5 52t-26 40.5t-50 16q-31 0 -53 -16t-37.5 -41
t-24.5 -53t-14 -52q20 -1 40.5 -1.5t41.5 -0.5q34 0 68 1.5t68 2.5zM926 130q0 -5 -5 -14t-8 -14q-40 -50 -95.5 -78t-120.5 -28q-57 0 -109 20.5t-89 65.5q-31 -55 -82 -78.5t-112 -23.5q-77 0 -137.5 35t-94.5 96t-34 137q0 79 33.5 144.5t94 105.5t142.5 40
q56 0 106.5 -17.5t89.5 -58.5q36 44 88.5 67.5t108.5 23.5q94 0 149.5 -53.5t55.5 -148.5q0 -19 -9 -23.5t-26 -4.5q-47 0 -94 2t-94 2q-30 0 -60 -0.5t-60 -1.5q-1 -16 -2 -31t-1 -30q0 -32 7 -70.5t23.5 -74t44 -58t67.5 -22.5q42 0 81.5 16t70.5 44q10 9 18 18.5t16 19.5
q4 5 8 8.5t11 3.5t12.5 -5.5t5.5 -13.5z" />
    <glyph glyph-name="Scaron" unicode="&#x160;" horiz-adv-x="594" 
d="M564 185q0 -58 -25.5 -96t-67.5 -60t-91.5 -31.5t-97.5 -9.5q-37 0 -71 10.5t-68 23.5q-17 6 -33.5 7.5t-34.5 1.5q-3 24 -6 47.5t-7 47.5q-2 16 -5 32.5t-3 32.5q0 14 5.5 23t20.5 9q14 0 21.5 -5.5t11.5 -18.5q7 -18 11.5 -37t11.5 -38q17 -47 55 -75.5t90 -28.5
q71 0 107 41t36 110q0 40 -16 66.5t-42.5 45.5t-58.5 36q-28 16 -58 30t-59 29q-32 17 -62.5 42.5t-50 59t-19.5 72.5q0 67 34.5 108.5t89 61.5t113.5 20q73 0 143 -31q19 -7 34 -13t36 -3q3 -31 5.5 -61t5.5 -60q1 -5 1.5 -10.5t0.5 -10.5q0 -14 -6 -25.5t-23 -11.5
q-13 0 -19 5.5t-11 17.5q-12 31 -21 62t-30 57q-22 28 -55 43.5t-68 15.5t-57.5 -19.5t-33.5 -49t-11 -60.5q0 -48 25.5 -74.5t63.5 -48.5q21 -12 42.5 -22t42.5 -20q50 -24 96.5 -56t77 -76.5t30.5 -105.5zM448 869l-149 -90l-155 88l9 45l144 -63l142 66z" />
    <glyph glyph-name="scaron" unicode="&#x161;" horiz-adv-x="446" 
d="M422 147q0 -47 -20 -76.5t-53 -45.5t-71.5 -22t-76.5 -6q-25 0 -49 5t-48 11q-10 2 -21 4.5t-22 2.5q-4 14 -11.5 41.5t-14 54t-6.5 37.5t7 14t15 3q12 0 18 -9q15 -21 24 -44t28 -43q14 -15 40.5 -30.5t47.5 -15.5q45 0 67.5 21t22.5 67q0 31 -19 52t-48.5 38
t-62.5 33.5t-62.5 36.5t-48.5 48.5t-19 69.5q0 51 28 83t71.5 47t87.5 15q20 0 39 -3t38 -11q9 -3 24.5 -7.5t24.5 -4.5q13 0 25 3q2 -28 6.5 -56t5.5 -56v-3q1 -10 -5.5 -16.5t-15.5 -6.5q-10 0 -14.5 4t-8.5 12q-13 29 -25.5 55.5t-33 43.5t-58.5 17q-40 0 -59 -31
t-19 -66q0 -28 21 -48t43 -32q27 -14 62.5 -31t68.5 -39t55 -50.5t22 -65.5zM373 725l-154 -90l-146 92l9 44l140 -65l141 63z" />
    <glyph glyph-name="Ydieresis" unicode="&#x178;" horiz-adv-x="693" 
d="M705 718q0 -16 -11.5 -16.5t-22.5 -0.5q-7 0 -16 -0.5t-15 -3.5q-6 -2 -13.5 -11t-10.5 -15q-52 -86 -103 -172.5t-102 -172.5q1 -64 0.5 -128.5t-0.5 -128.5q0 -13 4 -27.5t20 -14.5q14 0 27.5 1t26.5 1q8 0 12.5 -5.5t4.5 -12.5t-5.5 -11.5t-11.5 -4.5q-31 0 -62 2
t-62 2h-59.5t-58.5 -2q-12 -1 -24 -1.5t-24 -0.5q-19 0 -19 17q0 18 18 18q11 0 21 -1t20 -1q21 0 27.5 7.5t6 20.5t-0.5 28l1 183q0 31 -8.5 55.5t-20.5 51.5q-18 42 -38.5 83t-41.5 82q-17 34 -35.5 69t-39.5 66q-5 8 -15.5 14.5t-20.5 6.5q-7 0 -15 -1.5t-16 -1.5
t-14.5 5t-6.5 13q0 16 17 18q18 2 36 3l36 2q26 3 52.5 6t52.5 3q12 0 17.5 -4.5t10.5 -15.5q38 -90 77.5 -179t79.5 -178q9 14 28 47t41.5 74.5t43 83t33.5 74t13 46.5q0 9 -5.5 11.5t-13.5 2.5q-10 0 -19.5 -1.5t-19.5 -1.5q-22 0 -22 19q0 16 18 16q29 0 58 -1.5t58 -1.5
q24 0 48 1.5t48 1.5q16 0 16 -18zM301 824q0 -24 -21 -40.5t-44 -16.5q-22 0 -43 16.5t-21 40.5q0 25 21 41t43 16q23 0 44 -16t21 -41zM521 824q0 -24 -20.5 -40.5t-43.5 -16.5t-44 16.5t-21 40.5q0 25 21 41t44 16t43.5 -16t20.5 -41z" />
    <glyph glyph-name="Zcaron" unicode="&#x17d;" horiz-adv-x="645" 
d="M621 229q0 -10 -1.5 -20.5t-2.5 -21.5q-2 -19 -5 -38t-5 -38q-3 -22 -4 -43.5t-3 -43.5q-1 -11 -5 -19.5t-18 -8.5q-10 0 -19 2t-18 3q-7 0 -13.5 0.5t-13.5 0.5q-97 0 -194.5 -1.5t-195.5 -1.5h-32t-32 -2q-4 -1 -8.5 -1.5t-9.5 -0.5q-12 0 -17.5 9t-5.5 19q0 11 4 19
t10 16.5t11 15.5q49 71 97.5 141t92.5 143q9 14 28.5 46t44 71.5t47 78.5t37 69t14.5 42q0 20 -15.5 24.5t-30.5 4.5h-41q-23 0 -47 -0.5t-47 -4.5q-34 -6 -64.5 -35t-44.5 -61q-5 -13 -9 -25t-8 -25q-6 -25 -29 -25q-9 0 -15.5 6t-6.5 14q0 16 1.5 31t2.5 30q2 29 2 58.5
t2 58.5q1 9 4 12.5t12 3.5q13 0 25 -1l24 -2q38 -3 77.5 -3.5t78.5 -0.5q78 0 156.5 2.5t157.5 2.5q5 0 10 -6t5 -11q0 -13 -3.5 -19t-10.5 -15l-378 -572q-7 -11 -12.5 -23t-5.5 -25q0 -16 13.5 -19t25.5 -3q47 0 93 3t92 7q20 2 42 9t37 21q28 26 49 67t32 77q3 10 7 17.5
t16 7.5q8 0 14 -4.5t6 -12.5zM484 859l-157 -89l-149 91l9 45l143 -66l144 63z" />
    <glyph glyph-name="zcaron" unicode="&#x17e;" horiz-adv-x="480" 
d="M477 171q0 -20 -4.5 -41t-6.5 -41q-1 -16 -3 -38t-5 -37q-1 -12 -13 -12q-62 0 -124.5 1t-124.5 1q-43 0 -87 -1.5t-88 -1.5q-7 0 -12 5t-5 12q0 3 8 14.5t19 25.5t20.5 26t12.5 17q19 29 39.5 57t39.5 57q39 60 77.5 122t72.5 125q4 6 7 12.5t3 13.5q0 14 -16 16
q-10 2 -22 2h-23q-20 0 -42 -1t-42 -4q-28 -4 -43 -17.5t-27 -37.5q-6 -13 -10.5 -26.5t-9.5 -27.5q-2 -7 -5.5 -13t-11.5 -6q-15 0 -15 18v3q1 23 2.5 45.5t2.5 44.5q1 11 1.5 22t1.5 21t11 10q7 0 14 -2.5t14 -2.5q36 0 73.5 -0.5t72.5 -0.5q41 0 82 0.5t82 1.5
q17 1 34.5 2t34.5 1q10 0 10 -13q0 -7 -4 -12q-15 -24 -32 -48l-34 -48q-30 -43 -61 -87t-59 -89q-7 -11 -24 -36.5t-36.5 -55.5t-33.5 -54.5t-14 -33.5q0 -19 7 -23t24 -4h36q36 -1 78 5t70 32q20 20 35 46t23 51q2 5 4.5 10.5t8.5 5.5q5 0 11 -2t6 -9zM391 727l-152 -88
l-144 90l7 40l139 -64l141 62z" />
    <glyph glyph-name="florin" unicode="&#x192;" horiz-adv-x="540" 
d="M533 673q0 -9 -5 -19t-16 -10q-19 0 -27 18q-3 7 -5 13.5t-5 12.5q-10 20 -28.5 39.5t-43.5 19.5q-20 0 -33 -19.5t-21 -50t-11.5 -64t-4.5 -61.5t-1 -42v-10h133v-37h-135q-1 -68 -2.5 -137t-3.5 -137q-1 -43 -3.5 -87t-14.5 -85q-22 -73 -73 -119.5t-131 -46.5
q-22 0 -46 8.5t-41 25.5t-17 43q0 29 14 40.5t42 11.5q12 0 15.5 -8t3 -18t-0.5 -17q0 -21 13.5 -37t35.5 -16q31 0 50.5 26t30.5 66t16 84.5t6.5 82.5t2.5 58q2 65 3 131t2 131h-105v37h108q2 45 11.5 94.5t31 93t58 71t92.5 27.5q24 0 46 -7t46 -6q2 -12 5 -32t5.5 -38.5
t2.5 -29.5z" />
    <glyph glyph-name="circumflex" unicode="&#x2c6;" horiz-adv-x="500" 
d="M421 687l-9 -46l-164 55l-159 -53l-10 46l171 82z" />
    <glyph glyph-name="ring" unicode="&#x2da;" horiz-adv-x="500" 
d="M300 705q0 20 -15.5 32t-34.5 12t-34.5 -12.5t-15.5 -32.5q0 -19 15.5 -31.5t34.5 -12.5t34.5 12.5t15.5 32.5zM337 704q0 -35 -26 -58.5t-61 -23.5t-61 24t-26 59q0 37 26.5 60t61.5 23t60.5 -24.5t25.5 -59.5z" />
    <glyph glyph-name="tilde" unicode="&#x2dc;" horiz-adv-x="390" 
d="M384 686q-21 -30 -47.5 -53t-65.5 -23q-30 0 -60.5 13.5t-59 27t-53.5 13.5q-22 0 -34.5 -11t-26.5 -27l-31 20q17 20 31 39t32.5 31t48.5 12t57 -13t55 -25.5t57 -12.5q23 0 38.5 6.5t28.5 25.5z" />
    <glyph glyph-name="acutecomb" unicode="&#x301;" horiz-adv-x="0" 
d="M393 724l-261 -80l-25 44l253 104z" />
    <glyph glyph-name="overlinecomb" unicode="&#x305;" horiz-adv-x="0" 
d="M500 854h-500v34h500v-34z" />
    <glyph glyph-name="brevecomb" unicode="&#x306;" horiz-adv-x="0" 
d="M403 721q0 -20 -18 -34t-43.5 -22.5t-51 -12t-40.5 -3.5t-40.5 4t-51 12.5t-43.5 22t-18 33.5q0 17 14 27.5t30 10.5q15 0 28.5 -10.5t13.5 -26.5q0 -6 -4 -12q16 -7 33 -12t35 -5q19 0 37.5 5t35.5 12l-2 6t-1 6q0 16 13 26.5t28 10.5q16 0 30.5 -10.5t14.5 -27.5z" />
    <glyph glyph-name="dotaccentcomb" unicode="&#x307;" horiz-adv-x="0" 
d="M306 719q0 -22 -16.5 -40t-39.5 -18q-22 0 -39 18t-17 40t17 39.5t39 17.5q23 0 39.5 -17.5t16.5 -39.5z" />
    <glyph glyph-name="dieresiscomb" unicode="&#x308;" horiz-adv-x="0" 
d="M205 719q0 -24 -19.5 -41t-42.5 -17q-22 0 -42 17t-20 41q0 23 20 40t42 17q23 0 42.5 -17t19.5 -40zM419 719q0 -24 -19.5 -41t-42.5 -17q-22 0 -42 17t-20 41q0 23 20 40t42 17q23 0 42.5 -17t19.5 -40z" />
    <glyph glyph-name="hungarumlautcomb" unicode="&#x30b;" horiz-adv-x="0" 
d="M280 759l-167 -130l-45 12l118 136zM443 759l-167 -130l-45 12l118 136z" />
    <glyph glyph-name="caroncomb" unicode="&#x30c;" horiz-adv-x="0" 
d="M421 733l-171 -84l-171 82l10 46l159 -53l164 55z" />
    <glyph glyph-name="ogonekcomb" unicode="&#x328;" horiz-adv-x="0" 
d="M386 -99q0 -10 -14.5 -23t-22.5 -18q-22 -14 -50.5 -23.5t-54.5 -9.5q-24 0 -54.5 3.5t-52.5 18t-22 47.5q0 12 11 32t27 42t31 41t24 29l57 -15q-12 -13 -29.5 -36t-31 -47.5t-13.5 -43.5q0 -12 10 -18t23 -8t22 -2q40 0 79 14q5 2 17 7.5t23 10.5t14 5q7 0 7 -6z" />
    <glyph glyph-name="Alpha" unicode="&#x391;" 
d="M590 300l-118 325h-1q-30 -81 -60.5 -162.5t-63.5 -162.5h243zM925 20q0 -10 -10 -17t-19 -7q-30 0 -60.5 1t-60.5 1q-41 0 -82.5 -1t-82.5 -1q-6 0 -15 7.5t-9 13.5q0 12 8.5 15.5t19.5 3.5h19q14 0 27.5 4t13.5 23q0 11 -8.5 37.5t-21 58.5t-24 60t-16.5 42h-268
q-4 -9 -12 -31t-18.5 -49.5t-20 -54.5t-16 -46.5t-6.5 -25.5q0 -12 15.5 -15.5t34 -3t25.5 0.5q8 0 17 -5.5t9 -14.5q0 -10 -10.5 -14.5t-18.5 -4.5h-210q-8 0 -17.5 4t-9.5 14q0 19 9.5 20.5t22.5 1.5q31 0 45 15t26 40q6 11 11 23t9 24q59 149 114 299t109 301
q20 4 43.5 9t42.5 5q3 0 11 -1t9 -5l231 -585q8 -20 15 -41t18 -40q14 -25 33 -32t37 -7.5t29.5 -3t11.5 -18.5z" />
    <glyph glyph-name="Beta" unicode="&#x392;" 
d="M694 210q0 74 -34 119t-113 45q-13 0 -27 0.5t-28 0.5q-31 0 -62 -1t-62 -3v-304q0 -23 15 -29t34 -6h43.5t43.5 1q54 4 97 23.5t68 57.5t25 96zM641 565q0 62 -27 92.5t-70.5 41t-95.5 10.5q-8 0 -27.5 -1t-36 -6t-16.5 -17v-275h70q40 0 80.5 5t71.5 33
q24 21 37.5 53.5t13.5 63.5zM830 224q0 -73 -37.5 -125.5t-105.5 -78.5q-46 -17 -94.5 -19.5t-96.5 -2.5q-50 0 -101 1.5t-101 1.5q-30 0 -60.5 -2t-60.5 -2q-7 0 -18 4.5t-11 14.5q0 13 13.5 16.5t29.5 3.5t24 2q22 5 27.5 16t6.5 32q2 17 2 34.5v33.5q0 125 -0.5 250
t-0.5 249q0 36 -18.5 41.5t-47.5 5.5q-9 0 -20.5 4.5t-11.5 16.5q0 6 9.5 13t14.5 7q13 0 26 -1t26 -1q27 0 54.5 -0.5t54.5 -0.5q44 0 87.5 5.5t86.5 5.5q47 0 94.5 -4.5t86.5 -20.5t62.5 -51t23.5 -95q0 -43 -22 -76.5t-56 -57t-71 -37.5q49 -8 96 -29.5t78 -59t31 -94.5z
" />
    <glyph glyph-name="Gamma" unicode="&#x393;" 
d="M818 555q0 -15 -12.5 -17.5t-23.5 -2.5q-16 0 -24.5 14t-13 32t-8.5 29q-15 49 -40.5 72.5t-79.5 23.5q-31 0 -61 1t-61 1q-29 0 -47.5 -8t-18.5 -43q0 -137 1 -274.5t1 -274.5q0 -13 4.5 -29t14.5 -27.5t27 -11.5q10 0 20 1.5t20 1.5q11 0 20 -3t9 -17q0 -16 -10 -19.5
t-23 -3.5q-37 0 -74.5 1t-75.5 1q-36 0 -72.5 -1.5t-72.5 -1.5q-10 0 -21 5t-11 17t7.5 15t18 2t17.5 -1q39 0 54 18t15 55q0 132 0.5 264t0.5 264q0 23 -7 45t-36 22q-11 0 -22.5 -0.5t-22.5 -0.5q-7 0 -16.5 6.5t-9.5 13.5q0 9 10 16.5t18 7.5q14 0 27.5 -1t26.5 -1h126
h126h90t90 2q20 1 40.5 3t41.5 2q12 0 17.5 -2.5t12.5 -12.5q1 -1 2 -18t2 -42t2 -51.5t1.5 -46t0.5 -25.5z" />
    <glyph glyph-name="Delta" unicode="&#x394;" 
d="M701 111l-217 553l-232 -553h449zM849 27h-697l299 730l95 53z" />
    <glyph glyph-name="Epsilon" unicode="&#x395;" 
d="M808 192q0 -8 -2 -33t-5 -54.5t-6.5 -52.5t-5.5 -28q-6 -11 -13 -14.5t-20 -3.5q-90 0 -179.5 1.5t-179.5 1.5q-51 0 -101.5 -3.5t-101.5 -3.5q-8 0 -20 7t-12 16q0 18 15 22t28 4q9 0 18 -0.5t18 -0.5q23 0 31 18.5t8 42.5v38q0 57 1 114.5t1 114.5v205v39t-2 38
q-1 14 -4.5 21.5t-18.5 11.5q-13 3 -27 2.5t-28 -0.5q-7 0 -19 8t-12 16t11 16t18 8q16 0 32 -1t32 -1h88h88q50 0 100 0.5t100 1.5q25 1 49.5 2.5t49.5 1.5q5 0 10.5 -1t9.5 -5q2 -1 2 -3.5v-4.5q2 -28 8 -56l12 -56q2 -7 3.5 -14t1.5 -15q0 -10 -12.5 -15.5t-20.5 -5.5
q-6 0 -13 1t-12 5q-2 2 -3 6.5t-2 6.5q-12 37 -37 63.5t-63 37.5q-24 8 -49 9t-50 1q-26 0 -52.5 -0.5t-52.5 -0.5q-19 0 -19 -19v-268q18 0 36 -0.5t36 -0.5q85 0 167 15q14 2 29 5t29 3q13 0 13 -11q0 -5 -7.5 -20t-16.5 -28t-14 -13h-14q-33 0 -65.5 3.5t-65.5 3.5
q-10 0 -31 -0.5t-43 -4t-37.5 -12t-15.5 -24.5v-240q0 -28 13 -34t37 -6h130q74 0 114 39.5t65 103.5q1 2 2 5t3 5q5 3 10.5 4t10.5 1q8 0 15.5 -2.5t7.5 -12.5z" />
    <glyph glyph-name="Zeta" unicode="&#x396;" 
d="M804 226q0 -16 -3 -31t-5 -31q-5 -35 -9.5 -70.5t-6.5 -70.5q0 -4 -0.5 -9t-2.5 -8q-4 -5 -11.5 -6.5t-14.5 -1.5q-21 0 -41.5 1.5t-41.5 1.5q-117 0 -233.5 -3t-233.5 -3q-12 0 -24.5 8t-12.5 21q0 10 5 22q11 27 36 54.5t43 50.5q40 50 78.5 101.5t74.5 103.5
q10 14 33 48t51 77t54 85.5t43 75t17 43.5t-14 14t-30 2.5t-23 -0.5q-23 0 -54.5 -0.5t-62 -3.5t-52.5 -10q-41 -13 -66.5 -48t-35.5 -76q-1 -6 -3.5 -15t-5.5 -14q-5 -7 -12 -9t-15 -2q-7 0 -17.5 4t-10.5 13q0 5 1 25.5t2 48t2.5 53.5t2.5 43.5t1 18.5q6 7 9.5 9t13.5 2
q35 0 71 -1t71 -1q92 0 184 2l184 4h7.5h6.5q11 0 19 -4.5t8 -17.5q0 -10 -4 -20t-9 -18l-413 -574q-7 -9 -19 -25t-12 -28q0 -10 11 -14.5t24 -5.5t20 -1h66q33 0 66.5 2t66.5 7q73 11 117 70q20 26 33.5 54.5t24.5 57.5q1 2 2 5t3 4q6 3 14 3h15q6 0 12 -2.5t6 -10.5z" />
    <glyph glyph-name="Eta" unicode="&#x397;" 
d="M912 23q0 -18 -13 -21t-27 -3q-28 0 -55.5 1.5t-55.5 1.5q-31 0 -62 -2t-63 -2q-10 0 -19 3.5t-9 16.5q0 21 14 21.5t28 0.5q22 0 31.5 11t12 27.5t2.5 33.5q0 61 -0.5 122t-0.5 122h-386v-261q0 -19 5 -35.5t30 -16.5q8 0 17 0.5t17 0.5q9 0 18 -5.5t9 -15.5
q0 -14 -7 -19t-20 -5q-31 0 -62 1.5t-62 1.5q-32 0 -65 -2t-65 -2q-10 0 -19 3.5t-9 16.5q0 17 9.5 20t23.5 2.5t27.5 2.5t23 18.5t9.5 52.5q0 130 -0.5 259.5t-0.5 259.5q0 13 -3.5 29t-12 28.5t-25.5 12.5q-7 0 -15 -1t-16 -1t-18.5 5t-10.5 15q0 16 8.5 20.5t21.5 4.5
q32 0 63.5 -1.5t62.5 -1.5q26 0 52.5 1t53.5 3q5 0 9.5 0.5t9.5 0.5q11 0 19.5 -3.5t8.5 -17.5q0 -21 -14 -21h-28q-27 0 -34.5 -14t-9.5 -37q-2 -16 -2.5 -33t-0.5 -34q0 -45 1 -89.5t1 -89.5h386q0 59 0.5 118.5t0.5 118.5q0 20 -5 38.5t-31 18.5q-8 0 -16.5 -1t-16.5 -1
t-18.5 5t-10.5 15q0 15 8 20t21 5q31 0 61.5 -1.5t61.5 -1.5q27 0 54 1t54 3q5 0 10 0.5t10 0.5q11 0 19.5 -3.5t8.5 -17.5q0 -20 -14.5 -20.5t-28.5 -0.5q-22 0 -32.5 -11.5t-13 -29t-2.5 -34.5q0 -134 0.5 -268t0.5 -268q0 -19 5 -35.5t30 -16.5q8 0 17 0.5t17 0.5
t17.5 -5.5t9.5 -15.5z" />
    <glyph glyph-name="Theta" unicode="&#x398;" 
d="M661 405q0 -13 -2 -28t-9.5 -25t-25.5 -10q-4 0 -8 1l-8 2q-26 6 -53 7.5t-53 1.5q-31 0 -63 -0.5t-59 -17.5q-8 -4 -16 -9t-18 -5q-16 0 -16 17q0 8 5.5 27t14 36t17.5 17q11 0 22 -2t21 -4q33 -4 66 -5t66 -1q19 0 37.5 2.5t34.5 13.5q8 5 14.5 11.5t16.5 6.5
q5 0 10.5 -5.5t5.5 -10.5v-20zM737 379q0 56 -12.5 114.5t-40.5 109t-73.5 81.5t-112.5 31q-64 0 -110 -33t-75.5 -85t-43 -111.5t-13.5 -113.5q0 -56 13 -114t41.5 -107.5t75 -80t112.5 -30.5q68 0 113.5 31.5t73.5 82t40 110t12 115.5zM875 381q0 -119 -44 -205
t-128 -131.5t-205 -45.5q-116 0 -200 44.5t-128.5 128t-44.5 200.5q0 83 26.5 153t76 122t118 81t152.5 29q118 0 202.5 -45t129.5 -129t45 -202z" />
    <glyph glyph-name="Iota" unicode="&#x399;" 
d="M674 27q0 -23 -25 -23q-38 0 -77 1.5t-77 1.5q-28 0 -56 -0.5t-57 -3.5q-6 0 -11.5 -0.5t-11.5 -0.5q-10 0 -18 5t-8 17q0 18 17 18q5 0 10 -0.5t9 -0.5q19 0 35 6q26 10 30.5 25.5t4.5 39.5q0 131 -0.5 262t-0.5 262q0 13 -3 28.5t-11.5 27t-25.5 11.5q-9 0 -18.5 -1.5
t-18.5 -1.5q-10 0 -19.5 3t-9.5 16q0 14 6.5 18.5t19.5 4.5q39 0 78 -1.5t78 -1.5q27 0 54 1t54 3q7 0 13 0.5t13 0.5q10 0 17.5 -3.5t7.5 -15.5q0 -17 -11 -19t-24 -2q-39 0 -56 -15t-17 -55q0 -131 0.5 -262t0.5 -262q0 -13 3.5 -28.5t12.5 -27t26 -11.5q10 0 19 1.5
t19 1.5q8 0 18 -4.5t10 -14.5z" />
    <glyph glyph-name="Kappa" unicode="&#x39a;" 
d="M892 22q0 -4 -0.5 -7t-3.5 -6t-19.5 -5t-38.5 -3t-41 -1h-25q-22 0 -50.5 1t-47.5 11q-7 4 -21 20.5t-30.5 38.5t-30.5 41t-20 28l-166 227l-35 -27q0 -60 -0.5 -119.5t-0.5 -118.5q0 -19 5 -37.5t30 -18.5q8 0 17 0.5t17 0.5q9 0 20 -4.5t11 -15.5q0 -14 -8.5 -19
t-21.5 -5q-31 0 -62 1.5t-62 1.5q-37 0 -73 -3t-73 -3q-23 0 -23 24q0 14 10.5 16.5t25.5 2.5t30 3.5t25.5 19.5t10.5 52q0 131 -0.5 261.5t-0.5 260.5q0 13 -1 28t-8 26.5t-25 11.5q-11 0 -22.5 -0.5t-22.5 -0.5q-9 0 -15 6.5t-6 15.5q0 23 26 23q32 0 65 -1.5t65 -1.5
q35 0 69.5 2.5t68.5 2.5q10 0 18 -4t8 -15q0 -17 -10 -21.5t-24 -3.5t-26 1q-18 0 -26.5 -12.5t-10.5 -29.5t-2 -31q0 -58 0.5 -115.5t-0.5 -115.5q87 80 168.5 160t154.5 172q6 8 12 9.5t15 1.5h47.5h47.5q8 0 18 -2.5t10 -13.5q0 -9 -4 -14q-1 -1 -13.5 -4t-26 -6
t-18.5 -5q-10 -5 -19 -12.5t-17 -15.5l-253 -235q63 -77 124.5 -155.5t127.5 -153.5q14 -17 29 -33.5t33 -30.5q13 -10 27 -16t30 -9q10 -1 24 -3.5t14 -16.5z" />
    <glyph glyph-name="Lambda" unicode="&#x39b;" 
d="M926 23q0 -9 -10 -16.5t-18 -7.5q-31 0 -61 1t-61 1q-41 0 -82.5 -1t-82.5 -1q-5 0 -14 7.5t-9 13.5q0 13 8.5 16.5t19.5 3.5h19q14 0 27.5 3.5t13.5 22.5q0 12 -9 38.5t-21.5 57.5t-24 59t-16.5 43l-132 364h-1q-6 -16 -20 -53t-33 -87t-40.5 -106t-41.5 -111
t-36.5 -101t-26.5 -76.5t-10 -37.5q0 -12 15.5 -15t34 -2.5t25.5 0.5q8 0 17 -6t9 -14q0 -10 -10.5 -14.5t-18.5 -4.5q-27 1 -55 2.5t-55 1.5q-26 0 -53 -1.5t-53 -2.5q-7 0 -14 6.5t-7 13.5q0 14 10 16t25.5 3.5t33.5 12.5t34 43q6 11 11 23t9 24q59 149 114.5 299
t108.5 301q12 2 29.5 5l35 6t26.5 3q3 0 8.5 -1t6.5 -5l231 -585q8 -20 15 -41.5t18 -39.5q15 -25 34 -32.5t36.5 -7.5t29 -2.5t11.5 -18.5z" />
    <glyph glyph-name="Mu" unicode="&#x39c;" 
d="M984 723q0 -10 -11 -15t-20 -5q-13 0 -27 1t-28 1q-17 0 -21 -16q0 -2 -0.5 -19t-0.5 -34.5v-23.5v-262q0 -64 0.5 -127.5t0.5 -127.5q0 -18 5 -34t28 -16q10 0 20 0.5t20 0.5q8 0 19 -5t11 -15q0 -15 -8 -20t-22 -5q-33 0 -66 1.5t-66 1.5q-37 0 -73 -2t-73 -2
q-10 0 -16 6.5t-6 16.5q0 14 10.5 17t25.5 3t30 4t25.5 19.5t10.5 51.5v513q-53 -130 -106.5 -259t-103.5 -260q-7 -20 -14.5 -40t-16.5 -40q-21 -8 -40 -8q-6 0 -12 1t-11 5q-5 6 -12 25t-11 28q-56 137 -118 272.5t-121 272.5q0 -130 -0.5 -260t-0.5 -260q0 -30 7 -43
t23 -16t43 -3q9 0 19.5 -5t10.5 -16q0 -15 -10 -18.5t-22 -3.5q-17 0 -34.5 0.5t-34.5 0.5q-33 0 -66.5 -2.5t-66.5 -2.5q-10 0 -21 5t-11 18q0 12 8.5 16t19.5 4h19q35 0 42.5 19.5t7.5 48.5q0 142 1.5 284.5t1.5 284.5q0 17 -7.5 20.5t-22.5 3.5h-25h-25q-10 0 -17 5
t-7 15q0 8 9 16t16 8q33 0 66.5 -1.5t66.5 -1.5q47 0 93 3l240 -549h1q56 136 112 272.5t108 273.5q58 0 115 1.5t115 1.5q24 0 24 -24z" />
    <glyph glyph-name="Nu" unicode="&#x39d;" 
d="M915 724q0 -13 -11 -17t-22 -4q-6 0 -12.5 0.5t-12.5 0.5q-28 0 -36.5 -22t-8.5 -45v-624q0 -4 -5 -9t-8 -5h-52q-11 23 -26.5 43t-30.5 40q-103 140 -210.5 276.5t-217.5 271.5v-528q0 -19 5 -39t30 -20q9 0 18.5 0.5t18.5 0.5t20 -5t11 -16q0 -17 -12 -20t-25 -3
q-17 0 -35 1t-35 1q-33 0 -66 -2.5t-66 -2.5q-10 0 -21 5.5t-11 18.5q0 12 8 16t18.5 3.5t17.5 -0.5q35 0 46.5 18.5t11.5 49.5q0 140 1.5 279t1.5 278q0 15 -6.5 26t-23.5 11q-13 0 -25 -1t-25 -1q-9 0 -20 5t-11 16q0 8 7 16t15 8q23 0 47 -1.5t47 -1.5q29 0 58 2t57 2
l427 -521v416q0 13 -3 27.5t-11.5 25t-24.5 10.5q-8 0 -17 -1t-17 -1t-19 5t-11 15q0 18 12 21t25 3q23 0 46.5 -0.5t46.5 -0.5q28 0 56 2t56 2q11 0 20.5 -7t9.5 -18z" />
    <glyph glyph-name="Xi" unicode="&#x39e;" 
d="M845 164q0 -6 -1 -28t-2 -48t-2.5 -46t-3.5 -22q-6 -7 -10 -8.5t-12 -1.5q-45 0 -89.5 1.5t-88.5 2.5q-34 1 -68 1h-68h-67.5t-67.5 -1q-45 -1 -89.5 -2.5t-88.5 -1.5q-9 0 -13 1.5t-9 8.5q-1 2 -3 22t-3.5 46.5t-2.5 48.5t-1 28q0 20 20 20q13 0 18 -9t10 -23t15 -29
t32 -27t63 -18q46 -6 93.5 -7t93.5 -1q47 0 94.5 1t93.5 7q40 5 62 17.5t32 27.5t15 29t10.5 23t18.5 9q19 0 19 -21zM693 448q0 -19 -2.5 -38t-7.5 -38q-4 -16 -9.5 -24t-23.5 -8q-8 0 -16 2t-16 3q-34 6 -67.5 7.5t-67.5 1.5q-20 0 -45 0.5t-49 -3t-41 -15.5
q-8 -5 -18 -14t-20 -9q-8 0 -11.5 2.5t-3.5 10.5q0 6 3 22t9 34t13 31t14 13q11 0 21.5 -2t21.5 -4q43 -4 86 -5t86 -1q17 0 42 1.5t40 8.5q8 4 15.5 13.5t15 18t15.5 8.5q16 0 16 -16zM845 586q0 -21 -19 -21q-12 0 -20 13t-14 28.5t-12 22.5q-16 22 -41 30.5t-51 11.5
q-47 5 -94 6.5t-94 1.5t-93.5 -1t-93.5 -7q-25 -3 -50.5 -11.5t-42.5 -30.5q-6 -8 -12 -23.5t-13.5 -28t-19.5 -12.5q-20 0 -20 20q0 6 1 28t2.5 48t3.5 46t3 22q5 7 9 8.5t13 1.5q44 0 88.5 -1.5t89.5 -2.5q34 -1 67.5 -1h67.5h68t68 1q44 1 88.5 2.5t89.5 1.5q8 0 12 -1.5
t10 -8.5q1 -2 2.5 -21.5t3 -45.5t2.5 -48t1 -28z" />
    <glyph glyph-name="Omicron" unicode="&#x39f;" 
d="M738 373q0 56 -12.5 115t-40 109t-73.5 81t-113 31q-64 0 -110.5 -32.5t-75.5 -84.5t-43 -111.5t-14 -113.5q0 -57 13 -115t41.5 -107t75 -79t113.5 -30t113 31t73.5 81.5t40 109.5t12.5 115zM877 375q0 -120 -44.5 -205.5t-128.5 -131.5t-205 -46q-117 0 -200.5 45
t-128.5 129t-45 201q0 111 46.5 197.5t131 136.5t196.5 50q118 0 202.5 -45t130 -129t45.5 -202z" />
    <glyph glyph-name="Pi" unicode="&#x3a0;" 
d="M906 729q0 -17 -10 -21.5t-24.5 -4.5t-29 -3.5t-24.5 -18.5t-10 -50v-535q0 -19 6 -35t30 -16q8 0 17 0.5t17 0.5t17.5 -5.5t9.5 -15.5q0 -18 -13 -21t-27 -3q-28 0 -55.5 1.5t-55.5 1.5q-32 0 -64 -2t-64 -2q-10 0 -17.5 3.5t-7.5 16.5q0 21 14 21.5t28 0.5
q22 0 31.5 11.5t12 29t2.5 33.5v271v270q0 17 -5 31.5t-25 14.5h-329q-14 0 -20 -11t-7.5 -25.5t-1.5 -24.5q0 -136 0.5 -272.5t0.5 -272.5q0 -19 5 -35.5t30 -16.5q8 0 17 0.5t17 0.5t17.5 -5.5t9.5 -15.5q0 -14 -7 -19t-20 -5q-31 0 -62 1.5t-62 1.5q-32 0 -65 -2t-65 -2
q-10 0 -19 3.5t-9 16.5q0 5 9 13.5t14 8.5q44 0 57 16.5t13 57.5q0 130 -0.5 259.5t-0.5 259.5q0 12 -2.5 28.5t-10.5 29t-25 12.5q-7 0 -15 -1t-16 -1t-18 5t-10 15q0 19 13 22t27 3q28 0 55.5 -2t55.5 -2h508q28 0 55.5 1.5t55.5 3.5q5 0 9.5 0.5t8.5 0.5q9 0 21.5 -4.5
t12.5 -16.5z" />
    <glyph glyph-name="Rho" unicode="&#x3a1;" 
d="M686 558q0 51 -25 84t-65 49.5t-87 16.5q-9 0 -18 0.5t-18 0.5q-7 0 -26 -1t-35.5 -5.5t-16.5 -16.5v-278q25 -14 53.5 -18.5t56.5 -4.5q81 0 131 45t50 128zM821 559q0 -71 -28 -114t-74.5 -65t-103 -29t-113.5 -7q-27 0 -53.5 3t-52.5 7q0 -64 0.5 -127.5t0.5 -126.5
q0 -19 5 -36t29 -17q8 0 17 0.5t17 0.5t20 -4.5t12 -15.5q0 -16 -10 -20.5t-23 -4.5q-31 0 -61 1.5t-61 1.5q-34 0 -69 -2t-70 -2q-10 0 -19.5 6t-9.5 17q0 15 10 17.5t25.5 2t30.5 3.5t25 19.5t10 52.5q0 115 0.5 230t0.5 230q0 23 -0.5 46t-0.5 46q0 15 -4.5 22t-21.5 7
q-12 0 -24.5 0.5t-24.5 0.5q-11 0 -24.5 2.5t-13.5 17.5q0 8 9 16.5t17 8.5q38 0 76 -2t76 -2q56 0 112 2t112 2q46 0 91.5 -9t83 -30t60 -57.5t22.5 -91.5z" />
    <glyph glyph-name="Sigma" unicode="&#x3a3;" 
d="M826 209q0 -4 -3 -23t-8 -45t-10.5 -52t-9.5 -46t-6 -26q-2 -8 -5 -12.5t-13 -4.5q-27 0 -53.5 1.5t-53.5 1.5q-58 1 -117 0.5t-118 -0.5h-229q-8 0 -16 6.5t-8 15.5q0 10 8 20.5t14 17.5q81 93 159 189q24 29 48 59t44 62q-7 10 -29 38.5t-51.5 67.5t-61 81t-58.5 78.5
t-44 60.5t-17 26q0 19 17 19q70 0 140 -0.5t140 -0.5q39 0 78 0.5t78 1.5q26 1 52.5 2.5t51.5 1.5q10 0 14 -6q2 -1 2 -5v-6q3 -28 8.5 -56t11.5 -55q2 -6 3.5 -12t1.5 -13q0 -26 -26 -26q-16 0 -19.5 5.5t-8.5 18.5q-15 41 -39.5 66.5t-68.5 35.5q-26 6 -53 7t-53 1
q-38 0 -75.5 -1t-75.5 -1q-3 0 -6.5 -1t-3.5 -5q0 -5 3 -9t5 -7q35 -45 68 -91.5t66 -92.5l45 -62q5 -6 9.5 -12t8.5 -13q2 -4 2 -7q0 -4 -2.5 -7.5t-5.5 -6.5l-246 -266q-4 -4 -8 -10t-4 -11q0 -8 9 -12t20 -4.5t16 -0.5q71 0 142 -0.5t141 -0.5q47 0 86.5 26t64.5 64
q6 9 11 18.5t10 19.5q4 7 6.5 9.5t10.5 2.5q5 0 8 -5t3 -9z" />
    <glyph glyph-name="Tau" unicode="&#x3a4;" 
d="M861 555q0 -11 -10.5 -13t-18.5 -2q-9 0 -16 1.5t-13 8.5q-2 3 -5 17.5t-6 30t-5 20.5q-11 42 -34.5 59.5t-55 21t-68.5 3.5q-28 0 -43.5 -3t-22 -16t-6.5 -44q0 -133 1.5 -267t1.5 -268q0 -21 10.5 -43.5t35.5 -22.5q10 0 19.5 1t19.5 1q9 0 19.5 -4.5t10.5 -15.5
q0 -16 -9 -19.5t-22 -3.5q-38 0 -76 1t-76 1q-37 0 -73.5 -1.5t-73.5 -1.5q-11 0 -20 4t-9 17q0 18 15.5 17.5t27.5 -0.5q39 0 54 17.5t15 54.5v546q0 9 -1 22.5t-8 20.5q-5 6 -22 7.5t-34.5 1.5h-26.5q-14 0 -37 -1t-37 -6q-28 -10 -38.5 -37t-15.5 -53q-1 -4 -3.5 -17
t-5.5 -25t-5 -15q-5 -6 -12.5 -8.5t-15.5 -2.5q-6 0 -16 4.5t-10 11.5t0.5 27.5t1.5 47t3 52t4 43t4 18.5q5 3 9.5 3.5t9.5 0.5q20 0 40.5 -1.5t41.5 -2.5q35 -1 71 -1.5t71 -0.5q84 0 167.5 0.5t167.5 3.5q27 1 54.5 2.5t55.5 1.5q8 0 12 -9q1 -1 2 -18.5t2 -43t2 -51.5
t1.5 -46t0.5 -26z" />
    <glyph glyph-name="Upsilon" unicode="&#x3a5;" 
d="M885 728q0 -17 -13.5 -19.5t-26.5 -2.5q-10 0 -21 -1t-21 -6q-8 -4 -15 -11t-12 -15q-12 -15 -22 -31t-21 -33q-22 -33 -44.5 -66t-45.5 -66q-12 -17 -30.5 -45.5t-33 -58.5t-14.5 -50q0 -53 -1 -106t-1 -106q0 -14 2 -29.5t10 -26.5t27 -11q10 0 19.5 1t19.5 1
q8 0 20 -5t12 -15q0 -19 -11.5 -22.5t-26.5 -3.5q-33 0 -66 1.5t-66 1.5q-35 0 -70 -2.5t-70 -2.5q-10 0 -21.5 5t-11.5 18q0 9 10.5 14.5t17.5 5.5q36 0 52.5 10t21 30.5t4.5 51.5v57.5t-1 56.5q-1 42 -10.5 75t-27.5 71q-31 67 -69 131t-79 126q-6 10 -13 19.5t-16 17.5
q-10 11 -20 16t-24 5q-8 0 -16.5 -1.5t-16.5 -1.5q-6 0 -12.5 6t-6.5 12q0 7 4 11q4 5 27.5 8.5t53.5 7t55.5 5t34.5 1.5q15 0 24.5 -6.5t18.5 -18.5q56 -78 98.5 -165.5t84.5 -173.5q8 14 28.5 46.5t45.5 74t48.5 82t39 70.5t15.5 40q0 4 -3 4q-14 0 -28.5 -0.5t-28.5 -0.5
q-7 0 -16.5 5.5t-9.5 12.5q0 9 10 14.5t17 5.5h103q29 0 58.5 1t58.5 1q8 0 15 -6t7 -14z" />
    <glyph glyph-name="Phi" unicode="&#x3a6;" 
d="M446 590q-97 -14 -154.5 -73.5t-57.5 -160.5t57.5 -158.5t154.5 -69.5v462zM766 361q0 96 -54.5 156t-147.5 76v-135v-162t1 -162q95 14 148 72t53 155zM903 362q0 -72 -29.5 -121.5t-78.5 -81t-109 -47t-121 -20.5v-31q0 -19 6 -35t30 -16q8 0 17 1.5t17 1.5t17 -4.5
t9 -13.5q0 -23 -23 -23q-39 0 -78 1.5t-78 1.5q-43 0 -85 -3q-4 -1 -8 -1h-9q-11 0 -19.5 3.5t-8.5 16.5q0 18 11.5 17.5t21.5 -0.5q35 0 49 17t14 49v18q-63 1 -125 16t-113 46.5t-81.5 83t-30.5 124.5q0 71 31 122t82.5 83.5t113 49t122.5 17.5v29q0 20 -5 35.5t-30 15.5
q-8 0 -17 -1.5t-17 -1.5q-7 0 -17 4.5t-10 13.5q0 24 24 24q46 0 91 -1t91 -1q20 0 39.5 1.5t38.5 1.5q11 0 19.5 -3t8.5 -16q0 -18 -13.5 -19t-25.5 -1q-41 0 -50.5 -21t-9.5 -56v-5q59 -5 118.5 -22.5t109.5 -49.5t80.5 -81t30.5 -118z" />
    <glyph glyph-name="Chi" unicode="&#x3a7;" 
d="M904 21q0 -9 -11 -14t-18 -5q-43 0 -86 0.5t-86 0.5q-7 0 -13.5 0.5t-13.5 1.5q-16 3 -20 9t-11 19q-37 71 -83 137t-90 133q-6 -9 -25 -35.5t-43.5 -61t-47.5 -68t-38 -57t-15 -27.5q0 -11 15.5 -15t34 -4h25.5q6 0 15.5 -5.5t9.5 -12.5t-10.5 -11.5t-15.5 -4.5
q-30 0 -60 1.5t-60 1.5q-37 0 -73 -1.5t-73 -1.5q-7 0 -18 5t-11 14q0 12 9.5 15t18.5 3q7 0 13.5 -0.5t13.5 -0.5q38 0 68 24q19 15 33 35t28 39q43 54 85.5 107.5t82.5 109.5q-42 64 -83.5 128t-83.5 128l-16 24t-24 35.5t-17 20.5q-12 10 -23 10q-13 0 -25 -1t-25 -1
q-8 0 -18 6.5t-10 15.5q0 7 5 12q2 2 19.5 4.5t43 5.5t51.5 5.5t46 4t26 1.5q16 0 29 -7q3 -1 15.5 -21t31 -50.5t39.5 -66t40.5 -68.5t34 -57.5t19.5 -33.5q31 47 62.5 94t58.5 96q3 5 10.5 19.5t14 28.5t6.5 18q0 11 -9 11q-12 0 -23.5 -1t-23.5 -1q-6 0 -17 5.5t-11 12.5
q0 8 9.5 13t15.5 5q13 0 26 -1t26 -1q47 0 93.5 2t92.5 2q19 0 19 -21q0 -13 -8.5 -17t-19.5 -4q-6 0 -12 0.5t-12 0.5q-10 0 -19 -1t-18 -6t-31.5 -32.5t-52 -67t-59 -81t-53 -74.5t-33.5 -47q31 -46 63 -91.5t64 -90.5q26 -37 53.5 -75.5t60.5 -70.5q23 -24 41.5 -28.5
t50.5 -4.5q11 0 20.5 -2.5t9.5 -15.5z" />
    <glyph glyph-name="Psi" unicode="&#x3a8;" 
d="M929 705q0 -8 -6.5 -13.5t-14.5 -5.5q-13 0 -26 5.5t-27 5.5q-10 0 -9 -8t1 -14v-210q0 -51 -28.5 -94t-70.5 -69q-42 -27 -91 -36t-98 -14v-156q0 -13 3.5 -28.5t12.5 -26.5t26 -11q7 0 14 0.5t14 0.5q8 0 17 -4.5t9 -13.5q0 -21 -22 -21q-33 0 -66 1.5t-66 1.5
q-25 0 -49.5 -1t-49.5 -3q-6 -1 -12.5 -1h-12.5q-13 0 -19.5 4t-6.5 18q0 17 10.5 16.5t22.5 -0.5q34 0 48 19.5t14 50.5v153q-50 4 -104 13t-97 38q-41 27 -64.5 70.5t-25.5 92.5q-2 55 -2 109.5v109.5q0 13 -12 13q-13 0 -25.5 -5t-26.5 -5q-7 0 -14 5t-7 13t4 12
q32 14 65.5 24t67.5 10q43 0 56 -14.5t13 -56.5v-141v-30.5t1 -30.5q5 -83 45.5 -129.5t125.5 -52.5v345q0 13 -1.5 27t-8.5 24t-25 10q-7 0 -13 -1t-13 -1q-8 0 -17.5 4.5t-9.5 14.5q0 23 24 23q29 0 58 -1.5t58 -1.5q30 0 60 3t60 3q9 0 19 -4.5t10 -15.5q0 -14 -9 -18
t-22 -4.5t-26 -3t-22 -11.5t-9 -32v-359q79 11 122 55t43 126v89q0 32 -1 63.5t-1 62.5q0 35 24 46.5t53 11.5q27 0 53 -7t51 -17q5 -1 10 -3.5l9 -4.5q7 -5 7 -14z" />
    <glyph glyph-name="Omega" unicode="&#x3a9;" 
d="M901 111q0 -1 -0.5 -1.5t-0.5 -1.5q-4 -17 -9 -34.5t-13 -34.5q-13 -25 -26 -31t-41 -6h-259v167q92 30 137 101.5t45 165.5q0 53 -15 102t-44.5 88t-73 62t-101.5 23q-79 0 -132 -39t-80 -102t-27 -136q0 -94 45 -160t138 -90v-182h-265q-21 0 -33 5.5t-23 24.5
q-1 2 -5 14t-9 26.5t-8.5 26.5t-3.5 13q0 7 11.5 12t16.5 5q16 0 25 -9.5t16 -22.5t16 -22.5t25 -9.5h158v81q-68 20 -120 63.5t-81 104t-29 132.5q0 70 32 131q33 62 84 102.5t114 60.5t131 20q73 0 139 -19t118 -58t82 -98t30 -139q0 -111 -62 -191t-169 -109v-80l56 -1
q25 0 50.5 0.5t50.5 0.5q16 0 25.5 9.5t17 22.5t16.5 22.5t24 9.5q10 0 18.5 -3t8.5 -16z" />
    <glyph glyph-name="alpha" unicode="&#x3b1;" 
d="M563 272q0 20 -1 40.5t-4 39.5q-2 13 -4.5 35.5t-7.5 46t-16 39.5t-29 16q-13 0 -23 -4.5t-21 -12.5q-42 -31 -69.5 -79.5t-40.5 -103t-13 -106.5q0 -14 4 -34t12 -40t21 -33t31 -13q21 0 46 17.5t48.5 44t40 53.5t21.5 46q3 12 4 24t1 24zM801 93q0 -5 -1.5 -8t-4.5 -8
q-25 -29 -55 -44.5t-69 -15.5q-30 0 -49 15.5t-29.5 39.5t-16.5 49h-1q-39 -49 -84.5 -76t-110.5 -27q-80 0 -120.5 48.5t-40.5 124.5q0 62 20.5 121t59 106t92 75t119.5 28q61 0 91 -36t40 -92q11 33 21 66t20 67l96 -27q-16 -51 -39 -99q-11 -24 -23 -47.5t-24 -46.5
q-10 -19 -20 -37t-17 -38q-3 -7 -3 -18q0 -9 4 -32.5t10.5 -50.5t16 -46t19.5 -19q16 0 29.5 11t25 22.5t22.5 11.5q6 0 14 -5.5t8 -11.5z" />
    <glyph glyph-name="beta" unicode="&#x3b2;" 
d="M631 222q0 51 -23 92t-71 63q-14 6 -29.5 10t-30.5 5q-7 1 -14 1t-13 3q-3 1 -3.5 4t-0.5 5q0 6 8.5 16.5t15.5 10.5q6 0 12 -1t13 -2q8 5 17.5 8.5t18.5 8.5q27 16 45 44.5t27 62t9 62.5q0 23 -8 48t-25 43t-44 18q-36 0 -61 -24t-40 -58.5t-21 -64.5
q-22 -106 -35.5 -213.5t-29.5 -214.5q16 -20 40 -45t52 -42.5t55 -17.5q45 0 75.5 28.5t45.5 69.5t15 80zM747 207q0 -41 -16.5 -80t-46.5 -68q-42 -40 -85.5 -49.5t-98.5 -9.5q-44 0 -88.5 20.5t-77.5 48.5q-13 -67 -29 -133t-30 -133q-57 3 -116 3q17 70 32 140.5
t29 140.5q11 53 21.5 105.5t19.5 105.5q11 65 21 130t24 129q15 67 41 110.5t70.5 65.5t116.5 22q48 0 93 -16.5t73.5 -50.5t28.5 -89q0 -42 -21.5 -76.5t-55 -59.5t-70.5 -40q-4 -1 -16 -5.5t-12 -9.5q0 -4 10 -7t13 -4q46 -14 84.5 -38.5t62 -61.5t23.5 -90z" />
    <glyph glyph-name="gamma" unicode="&#x3b3;" 
d="M811 579q0 -13 -12.5 -18t-21.5 -9q-70 -27 -125.5 -83.5t-98.5 -115.5q-9 -12 -17.5 -24.5t-15.5 -26.5q-13 -28 -17.5 -59t-9.5 -61q-10 -54 -24 -108t-34 -104q-6 -15 -20 -37.5t-32 -39.5t-37 -17q-34 0 -46 9.5t-12 45.5q0 45 15.5 94t37 97t39.5 88q9 20 20 45
t11 46q0 10 -1 20t-1 20q0 16 -1.5 44t-6 60t-13.5 61.5t-24 48t-37 18.5q-14 0 -32.5 -10t-35 -23t-26.5 -23q-4 -4 -7.5 -8.5t-8.5 -8.5q-10 -6 -22 -6q-10 0 -20.5 14t-10.5 24q0 22 17.5 38t44 26.5t52.5 16t43 5.5q61 0 97.5 -26t54.5 -70t23 -98h1q14 21 39 52.5
t55.5 63t62 52.5t58.5 21q7 0 23 -2t33.5 -6t30 -10.5t12.5 -15.5z" />
    <glyph glyph-name="delta" unicode="&#x3b4;" 
d="M643 304q0 28 -8 59t-24 58t-41 44t-58 17q-48 0 -85 -26t-63 -67t-39.5 -87.5t-13.5 -87.5q0 -28 9 -59.5t26.5 -59.5t42.5 -46t57 -18q51 0 88 26t61.5 67.5t36 89t11.5 90.5zM762 298q0 -62 -23 -120q-37 -94 -113 -139t-175 -45q-78 0 -135.5 23t-88.5 73.5
t-31 133.5q0 64 25.5 113t68.5 85t97 58.5t110 32.5q-17 11 -39.5 27t-44 35.5t-36 41.5t-14.5 44q0 31 16 50.5t41 30.5t53 15t52 4q52 0 103.5 -10.5t93.5 -42.5q8 -6 15.5 -14t7.5 -19q0 -5 -2 -16.5t-4.5 -22t-5.5 -14.5q-5 -7 -13 -9t-16 -2q-7 0 -13 1t-12 5
q-4 4 -7.5 9t-7.5 9q-17 20 -42 41t-53 35.5t-55 14.5q-19 0 -34 -18t-15 -36q0 -29 20 -54t47.5 -44.5t48.5 -33.5q51 -31 92 -61.5t65 -72t24 -108.5z" />
    <glyph glyph-name="epsilon" unicode="&#x3b5;" 
d="M688 84q0 -13 -12.5 -22t-23.5 -15q-43 -24 -87 -34.5t-94 -10.5q-27 0 -62 5.5t-68.5 18.5t-55.5 36t-22 58q0 44 24.5 74.5t61 51t71.5 33.5q-23 10 -47.5 24t-40.5 35t-16 50q0 13 4 25t11 22q19 29 48 43.5t62 20t64 5.5q12 0 36.5 -3t51 -10t45.5 -18t19 -27
q0 -12 -16.5 -22t-27.5 -10q-13 0 -23 7q-4 2 -6.5 6t-5.5 8q-12 14 -28 24.5t-36 10.5q-40 0 -64.5 -25t-24.5 -65q0 -39 22.5 -63.5t62.5 -24.5q11 0 29 5.5t36 5.5q13 0 13 -14q0 -23 -15.5 -25t-32.5 -2q-43 0 -80.5 -10t-60.5 -37t-23 -78q0 -49 34.5 -71.5t78.5 -22.5
q35 0 66.5 15t58.5 29.5t46 14.5q7 0 17.5 -5t10.5 -13z" />
    <glyph glyph-name="zeta" unicode="&#x3b6;" 
d="M745 -21q0 -34 -19 -53.5t-48 -28.5t-60 -11.5t-56 -2.5q-9 0 -30 0.5t-40.5 2.5t-26.5 6q-6 6 -6 15q0 11 9 13.5t17 2.5q20 0 40.5 -2.5t41.5 -2.5q16 0 34 4.5t31.5 16t13.5 30.5q0 25 -26 36t-69 14t-94.5 4t-103 6t-94.5 20t-69 45.5t-26 83.5q0 40 18.5 84.5
t44.5 86.5t50 72q47 58 99.5 109.5t111.5 95.5q-31 -5 -61 -7t-61 -2q-33 0 -63.5 5.5t-50 25t-19.5 60.5q0 11 9 27t23 33t28.5 28t25.5 11q3 0 6 0.5t6 0.5q5 0 7 -3.5t2 -7.5q0 -13 -4 -24.5t-4 -23.5q0 -51 31.5 -72t77.5 -21q20 0 40.5 0.5t38.5 7.5q21 7 37 20.5
t32 28.5t33.5 25.5t41.5 10.5q12 0 30 -5t32 -14.5t14 -24.5q0 -13 -11 -24q-6 -6 -26.5 -16t-41.5 -20t-32 -16q-56 -29 -107.5 -67.5t-93.5 -86.5q-30 -34 -59.5 -77.5t-49.5 -91t-20 -94.5q0 -41 16.5 -65t45.5 -36t65 -18q52 -8 104.5 -6.5t103.5 -9.5q25 -5 50.5 -17
t43 -31.5t17.5 -49.5z" />
    <glyph glyph-name="eta" unicode="&#x3b7;" 
d="M734 369q0 -68 -14 -134.5t-27 -133.5q-10 -57 -20.5 -114.5t-20.5 -115.5h-115q16 88 32.5 176t32.5 176q7 39 13 78t6 79q0 22 -7.5 44t-23.5 36.5t-41 14.5q-27 0 -51.5 -20t-44.5 -50.5t-34 -61.5t-20 -53q-7 -28 -12 -57.5t-10 -58.5q-7 -43 -16 -86.5t-17 -87.5
l-110 6q17 77 34 153.5t31 152.5q6 32 10.5 64t4.5 64q0 11 -3 22t-18 11q-19 0 -32.5 -13.5l-27 -27t-34.5 -13.5q-9 0 -21 7t-12 17t8 18q27 25 62.5 37t71.5 12q32 0 59.5 -13.5t37.5 -46.5q37 33 80.5 48t92.5 15q73 0 114.5 -33.5t41.5 -110.5z" />
    <glyph glyph-name="theta" unicode="&#x3b8;" 
d="M322 355q-3 -45 -3 -90q0 -31 6 -69t21 -73t41.5 -57.5t66.5 -22.5t71 22t55 57.5t41 77.5t28 83t16 72h-343zM670 479q0 29 -6.5 68.5t-21.5 77.5t-40.5 63t-63.5 25q-37 0 -67.5 -22t-54.5 -57t-42 -76.5t-30 -81t-18 -68.5h341q3 36 3 71zM796 443q0 -82 -20.5 -161
t-64 -142t-110.5 -100.5t-160 -37.5q-68 0 -115 24t-75.5 65.5t-41.5 96t-13 114.5q0 79 21 158t64 144.5t109 105.5t156 40q68 0 115.5 -25t77 -68.5t43.5 -98.5t14 -115z" />
    <glyph glyph-name="iota" unicode="&#x3b9;" 
d="M682 100q0 -9 -3 -13.5t-9 -11.5q-34 -37 -80.5 -60t-97.5 -23q-33 0 -67.5 11t-57.5 35t-23 63q0 25 3.5 49.5t7.5 48.5q15 80 34 160t34 160l120 -5q-14 -58 -28.5 -115t-28.5 -114q-10 -41 -20.5 -83t-10.5 -85q0 -14 4.5 -32t15 -31t28.5 -13q26 0 56 19.5t49 36.5
q5 4 9 8t9 7q13 8 28 8q8 0 18 -5.5t10 -14.5z" />
    <glyph glyph-name="kappa" unicode="&#x3ba;" 
d="M752 96q0 -4 -1 -7t-3 -6q-25 -42 -53.5 -64.5t-79.5 -22.5q-28 0 -51 7.5t-42 29.5q-8 10 -16 30t-15 44.5t-12 47t-8 35.5q-3 15 -8.5 37t-13.5 34q-6 9 -15 9q-13 0 -22.5 -8.5t-16.5 -17.5q-7 -61 -15.5 -121t-16.5 -120l-111 -2q20 128 39 255l38 254l109 2
q-10 -49 -17.5 -97.5t-15.5 -98.5q14 12 41.5 34.5t61.5 48t68.5 49t63.5 38.5t45 15q8 0 22 -5.5t25.5 -14t11.5 -18.5q0 -12 -17 -18t-26 -9q-63 -21 -120.5 -57.5t-111.5 -74.5q31 -1 49.5 -10t32.5 -38q17 -35 22.5 -75t15.5 -78q3 -10 7.5 -24t12.5 -24.5t21 -10.5
q19 0 30 11t19.5 25t18.5 25t25 11q7 0 18 -6t11 -14z" />
    <glyph glyph-name="lambda" unicode="&#x3bb;" 
d="M789 123q0 -12 -5 -19.5t-12 -15.5q-18 -20 -44 -41.5t-55 -36.5t-57 -15q-49 0 -75.5 22.5t-37.5 58t-14 75.5t-5 76q-1 32 -3 62.5t-4 61.5q-102 -174 -207 -348q-23 0 -46 -2.5t-46 -2.5q-5 0 -11 3.5t-6 9.5t3.5 11.5t7.5 9.5q36 45 65 95t58 99q32 54 66 107.5
t65 108.5q11 18 21.5 36.5t16.5 38.5q2 5 3 11t1 12q0 12 -4.5 38.5t-13 55.5t-21 49.5t-27.5 20.5q-25 0 -48 -14.5t-40 -31.5q-4 -4 -7 -6q-4 -1 -9.5 -2.5t-10.5 -1.5q-4 0 -12 4.5t-8 8.5q0 17 17 34t42 31.5t49.5 23t39.5 8.5q51 0 82 -15.5t50 -65.5q16 -42 19 -95.5
t5 -97.5q3 -73 9 -145t10 -144q1 -10 1 -19.5t1 -19.5q2 -16 6.5 -39.5t12.5 -37.5q5 -9 13 -15.5t19 -6.5q17 0 34 12.5t33 29.5t31 29.5t27 12.5q8 0 14.5 -5t6.5 -13z" />
    <glyph glyph-name="mu" unicode="&#x3bc;" 
d="M789 101q0 -21 -15 -39.5t-38.5 -33t-47.5 -23t-42 -8.5q-33 0 -53.5 17.5t-29.5 48.5q-28 -31 -62.5 -47.5t-77.5 -16.5q-48 0 -76.5 25.5t-42.5 69.5h-1q-3 -14 -9 -46t-13.5 -69t-14.5 -66t-12 -37q-10 -15 -26 -24t-35 -9q-13 0 -27.5 10.5t-14.5 24.5q0 19 10 51.5
t25 72t32 79.5t31.5 75t22.5 57q10 29 16 59l12 60q8 41 14.5 83t10.5 84h118q-14 -69 -29 -137.5t-29 -137.5q-4 -22 -7 -43.5t-3 -43.5q0 -15 6.5 -37.5t20 -40t32.5 -17.5q26 0 47.5 16.5t38 42t27.5 53t16 49.5q5 24 8.5 49t7.5 49l34 199h121q-20 -90 -39.5 -180
t-34.5 -182q-3 -17 -5 -34.5t-2 -35.5q0 -10 3.5 -15t14.5 -5q19 0 37.5 13.5t29.5 27.5q6 8 12 16.5t18 8.5q5 0 13 -4t8 -9z" />
    <glyph glyph-name="nu" unicode="&#x3bd;" 
d="M750 463q0 -55 -14 -115t-40 -115.5t-63 -98.5q-56 -64 -139 -99.5t-168 -38.5q3 51 5 102.5t3 102.5q2 39 3 78t1 77q0 11 -0.5 30.5t-4.5 40t-12.5 35t-23.5 14.5q-19 0 -36.5 -9t-37.5 -9q-5 0 -10.5 2.5t-5.5 8.5q0 5 1 6t4 3q27 18 57 34t64 16q38 0 59 -17.5
t31 -45.5t12.5 -60t2.5 -60q0 -73 -2.5 -146t-6.5 -146q6 3 12.5 6t12.5 6q96 56 139.5 137.5t56.5 188.5q1 3 1 6.5v6.5q0 21 -6 38.5t-25 28.5q-4 2 -8.5 4t-9.5 2q-2 2 -2 7q0 10 9 21t21.5 20t20.5 11q14 3 27 3q34 0 53 -21.5t19 -54.5z" />
    <glyph glyph-name="xi" unicode="&#x3be;" 
d="M802 40q0 -45 -27 -77t-67 -51t-79 -26q-21 -3 -43 -4t-44 -1q-5 0 -17 1t-22.5 5t-10.5 11q0 9 15 11.5t32 3t23 0.5q27 2 56.5 11.5t50.5 29.5t21 52q0 14 -13 22.5t-25 8.5q-15 0 -30 -2.5t-29 -5.5q-40 -7 -80.5 -13t-81.5 -6q-49 0 -96.5 7.5t-86.5 41.5
q-19 17 -31 40.5t-12 49.5q0 46 28 85t71.5 70t90 53.5t83.5 35.5q-16 7 -36 9.5t-39 7t-31 16.5t-12 36q0 26 15 51t38 48t47.5 42.5t43.5 33.5q-21 -2 -42 -3.5t-42 -1.5q-15 0 -34.5 1t-38.5 6t-31.5 16t-12.5 32q0 17 5 32q6 16 26.5 31.5t37.5 15.5q5 0 12.5 -2.5
t7.5 -10.5q0 -12 -7.5 -22.5t-7.5 -22.5q0 -31 21 -38.5t46 -7.5q28 0 56 2t54 12t44 23t38.5 22.5t51.5 9.5q14 0 32.5 -11t18.5 -28q0 -16 -13 -26q-4 -4 -11 -6.5t-12 -4.5q-20 -7 -53 -19.5t-70 -29t-70 -37t-54 -43t-21 -47.5q0 -23 17.5 -36t41.5 -19t41 -8
q12 5 30.5 10.5t37 9.5t30.5 4q9 0 24 -6.5t26.5 -16.5t11.5 -20q0 -13 -11 -19.5t-22 -8.5q-12 -3 -24 -4l-24 -2q-31 -4 -62 -9t-62 -13q-27 -7 -59.5 -21.5t-62 -35t-48 -48t-18.5 -60.5q0 -29 13.5 -45t35.5 -23t46 -11q17 -3 33 -4t32 -1q60 0 119.5 8.5t119.5 8.5
q25 0 48 -4t38 -18.5t15 -46.5z" />
    <glyph glyph-name="omicron" unicode="&#x3bf;" 
d="M659 288q0 32 -8.5 65.5t-26.5 62.5t-45 47t-65 18q-45 0 -77.5 -25t-53.5 -64t-31.5 -82t-10.5 -80q0 -32 8 -66.5t25 -64t44.5 -47.5t65.5 -18q47 0 80 24.5t54 63.5t31 83t10 83zM787 287q0 -92 -40 -157.5t-109.5 -100t-158.5 -34.5q-75 0 -135 25t-95 77t-35 133
q0 92 39 157t108.5 99.5t158.5 34.5q74 0 134.5 -25.5t96.5 -77.5t36 -131z" />
    <glyph glyph-name="pi" unicode="&#x3c0;" 
d="M841 153q0 -7 -2.5 -13t-7.5 -12q-40 -52 -98.5 -88t-126.5 -36q-61 0 -95.5 21.5t-34.5 89.5q0 14 2 27l4 26q13 74 26.5 147t27.5 146q-22 0 -44.5 0.5t-45.5 0.5q-8 -38 -16 -76.5t-16 -76.5q-14 -68 -30 -119.5t-49 -92.5t-97 -78q-19 -11 -42.5 -20.5t-46.5 -9.5
q-6 0 -12 3t-6 10q0 5 3 8q10 4 21 10t20 12q45 35 73.5 86t45 110t26 118.5t18.5 112.5q-26 -1 -53 -5.5t-50 -18.5q-16 -10 -31 -22t-36 -12q-2 0 -5 2t-3 5q0 13 13 33.5t29.5 38t28.5 21.5q18 7 41.5 7.5t42.5 0.5q81 0 161.5 -2t161.5 -2q25 0 50 1.5t50 3.5
q22 2 44.5 4t44.5 2q2 0 5.5 -1t3.5 -5v-2l-20 -51q-9 -8 -23 -8q-16 0 -31 1.5t-31 2.5q-36 3 -73 3q-21 -75 -41 -151t-31 -154q-1 -6 -1.5 -12.5t-0.5 -12.5q0 -25 10 -48.5t40 -23.5q27 0 55 17.5t52.5 41t40.5 42.5q3 4 6 7l6 6q6 6 15 6q8 0 20 -5.5t12 -15.5z" />
    <glyph glyph-name="rho" unicode="&#x3c1;" 
d="M682 281q0 42 -14.5 85t-45 72t-79.5 29q-42 0 -73.5 -23.5t-52.5 -60.5t-31 -78t-10 -77q0 -31 8 -63.5t24.5 -60.5t43 -45.5t62.5 -17.5q44 0 75.5 23.5t52 60.5t30.5 78.5t10 77.5zM803 279q0 -87 -35.5 -150.5t-100 -98t-151.5 -34.5q-64 0 -116 24t-85 82h-1
q-10 -57 -18 -115t-13 -116l-119 -2q8 62 19 124.5t24 123.5q15 73 37.5 142.5t59 125.5t95.5 89.5t147 33.5q72 0 130.5 -25t92.5 -76t34 -128z" />
    <glyph glyph-name="sigma" unicode="&#x3c3;" 
d="M633 289q0 32 -8 66t-25.5 63t-44 47t-64.5 18q-44 0 -76 -25.5t-53 -65t-31 -83t-10 -79.5q0 -31 8 -65t24.5 -63.5t43.5 -48t64 -18.5q46 0 79 25t53.5 64t30 83t9.5 82zM863 518q0 -7 -6 -15q-16 -28 -37 -41t-54 -13q-27 0 -53.5 5t-52.5 9q44 -33 69.5 -76.5
t25.5 -99.5q0 -93 -39.5 -157.5t-108.5 -98t-160 -33.5q-72 0 -128 27t-88.5 79t-32.5 126q0 91 37.5 156t105 100t156.5 35q61 0 122.5 -11t125.5 -11q21 0 36 8t29 16t29 8q7 0 15.5 -1.5t8.5 -11.5z" />
    <glyph glyph-name="tau" unicode="&#x3c4;" 
d="M745 499l-20 -51q-8 -7 -23 -7q-19 0 -38 2t-38 3q-13 1 -26.5 1h-27.5h-40q-21 -75 -40.5 -151.5t-30.5 -153.5q-1 -6 -1.5 -12.5t-0.5 -12.5q0 -27 10 -49.5t42 -22.5q30 0 56 17.5t47.5 41t40.5 41t36 17.5q6 0 15.5 -5t9.5 -13q0 -7 -2.5 -13t-7.5 -12
q-40 -52 -98.5 -88t-126.5 -36q-61 0 -95.5 21.5t-34.5 88.5q0 14 2 27l4 26q14 74 30.5 147.5t30.5 146.5q-18 0 -42 -0.5t-47 -4t-39 -12.5q-14 -8 -21.5 -15.5t-17 -12.5t-28.5 -5q-2 0 -5 2.5t-3 5.5q0 14 6 26.5t13 23.5q12 15 32.5 28t39.5 13q22 0 43.5 1t43.5 1
q44 0 87 -2.5t86 -2.5q34 0 67 1.5t66 5.5q18 3 35 3q3 0 7 -0.5t4 -5.5v-3z" />
    <glyph glyph-name="upsilon" unicode="&#x3c5;" 
d="M764 443v-7.5t-1 -7.5q-7 -50 -21 -108.5t-37.5 -115.5t-58 -104.5t-82 -76t-109.5 -28.5q-34 0 -68 10.5t-56.5 34.5t-22.5 64q0 8 0.5 17t1.5 17q6 68 12.5 136t6.5 136q0 14 -4.5 28.5t-22.5 14.5q-5 0 -18.5 -6.5t-27.5 -6.5q-5 0 -10.5 2t-5.5 8q0 11 14.5 20.5
t35.5 16.5t39.5 10.5t27.5 3.5q45 0 59 -21t14 -62q0 -44 -4.5 -87.5t-9.5 -86.5q-4 -34 -8 -69t-4 -70q0 -25 14 -48.5t43 -23.5q24 0 47 18t42.5 44.5t34.5 54t22 46.5q12 32 22.5 72.5t16.5 82t6 74.5q0 27 -15 37.5t-38 17.5q5 26 28 37t46 11q41 0 66 -21t25 -64z" />
    <glyph glyph-name="phi" unicode="&#x3c6;" 
d="M484 474q-90 -27 -143.5 -94.5t-53.5 -162.5q0 -66 34.5 -109.5t95.5 -64.5q20 107 36.5 215t30.5 216zM697 301q0 58 -30.5 104.5t-86.5 65.5q-14 -108 -33.5 -215.5t-37.5 -214.5q89 27 138.5 97.5t49.5 162.5zM817 284q0 -64 -26.5 -115.5t-71 -88t-100.5 -57
t-116 -23.5q-5 -30 -10.5 -60t-10.5 -60h-100q8 30 15.5 60t13.5 61q-62 8 -118.5 33.5t-92.5 72.5t-36 117q0 66 28.5 117t75.5 87t105 56.5t117 25.5l12 102t11 102l115 -2q-11 -49 -22 -99l-22 -100q64 -10 116.5 -37t84.5 -74t32 -118z" />
    <glyph glyph-name="chi" unicode="&#x3c7;" 
d="M788 15q0 -4 -1 -7t-3 -6q-17 -29 -41 -57.5t-54 -47t-67 -18.5q-27 0 -46.5 15.5t-33 39t-22.5 49t-16 46.5q-8 26 -16 51.5t-16 50.5q-43 -59 -84.5 -119.5t-85.5 -119.5l-111 1q62 82 126 162t123 165q-11 37 -25 73l-28 72q-7 20 -15 45t-17 43q-7 13 -20 13
q-18 0 -32.5 -10t-28.5 -19.5t-33 -9.5q-3 0 -7.5 3t-4.5 7q0 10 5.5 17t11.5 14q22 22 52 42t62 20q37 0 56 -7.5t35 -43.5q11 -25 19 -59t13.5 -68.5t10.5 -62.5h1l70 112t66 114h142q-60 -82 -121 -163t-123 -161q6 -18 17 -52t25.5 -72t29 -69t26.5 -42q5 -5 10 -8
t12 -3q23 0 40 13t31 29.5t26.5 29.5t25.5 13q6 0 11 -4.5t5 -10.5z" />
    <glyph glyph-name="psi" unicode="&#x3c8;" 
d="M812 429q0 -80 -15 -151.5t-50 -129t-94.5 -94t-147.5 -47.5q-4 -31 -9 -62l-10 -62l-101 -2q7 31 14 61t13 61q-55 7 -102 26t-76 57t-29 102q0 47 8.5 92.5t16.5 91.5q5 25 9 50.5t4 50.5q0 9 -7 9q-18 0 -34 -9t-29.5 -18t-26.5 -9q-4 0 -7.5 3.5t-3.5 7.5q0 8 7 15
q23 23 59.5 41t69.5 18q19 0 38.5 -5.5t33 -18.5t13.5 -36q0 -20 -3 -39.5t-7 -39.5q-11 -58 -21.5 -116.5t-10.5 -117.5q0 -46 30.5 -77t73.5 -42q26 176 50 351.5t40 351.5h117q-28 -173 -58.5 -346.5t-56.5 -347.5q35 15 64 30t54 46q29 37 44 84.5t20.5 98t5.5 95.5
q0 19 -6 33t-23 24q17 16 39 27.5t46 11.5q31 0 44.5 -20.5t13.5 -48.5z" />
    <glyph glyph-name="omega" unicode="&#x3c9;" 
d="M871 317q0 -32 -4 -64t-16 -62q-20 -53 -58.5 -99t-89.5 -74t-111 -28q-49 0 -81.5 22.5t-45.5 71.5q-31 -38 -71.5 -65.5t-93.5 -27.5q-88 0 -129.5 50t-41.5 134q0 38 4.5 75.5t14.5 73.5q7 26 21 60t33.5 63.5t44.5 42.5q16 8 33 11.5t34 3.5q12 0 30 -11.5t18 -25.5
q0 -1 -2 -1.5t-3 -1.5q-22 -13 -42 -43.5t-30 -54.5q-19 -46 -29.5 -106.5t-10.5 -110.5q0 -21 5 -46t19 -43.5t41 -18.5q29 0 52.5 21.5t42 56t32 73.5t21.5 74.5t10 57.5q2 14 1 28t3 27q6 19 27.5 28t39.5 9q17 0 30 -9.5t13 -28.5q0 -13 -5 -25.5t-9 -24.5
q-13 -43 -19 -89.5t-6 -92.5q0 -19 4.5 -45t17.5 -45.5t39 -19.5q31 0 59 22.5t48.5 53.5t30.5 57q16 41 22.5 84t6.5 86q0 44 -10 86.5t-28 82.5q-1 2 -1 5q0 6 5 9.5t10 3.5q16 0 32.5 -9t27.5 -20q23 -20 37 -51.5t20.5 -65.5t6.5 -64z" />
    <glyph glyph-name="Iocy" unicode="&#x401;" 
d="M815 196q0 -25 -4.5 -49t-6.5 -49q-1 -17 -1.5 -40t-6.5 -38q-4 -11 -14 -14q-4 -2 -22 -2.5t-24 -0.5q-100 0 -200 1t-200 1q-42 0 -84 -2t-84 -2q-26 0 -26 24q0 20 11 23t27 3q11 0 21.5 -0.5t21.5 -0.5q21 0 29 16t8.5 36.5t0.5 34.5q0 76 1 151.5t1 151.5v144v37.5
t-2 37.5q-2 23 -8 28t-29 5q-12 0 -23.5 -0.5t-23.5 -0.5q-7 0 -16.5 8.5t-9.5 16.5q0 11 10 19.5t20 8.5q16 0 32 -1t32 -1q46 0 91.5 -0.5t91.5 -0.5q105 0 211 3q25 1 49.5 2.5t49.5 1.5q11 0 18.5 -3.5t9.5 -14.5q4 -17 8.5 -50t11.5 -59q2 -7 4.5 -15t2.5 -16
q0 -10 -11 -15t-19 -5q-19 0 -28.5 11.5t-17 28.5t-21 35.5t-41 32.5t-77.5 19q-16 2 -31.5 2h-31.5q-28 0 -57 -0.5t-58 -0.5q-19 0 -19 -19v-266q19 0 37 -0.5t37 -0.5q47 0 94.5 3t93.5 12q14 2 29 5t29 3q13 0 13 -11q0 -3 -3 -15t-7 -23t-6 -14q-6 -6 -12 -7.5
t-14 -1.5q-54 0 -107.5 3.5t-107.5 3.5q-14 0 -32 -2t-31 -10.5t-13 -28.5v-240q0 -28 13 -34t37 -6h92q30 0 63.5 3t65 13.5t54.5 30.5q15 13 28.5 36.5t21.5 41.5q3 6 5.5 14t6.5 13q6 8 12 8.5t15 0.5q6 0 13 -3.5t7 -10.5zM436 836q0 -23 -16.5 -39.5t-39.5 -16.5
t-39.5 16.5t-16.5 39.5t16.5 39.5t39.5 16.5t39.5 -16.5t16.5 -39.5zM676 836q0 -23 -16.5 -39.5t-39.5 -16.5t-39.5 16.5t-16.5 39.5t16.5 39.5t39.5 16.5t39.5 -16.5t16.5 -39.5z" />
    <glyph glyph-name="Acy" unicode="&#x410;" 
d="M590 306q-30 81 -59.5 162.5t-58.5 162.5h-1q-31 -82 -61.5 -163t-62.5 -162h243zM924 25q0 -14 -8 -18.5t-20 -4.5q-31 0 -61 1t-61 1q-41 0 -82 -1t-82 -1q-6 0 -15 7.5t-9 13.5q0 12 8.5 16t20 3.5t19.5 -0.5q14 0 27 4t13 23q0 10 -9 37t-21.5 59t-24 60t-16.5 41
h-268q-4 -9 -12 -31t-18.5 -49.5t-20 -54t-15.5 -46.5t-6 -26q0 -12 16 -15t34 -2.5t25 0.5q8 0 16.5 -6t8.5 -14q0 -9 -10 -14t-18 -5h-210q-7 0 -17.5 5.5t-10.5 14.5q0 12 10.5 15t26.5 6t34 14t33 40q6 11 10.5 23.5t8.5 23.5q58 149 114 299t110 301q21 6 42 10t43 4
q3 0 11 -2t9 -5l231 -584q8 -20 15 -41t18 -40q14 -25 33 -32t37 -7.5t29.5 -3.5t11.5 -19z" />
    <glyph glyph-name="Becy" unicode="&#x411;" 
d="M713 214q0 74 -34.5 119t-113.5 45q-13 0 -26.5 0.5t-27.5 0.5q-31 0 -62 -1t-62 -3v-303q0 -23 15 -29.5t34 -6.5h43t43 1q54 4 97 23.5t68.5 57.5t25.5 96zM848 229q0 -150 -142 -206q-43 -16 -95 -19t-98 -3q-50 0 -100 1.5t-100 1.5q-30 0 -60.5 -1.5t-60.5 -1.5
q-8 0 -19 5t-11 15q0 5 9 12t14 7h13q32 -1 47 7.5t19 42.5q2 16 2 32v32q0 126 -0.5 252t-0.5 252q0 14 -5 26t-19 18q-10 4 -21 3.5t-22 -0.5q-9 0 -20.5 4.5t-11.5 15.5q0 7 9.5 14t15.5 7q13 0 25.5 -1t25.5 -1q59 0 118 -1t117 -1q79 0 158 3q25 1 50 2.5t50 1.5
q5 0 11.5 -0.5t9.5 -6.5q2 -3 6 -23.5t8.5 -47t8 -48.5t3.5 -27q0 -11 -13 -17t-22 -6q-6 0 -13 1.5t-12 5.5q-1 2 -2 6.5t-2 7.5q-9 33 -28 57t-52 37q-20 8 -49.5 11.5t-60 4t-53.5 0.5h-23.5h-35.5t-20 -1q-9 -5 -9 -12v-276q84 3 168 3q32 0 65.5 -1t65.5 -9
q45 -10 81.5 -33.5t58.5 -59.5t22 -86z" />
    <glyph glyph-name="Vecy" unicode="&#x412;" 
d="M690 211q0 75 -34.5 119t-114.5 44q-13 0 -26.5 0.5t-27.5 0.5q-63 0 -126 -3v-302q0 -22 15.5 -28.5t34.5 -6.5q22 0 43.5 0.5t42.5 1.5q54 4 98 22.5t69.5 55.5t25.5 96zM637 567q0 62 -27.5 92.5t-71.5 40t-96 9.5q-8 0 -27.5 -1t-36.5 -5.5t-17 -16.5v-274
q17 0 34 -0.5t33 -0.5q39 0 83 6t74 33q24 21 38 53.5t14 63.5zM827 226q0 -74 -38 -125.5t-106 -78.5q-45 -17 -95.5 -20t-98.5 -3q-51 0 -101.5 1.5t-101.5 1.5q-31 0 -61 -2t-61 -2q-8 0 -18.5 4.5t-10.5 14.5q0 14 8 18t19 3t20 -1q30 0 41 10t14 40q2 16 2 32.5v32.5
q0 126 -0.5 251.5t-0.5 251.5q0 13 -3.5 24t-16.5 18q-10 5 -23 5h-24q-9 0 -20.5 4.5t-11.5 15.5q0 6 9 13.5t15 7.5q13 0 26 -1t26 -1q46 0 91 -1t91 -1q34 0 67 6t67 6q45 0 88 -6.5t77.5 -24.5t54.5 -52t20 -89q0 -42 -22.5 -75.5t-57 -57t-71.5 -37.5q49 -8 96.5 -29.5
t79 -59t31.5 -94.5z" />
    <glyph glyph-name="Gecy" unicode="&#x413;" 
d="M824 594q0 -10 -13 -16t-21 -6q-16 0 -20 2.5t-10 17.5q-20 51 -45.5 75t-61 31.5t-87.5 7.5h-136q-19 0 -19 -20v-574q0 -35 9 -49.5t28.5 -16.5t49.5 -2q8 0 19.5 -5.5t11.5 -15.5q0 -13 -8 -18t-20 -5q-37 0 -73 1.5t-73 1.5q-34 0 -68 -2.5t-68 -2.5q-9 0 -19.5 5.5
t-10.5 15.5q0 6 9.5 14t15.5 8q40 0 58.5 13.5t18.5 55.5q0 124 -0.5 247t-0.5 247q0 10 0.5 19t0.5 18q0 30 -9.5 42.5t-27 15t-42.5 2.5q-8 0 -19.5 7t-11.5 16q0 8 10.5 16t17.5 8q20 0 40 -1t39 -1h89h89q53 0 106 0.5t106 1.5q26 1 53 2.5t53 1.5q5 0 8.5 -0.5
t5.5 -5.5q2 -3 6 -24.5t8.5 -50t8 -51t3.5 -26.5z" />
    <glyph glyph-name="Decy" unicode="&#x414;" 
d="M627 351v53.5v83.5t-1 90.5t-2.5 75t-3.5 35.5q-3 6 -7 9.5t-12 3.5h-179q-12 -108 -23.5 -217.5t-31 -217.5t-56.5 -212h144h84.5t84.5 1q2 74 2.5 148t0.5 147zM884 -42v-29t-6 -28t-25 -12q-21 0 -34 17t-24 38.5t-26 33.5q-21 17 -57.5 25.5t-62.5 8.5h-291
q-31 0 -70.5 -2t-75.5 -12.5t-58 -36.5q-11 -13 -18.5 -27.5t-18.5 -24.5t-33 -10q-17 0 -17 15q0 27 4 59.5t14 57.5q6 17 16 23t27 6q29 0 57 15.5t38 43.5q48 129 70.5 275t22.5 283q0 13 -4 19t-18 6q-17 0 -34.5 -1.5t-35.5 -1.5q-19 0 -19 19q0 21 6 28.5t28 7.5
q27 0 54 -2t54 -2h167q77 0 153.5 2.5t152.5 2.5q11 0 14 -6.5t3 -15.5q0 -19 -8 -25.5t-27 -6.5q-7 0 -15 1t-16 1q-4 0 -7.5 -0.5t-6.5 -3.5q-2 -3 -3.5 -20.5t-2 -36t-0.5 -24.5q-3 -196 -3 -393q0 -42 0.5 -83.5t1.5 -83.5q23 0 45.5 1t45.5 1q6 0 13 -0.5t12 -2.5
q8 -4 10.5 -10.5t3.5 -14.5q3 -19 3.5 -37.5t0.5 -36.5z" />
    <glyph glyph-name="Iecy" unicode="&#x415;" 
d="M836 197q0 -6 -2 -14q-4 -21 -6 -42l-4 -42q-1 -19 -2 -38.5t-6 -38.5q-1 -4 -2.5 -8t-4.5 -6q-4 -2 -13 -2.5t-14 -0.5q-106 0 -212.5 0.5t-213.5 0.5q-42 0 -84.5 -2t-84.5 -2q-15 0 -20 4.5t-5 19.5q0 20 11.5 23t27.5 3q11 0 21.5 -0.5t20.5 -0.5q21 0 28.5 16
t8.5 36.5t1 34.5q0 111 1 222t1 222v39.5t-2 38.5q-2 23 -8 28t-29 5q-12 0 -23.5 -0.5t-23.5 -0.5q-7 0 -16.5 8.5t-9.5 16.5q0 11 10 19.5t20 8.5q16 0 32 -1t32 -1h91.5h91.5q53 0 106 0.5t105 1.5q25 1 49.5 2.5t49.5 1.5q11 0 18.5 -3.5t9.5 -13.5q4 -19 9.5 -52
t10.5 -57q2 -8 4.5 -16t2.5 -16q0 -10 -11 -15t-19 -5q-19 0 -28 11.5t-17 28.5t-21.5 35.5t-41 32.5t-76.5 19q-15 2 -31 2h-32q-28 0 -57 -0.5t-58 -0.5q-20 0 -20 -19v-266q19 0 37 -0.5t37 -0.5q47 0 95 3t94 12q14 2 28 5t27 3q5 0 10 -2.5t5 -8.5q0 -5 -7.5 -20
t-16 -28t-13.5 -13h-14q-52 0 -103 3.5t-103 3.5q-14 0 -32 -2t-31 -10.5t-13 -28.5v-240q0 -28 13 -34t37 -6h92q30 0 64 3t65.5 13.5t54.5 30.5q14 12 28 38t22 43q3 6 5.5 12.5t6.5 12.5q5 9 18 9q6 0 17.5 -4t11.5 -11z" />
    <glyph glyph-name="Zhecy" unicode="&#x416;" 
d="M986 17q0 -15 -15 -15h-65h-65q-24 0 -35.5 7.5t-18.5 21t-18 30.5l-50 81l-139 227l-27 -28q0 -61 -0.5 -121.5t-0.5 -121.5q0 -18 5 -35t28 -17q8 0 16 0.5t16 0.5t19 -5t11 -16q0 -22 -24 -22q-31 0 -61 1.5t-61 1.5q-33 0 -66 -2.5t-66 -2.5q-9 0 -19 5t-10 16
q0 14 9.5 17.5t22.5 3.5t21 1q29 5 36.5 28t7.5 48v113t-1 113l-15 16q-35 -56 -70 -113l-70 -114l-47 -77q-7 -10 -12.5 -21.5t-13.5 -20.5q-10 -11 -21 -13t-25 -2h-64h-64q-15 0 -15 15q0 9 5 15q1 1 7.5 3t7.5 3q15 5 30.5 12.5t27.5 18.5q16 14 28 32.5t23 35.5
q50 75 99.5 151t100.5 151l-209 235q-14 17 -36.5 25.5t-40.5 12.5t-20 6q-5 8 -5 16t6.5 12t13.5 4q15 0 29.5 -1.5t29.5 -1.5q14 0 29 0.5t29 0.5h14t14 -2q12 -4 12.5 -10t3.5 -16q2 -8 22 -35.5t49 -64.5t59 -75t54 -67.5t34 -40.5v212q0 10 -2.5 24t-9.5 25t-20 11
q-9 0 -18.5 -0.5t-18.5 -0.5q-8 0 -17 5.5t-9 14.5q0 13 10.5 18t20.5 5q34 0 68 -1t68 -1q27 0 53.5 2t53.5 2q9 0 18.5 -5.5t9.5 -16.5q0 -8 -3 -14t-14 -6q-9 0 -18 1t-17 1q-29 0 -34.5 -18.5t-5.5 -41.5q0 -56 0.5 -112.5t0.5 -112.5q8 9 26.5 31.5t43.5 53.5t51 64.5
t49 64t38 51.5t17 27q2 4 2 8.5t2 8.5q5 8 12.5 9t15.5 1h70q15 0 29.5 1.5t29.5 1.5q8 0 14 -4t6 -12t-5 -16q-1 -2 -19 -6t-40.5 -12.5t-37.5 -25.5l-203 -229q51 -76 101.5 -153.5t102.5 -154.5q11 -17 22.5 -35.5t27.5 -32.5q12 -11 28.5 -19t30 -12t14.5 -6q6 -6 6 -15
z" />
    <glyph glyph-name="Zecy" unicode="&#x417;" 
d="M801 239q0 -75 -42 -132t-110 -86q-42 -17 -87.5 -22t-90.5 -5q-52 0 -107 18.5t-102.5 50.5t-79.5 74q-4 6 -7 11.5t-3 12.5q0 13 15.5 21t25.5 8q11 0 18 -3t15 -11q19 -17 36.5 -35.5t39.5 -34.5q17 -11 44.5 -23.5t56 -21t48.5 -8.5q90 0 144 43.5t54 137.5
q0 57 -29 89.5t-74 46t-93 13.5q-16 0 -32 -2t-33 -4q-7 -1 -13.5 -2t-13.5 -1q-5 0 -10 1.5t-5 8.5q0 9 8 24t12 23h104q42 0 72 24.5t46 61.5t16 75q0 43 -21.5 71.5t-55.5 42.5t-74 14q-19 0 -45.5 -8t-43.5 -18q-30 -17 -44.5 -37.5t-22 -45.5t-16.5 -56q-8 -7 -18 -8.5
t-21 -1.5q-7 0 -12 3.5t-5 11.5q0 5 0.5 23.5t1.5 42.5t1.5 47.5t1.5 39t1 16.5q5 6 9 8t12 2q10 0 20 -1.5t20 -1.5q39 0 81 11l50 16t51 8q42 0 88 -8t86 -27t65.5 -52.5t25.5 -85.5q0 -61 -36 -101.5t-89 -63.5q-3 -1 -10 -4.5t-7 -7.5t4 -5.5t7 -2.5q42 -10 82 -32.5
t65.5 -57.5t25.5 -84z" />
    <glyph glyph-name="Iicy" unicode="&#x418;" 
d="M922 25q0 -15 -11 -20t-23 -5q-16 0 -32 0.5t-33 0.5q-46 0 -91.5 -1t-91.5 -1q-11 0 -21 3t-10 18q0 21 15.5 21.5t29.5 0.5q23 0 32.5 12t11.5 29.5t2 33.5l-1 416l-399 -403v-29q0 -21 5 -39.5t32 -18.5q9 0 17.5 0.5t17.5 0.5t20 -6.5t11 -16.5q0 -16 -9 -19.5
t-23 -3.5q-31 0 -63 1.5t-64 1.5q-33 0 -65.5 -1.5t-65.5 -1.5q-10 0 -21 7t-11 18q0 6 10 12t15 6q45 0 58.5 16.5t13.5 59.5q0 131 -0.5 262t-0.5 262q0 14 -3.5 29.5t-13 26.5t-26.5 11q-8 0 -16 -1t-16 -1q-9 0 -19 5.5t-10 15.5q0 18 11 22t25 4q32 0 62.5 -2t61.5 -2
q27 0 54.5 1t54.5 4q5 0 9 0.5t8 0.5q10 0 20.5 -5t10.5 -17q0 -21 -15.5 -21.5t-29.5 -0.5q-22 0 -31.5 -11t-12 -27.5t-2.5 -33.5l1 -429l400 424v18q0 20 -5 38t-31 18q-9 0 -17.5 -1t-17.5 -1t-19 5.5t-10 15.5q0 17 8.5 21.5t22.5 4.5q32 0 63 -2t62 -2q28 0 55.5 1.5
t55.5 3.5q5 0 9.5 0.5t8.5 0.5q10 0 20.5 -5t10.5 -17q0 -20 -15 -21t-29 -1q-23 0 -33.5 -11.5t-13.5 -29t-3 -35.5q0 -133 0.5 -266.5t0.5 -267.5q0 -20 5.5 -38t30.5 -18q9 0 17.5 0.5t17.5 0.5q8 0 18 -5.5t10 -15.5z" />
    <glyph glyph-name="Iishortcy" unicode="&#x419;" 
d="M921 24q0 -15 -11 -20t-23 -5q-16 0 -32 0.5t-33 0.5q-46 0 -91.5 -1t-91.5 -1q-11 0 -21 3t-10 18q0 21 15.5 21.5t29.5 0.5q23 0 32.5 12t11.5 29.5t2 33.5v416l-399 -403v-33q0 -20 5.5 -37t30.5 -17q9 0 17.5 0.5t17.5 0.5t20 -6.5t11 -16.5q0 -16 -9 -19.5t-23 -3.5
q-31 0 -62.5 1.5t-63.5 1.5q-33 0 -66 -1.5t-66 -1.5q-10 0 -21 7t-11 18q0 6 10 12t15 6q45 0 58.5 16.5t13.5 59.5q0 131 -0.5 262t-0.5 262q0 14 -3.5 29.5t-13 26.5t-26.5 11q-8 0 -16 -1t-16 -1q-9 0 -19 5.5t-10 15.5q0 18 11 22t25 4q32 0 62.5 -2t61.5 -2
q27 0 54.5 1t54.5 4q5 0 9 0.5t8 0.5q10 0 20.5 -5t10.5 -17q0 -21 -15.5 -21.5t-29.5 -0.5q-22 0 -31.5 -11t-11.5 -27.5t-2 -33.5l1 -429l400 424v17q0 21 -5.5 39t-31.5 18q-9 0 -17.5 -1t-17.5 -1t-19 5.5t-10 15.5q0 16 8.5 21t22.5 5q32 0 63 -2t62 -2q28 0 55.5 1.5
t55.5 3.5q5 0 9.5 0.5t8.5 0.5q10 0 20.5 -5t10.5 -17q0 -20 -15 -21t-29 -1q-23 0 -33.5 -11.5t-13.5 -29t-3 -35.5q0 -133 0.5 -266.5t0.5 -267.5q0 -20 5.5 -38t31.5 -18q8 0 17 0.5t17 0.5t18 -5.5t10 -15.5zM683 831q0 -21 -19.5 -35.5t-48 -23t-56 -12t-43.5 -3.5
t-43 3.5t-55.5 12t-48 23t-19.5 35.5q0 16 18 28t32 12t30.5 -12t16.5 -27q0 -6 -3 -12q17 -7 34 -12t35 -5q20 0 39 5.5t37 12.5q-3 5 -3 11q0 14 16.5 26.5t29.5 12.5q14 0 32.5 -12t18.5 -28z" />
    <glyph glyph-name="Kacy" unicode="&#x41a;" 
d="M924 19q0 -10 -8 -13.5t-16 -3.5h-160q-7 0 -13.5 0.5t-13.5 1.5q-14 3 -24 13q-9 8 -16 19.5t-15 21.5l-32 42t-33 43l-166 223l-35 -27q0 -59 -0.5 -118t-0.5 -118q0 -20 4.5 -40t31.5 -20q8 0 16.5 0.5t16.5 0.5t19.5 -6t11.5 -16q0 -23 -25 -23q-32 0 -64 1.5
t-64 1.5q-35 0 -70 -1t-70 -1q-10 0 -20 6.5t-10 17.5q0 6 10.5 12.5t15.5 6.5q43 0 59.5 16.5t16.5 59.5q0 130 -0.5 260t-0.5 260q0 23 -9 47q-4 10 -9 15t-16 5q-10 0 -19.5 -0.5t-19.5 -0.5q-8 0 -17.5 6.5t-9.5 15.5q0 23 26 23q45 0 90 -1t90 -1q23 0 46 1t46 1
q9 0 15.5 -3.5t6.5 -14.5q0 -18 -10 -22.5t-24.5 -3.5t-29.5 -2t-25 -18t-10 -51q0 -58 0.5 -115t-0.5 -115q77 71 151.5 144t141.5 152q4 4 11 13.5t14.5 18.5t10.5 11q5 3 25 4t41 1h29h19t23.5 -3.5t10.5 -13.5t-6.5 -13t-15.5 -5q-28 -5 -42.5 -11.5t-36.5 -27.5
l-249 -233q62 -77 122.5 -155.5t125.5 -153.5q14 -16 29 -32t32 -29q16 -13 34 -19q4 -1 18 -5t26.5 -8t13.5 -5q6 -6 6 -16z" />
    <glyph glyph-name="Elcy" unicode="&#x41b;" 
d="M815 21q0 -22 -23 -22q-32 0 -64.5 1.5t-64.5 1.5q-31 0 -62.5 -2t-63.5 -2q-10 0 -17.5 3t-7.5 15q0 18 10.5 18.5t22.5 0.5q18 0 35.5 8t21.5 27q2 8 2 15v14v127.5v127.5v36v63.5t-0.5 75.5t-1 73.5t-1.5 57t-3 24.5q-4 6 -7 9.5t-11 3.5h-167l-28 -264t-43 -261
q-13 -58 -36.5 -101.5t-76.5 -73.5q-13 -8 -33.5 -15.5t-41.5 -12.5t-37 -5q-12 0 -23.5 6.5t-11.5 20.5q0 28 13 54.5t46 26.5q29 0 50 16t35.5 40.5t24 52t14.5 50.5q24 109 36.5 219.5t12.5 222.5q0 11 -4 17.5t-16 6.5q-13 0 -26 -1t-27 -1q-10 0 -21.5 4t-11.5 17
q0 14 16.5 20t26.5 6h519q11 0 22 -3.5t11 -18.5q0 -14 -10.5 -18.5t-24 -4t-23.5 0.5q-12 0 -15.5 -3.5t-5.5 -14.5q-4 -16 -3 -33.5t1 -34.5q0 -38 -1 -77t-1 -78q0 -94 1.5 -188.5t1.5 -189.5q0 -18 5.5 -30t26.5 -12q8 0 17 1.5t17 1.5t17 -5t9 -14z" />
    <glyph glyph-name="Emcy" unicode="&#x41c;" 
d="M989 725q0 -10 -11 -16t-20 -6q-13 0 -25.5 0.5t-25.5 0.5q-7 0 -16 -7t-9 -15q0 -71 -0.5 -141.5t-0.5 -141.5q0 -73 0.5 -145t0.5 -145v-10.5t1 -11.5q0 -11 3 -20q10 -22 32 -22q10 0 20 0.5t20 0.5q8 0 19 -5t11 -15q0 -16 -9.5 -20t-23.5 -4q-32 0 -65 1t-65 1
q-35 0 -70.5 -1.5t-70.5 -1.5q-10 0 -19 6.5t-9 16.5q0 8 9 14t16 6q43 0 59.5 17.5t16.5 59.5v514q-53 -130 -106.5 -259t-103.5 -260q-7 -20 -14.5 -40t-16.5 -40q-21 -8 -40 -8q-6 0 -12 1t-11 5q-3 4 -6.5 12.5t-5.5 12.5q-60 145 -124.5 287t-125.5 286
q0 -130 -0.5 -260.5t-0.5 -261.5q0 -45 15.5 -55.5t57.5 -10.5q9 0 20 -4.5t11 -15.5q0 -13 -8 -17.5t-19 -4.5q-28 0 -56 1t-56 1q-24 0 -48 -1t-48 -1q-10 0 -21 5t-11 18q0 12 8.5 16t19.5 4h19q35 0 42.5 20t7.5 49q0 143 1.5 285.5t1.5 284.5q0 14 -3.5 19.5t-19.5 5.5
q-10 0 -21 -1.5t-22 -1.5q-10 0 -24 4.5t-14 16.5q0 9 8.5 16t16.5 7q33 0 66.5 -1.5t66.5 -1.5q47 0 92 3l241 -549h1q56 136 112 272.5t108 273.5q27 0 53.5 -0.5t53.5 -0.5q31 0 61 1.5t61 1.5q8 0 16.5 -8t8.5 -16z" />
    <glyph glyph-name="Ency" unicode="&#x41d;" 
d="M924 26q0 -18 -13 -21t-27 -3q-29 0 -58 1t-58 1q-31 0 -61 -0.5t-61 -0.5q-10 0 -18 3.5t-8 16.5q0 20 14 20.5t28 0.5q23 0 33.5 11.5t13.5 29t3 35.5l-1 241h-386v-265q0 -19 6 -35.5t29 -16.5q8 0 17 0.5t17 0.5t18 -5t10 -15q0 -14 -7 -19t-20 -5q-31 0 -62 1.5
t-63 1.5q-33 0 -66 -2t-66 -2q-10 0 -18 3.5t-8 16.5q0 6 9 14t15 8q44 0 56.5 16.5t12.5 57.5q0 131 -0.5 261.5t-0.5 260.5q0 12 -2.5 28t-10 28t-23.5 12q-7 0 -15 -1t-16 -1t-18.5 5t-10.5 15q0 17 9.5 21.5t24.5 4.5q28 0 56.5 -1.5t56.5 -1.5t55 1t55 4q5 0 9 0.5
t8 0.5q9 0 19.5 -5t10.5 -16q0 -20 -14 -21t-28 -1q-27 0 -34.5 -13.5t-9.5 -36.5q-2 -14 -2.5 -28.5t-0.5 -29.5q0 -47 1 -94.5t1 -94.5h386q0 59 0.5 118t0.5 117q0 20 -4.5 38t-30.5 18q-8 0 -17 -0.5t-17 -0.5q-9 0 -19 5t-10 15q0 16 8.5 20.5t21.5 4.5q44 0 87.5 -0.5
t86.5 -0.5q18 0 36.5 1.5t36.5 1.5q9 0 20 -5t11 -16q0 -20 -14.5 -21t-28.5 -1q-21 0 -31.5 -11.5t-13.5 -28.5t-3 -34v-272v-273q0 -17 6 -29.5t26 -12.5q8 0 17 0.5t17 0.5t17.5 -5.5t9.5 -15.5z" />
    <glyph glyph-name="Ocy" unicode="&#x41e;" 
d="M743 381q0 57 -12.5 116.5t-41 110.5t-75.5 82t-115 31q-66 0 -113 -33t-77 -85.5t-44 -113t-14 -115.5q0 -57 13.5 -116t43 -108.5t77 -79.5t114.5 -30q68 0 115 31.5t75.5 82t41 110.5t12.5 117zM885 383q0 -122 -45.5 -208.5t-132 -132t-208.5 -45.5q-118 0 -203.5 45
t-131.5 129.5t-46 202.5q0 84 27.5 155t78 123.5t120.5 81t155 28.5q119 0 205.5 -45t133.5 -129.5t47 -204.5z" />
    <glyph glyph-name="Pecy" unicode="&#x41f;" 
d="M924 731q0 -16 -10 -20t-25 -4t-30 -3.5t-25 -19t-10 -50.5q0 -133 0.5 -265.5t0.5 -265.5q0 -19 5 -37t30 -18q8 0 17 0.5t17 0.5t18 -5.5t10 -15.5q0 -18 -13 -21t-27 -3q-31 0 -62 1.5t-62 1.5q-30 0 -60 -2t-60 -2q-10 0 -16.5 4t-6.5 15q0 20 15.5 21.5t28.5 1.5
q22 0 31.5 11.5t12 29t2.5 34.5v518q0 8 1 16.5t1 16.5q0 12 -4.5 22.5t-19.5 10.5l-337 2q-20 1 -24.5 -15.5t-4.5 -32.5q0 -139 0.5 -278.5t0.5 -279.5q0 -11 2 -25t12 -22q9 -6 27 -6h28q8 0 18 -4.5t10 -14.5q0 -16 -10 -19.5t-23 -3.5q-32 0 -63.5 1t-63.5 1t-64.5 -2
t-64.5 -2q-10 0 -18 3.5t-8 16.5q0 8 9 15t16 7q44 0 58.5 16t14.5 59q0 129 -0.5 258.5t-0.5 259.5q0 13 -3 29.5t-12 28.5t-26 12q-7 0 -15 -1t-16 -1t-18 5t-10 15q0 16 12.5 22t25.5 6q33 0 66 -1.5t66 -1.5q81 0 161.5 -0.5t161.5 -0.5h194q23 0 46 0.5t46 2.5
q5 0 9 0.5t8 0.5q10 0 20.5 -6t10.5 -17z" />
    <glyph glyph-name="Ercy" unicode="&#x420;" 
d="M694 560q0 57 -28 90t-72 46.5t-93 13.5q-7 0 -23 -1.5t-33.5 -5t-29.5 -10t-12 -17.5v-266q25 -14 53 -18.5t56 -4.5q82 0 132 44.5t50 128.5zM828 566q0 -71 -27.5 -115t-73.5 -67t-102.5 -31.5t-114.5 -8.5q-27 0 -53.5 3t-52.5 7q0 -59 0.5 -118t0.5 -118
q0 -25 9.5 -48t40.5 -23q6 0 12.5 0.5t12.5 0.5q11 0 21.5 -2.5t10.5 -17.5q0 -14 -13 -19t-24 -5q-33 0 -65.5 1.5t-65.5 1.5q-34 0 -68.5 -2t-69.5 -2q-10 0 -19.5 6t-9.5 17q0 6 10 13t15 7q28 0 45.5 3.5t26.5 17.5t9 45q0 118 0.5 235t0.5 235q0 23 -0.5 46t-0.5 45
q0 32 -34 32q-10 0 -20 -1t-21 -1q-9 0 -24 5.5t-15 16.5q0 8 9 16t17 8h133q62 0 124 3.5t124 3.5q48 0 93 -8.5t81 -29.5t57 -58t21 -94z" />
    <glyph glyph-name="Escy" unicode="&#x421;" 
d="M874 197q0 -8 -6 -17t-10 -16q-44 -63 -91 -99t-104.5 -50.5t-134.5 -14.5q-115 0 -201 44.5t-133 128t-47 200.5t45.5 206t131 139t204.5 50q48 0 93 -14.5t91 -25.5q23 -6 46 -8t46 -1q4 -37 7 -73t9 -73q2 -13 4.5 -26t2.5 -27q0 -17 -17 -24.5t-31 -7.5q-12 0 -21 7
t-15 17q-4 8 -5.5 17.5t-3.5 17.5q-11 50 -38 91.5t-68 66t-96 24.5q-29 0 -61.5 -12.5t-56.5 -29.5q-47 -34 -76 -85t-42 -109.5t-13 -114.5q0 -61 17 -119.5t50.5 -105.5t84.5 -74.5t119 -27.5q27 0 59 7.5t56 18.5q20 9 42.5 26t42.5 37.5t32 37.5q6 8 10.5 16t11.5 15
q8 8 15 10t17 2q7 0 20.5 -8t13.5 -16z" />
    <glyph glyph-name="Tecy" unicode="&#x422;" 
d="M857 567q0 -9 -6 -12t-14 -3q-25 0 -33 7.5t-9 21.5t-5 32q-10 49 -33 68.5t-56 23.5t-75 4q-29 0 -46.5 -7t-17.5 -42q0 -136 1 -271.5t1 -272.5q0 -13 3.5 -28.5t13 -26.5t26.5 -11q11 0 21.5 0.5t20.5 0.5q11 0 20.5 -2.5t9.5 -16.5q0 -16 -9.5 -19.5t-22.5 -3.5
q-37 0 -75 0.5t-76 0.5q-37 0 -74 -1t-74 -1q-11 0 -21.5 2.5t-10.5 17.5q0 12 8 15.5t19 3t18 -0.5q40 0 55.5 17t15.5 55v265v265q0 29 -3 42.5t-15.5 17t-42.5 3.5h-30q-17 1 -37.5 -0.5t-36.5 -9.5q-23 -10 -34.5 -31t-16.5 -44.5t-7.5 -41.5t-7.5 -23q-7 -6 -13 -7.5
t-15 -1.5q-6 0 -16 4t-10 11t0.5 27t1.5 46t2.5 50.5t3.5 42t4 18.5q5 3 10 3.5t9 0.5q32 0 64 -2.5t64 -2.5h150h93.5t93.5 1q49 1 98 3t98 2q6 -3 9 -12q3 -7 4.5 -31t2.5 -54t1.5 -55.5t0.5 -36.5z" />
    <glyph glyph-name="Ucy" unicode="&#x423;" 
d="M869 729q0 -8 -10.5 -15t-18.5 -7q-5 0 -10.5 0.5t-10.5 0.5q-12 0 -19 -1.5t-17 -9.5q-4 -3 -14 -22.5t-22.5 -45.5t-22.5 -48.5t-14 -30.5q-28 -60 -57.5 -119.5t-58.5 -119.5q-24 -49 -47 -99t-52 -97q-37 -60 -80.5 -89t-114.5 -29q-19 0 -41.5 2t-43.5 9.5
t-34.5 22.5t-13.5 40q0 30 15 43.5t38.5 16.5t46.5 3h4q4 -28 21 -53.5t48 -25.5q24 0 44.5 19t35.5 47t23.5 57t8.5 49q0 16 -10 43t-24 57.5t-27.5 58t-21.5 43.5q-9 21 -24 56.5t-32.5 73.5t-35 69.5t-31.5 46.5q-10 11 -19 16t-23 5q-7 0 -14.5 -0.5t-15.5 -0.5
q-10 0 -17 4.5t-7 16.5q0 9 5 15q4 4 28.5 7.5t56 6.5t58 4.5t35.5 1.5q17 0 30 -12q6 -5 19.5 -32t31 -67.5t36 -86t36 -89t30.5 -76.5t19 -48h1q8 16 24 51t35.5 78.5t37.5 87t29.5 76t11.5 43.5q0 5 0.5 10t0.5 10q0 11 -13 12.5t-20 1.5q-9 0 -17.5 -1t-16.5 -1
q-11 0 -21.5 4t-10.5 17q0 15 12.5 18t23.5 3q30 0 59.5 -0.5t59.5 -0.5q27 0 54.5 1.5t54.5 1.5q10 0 19.5 -6t9.5 -17z" />
    <glyph glyph-name="Efcy" unicode="&#x424;" 
d="M446 599q-97 -14 -154 -73.5t-57 -159.5q0 -101 56.5 -158.5t154.5 -70.5v462zM767 370q0 96 -55 156t-148 76v-229.5t1 -229.5q95 14 148.5 72t53.5 155zM903 371q0 -72 -29.5 -121.5t-78.5 -80.5t-109 -46.5t-121 -20.5v-31q0 -19 5.5 -35.5t30.5 -16.5q8 0 17 0.5
t17 0.5t18 -6t10 -14q0 -21 -21 -21q-34 0 -68 3t-69 3q-27 0 -54 -0.5t-54 -3.5q-3 0 -6.5 -0.5t-7.5 -0.5q-9 0 -20 5t-11 16q0 15 11.5 15.5t21.5 0.5q34 0 48.5 16.5t14.5 49.5v18q-63 2 -125 16.5t-113 46.5t-81.5 83t-30.5 124q0 71 31 122t82.5 83.5t113 49
t122.5 17.5v19v18q0 19 -6 30t-27 11q-9 0 -18 -0.5t-18 -0.5q-7 0 -17 4.5t-10 14.5q0 13 10 17.5t21 4.5q32 0 63 -1.5t62 -1.5q26 0 52.5 1t52.5 3q6 1 12 1.5t12 0.5q11 0 19 -4t8 -16q0 -18 -11.5 -18.5t-23.5 -0.5q-36 0 -50 -16t-14 -51v-15q59 -6 118.5 -23
t109.5 -49t80.5 -81.5t30.5 -118.5z" />
    <glyph glyph-name="Hacy" unicode="&#x425;" 
d="M907 20q0 -10 -11 -14.5t-19 -4.5q-21 0 -42.5 1t-42.5 2t-42 0.5t-42 -0.5q-10 0 -27.5 1.5t-25.5 9.5q-4 4 -6.5 9.5t-5.5 10.5q-11 23 -24 44t-27 42q-29 47 -59 93t-61 92q-7 -10 -25 -36t-41.5 -60t-45 -66.5t-36 -56.5t-14.5 -30q0 -12 13 -15t22 -3t18 1t18 1
q6 0 17 -6t11 -13t-11 -14t-18 -7q-31 0 -62 2.5t-62 2.5q-37 0 -73 -1.5t-73 -1.5q-7 0 -17.5 5t-10.5 14q0 14 9 17.5t21 3t20 -0.5q21 0 38.5 5.5t34.5 18.5q23 18 54.5 54.5t64.5 80.5t62 85t48 68q-52 80 -104 160.5t-107 159.5q-3 5 -6 9.5t-8 7.5q-10 10 -22 10
q-13 0 -25 -1t-25 -1q-7 0 -17.5 6t-10.5 15q0 8 5 12q2 2 20 4.5t44 5.5t53 5.5t48 4t27 1.5q16 0 29 -7q3 -2 15 -21.5t30 -50t38 -66t39 -68t33 -57t19 -33.5q8 13 26 40t39 61t40.5 67.5t32.5 59.5t14 37q-1 1 -4 1q-14 0 -28 -1.5t-28 -1.5q-6 0 -14.5 6.5t-8.5 13.5
t9 14t15 7q13 0 26 -1t26 -1q43 0 86 2t86 2q8 0 18 -7t10 -16q0 -25 -25 -25q-10 0 -20 1t-21 1t-23 -5q-6 -3 -22.5 -23.5t-39 -51t-47.5 -65.5t-48 -68t-40.5 -58.5t-25.5 -36.5q30 -46 62 -91l64 -90q27 -37 54.5 -75.5t60.5 -71.5q11 -11 23.5 -19t27.5 -11
q9 -2 26.5 -1.5t32 -3.5t14.5 -19z" />
    <glyph glyph-name="Tsecy" unicode="&#x426;" 
d="M884 733q0 -14 -11 -16.5t-22 -2.5q-40 0 -51.5 -20t-11.5 -55q0 -130 0.5 -259.5t0.5 -259.5q0 -24 8.5 -42t35.5 -23q7 -1 14.5 -0.5t14.5 -3.5t8.5 -9.5t2.5 -12.5q3 -28 3.5 -55.5t0.5 -55.5v-9q0 -10 -11 -17.5t-19 -7.5q-19 0 -32 18t-23.5 39.5t-24.5 33.5
q-20 17 -49 24.5t-59.5 9.5t-55.5 2q-87 0 -174 -0.5t-174 -0.5q-22 0 -43.5 -0.5t-43.5 -2.5q-4 0 -8 -0.5t-9 -0.5q-9 0 -20 5t-11 16q0 20 14.5 21t28.5 1q33 0 42 23.5t9 50.5v546q0 18 -6 29.5t-27 11.5q-8 0 -16.5 -0.5t-16.5 -0.5t-18 5.5t-10 15.5q0 19 11.5 21.5
t25.5 2.5q28 0 55.5 -1.5t55.5 -1.5q34 0 67 1.5t67 1.5q9 0 15 -3.5t6 -14.5q0 -21 -14.5 -22.5t-29.5 -1.5q-22 0 -31.5 -11.5t-12 -28t-2.5 -33.5v-528q0 -38 18 -50t52 -12q50 0 100 1.5t100 1.5q38 0 52 17t14 54q0 134 -0.5 267.5t-0.5 266.5q0 20 -5 36t-30 16
q-8 0 -17 -0.5t-17 -0.5q-9 0 -18 5.5t-9 15.5q0 14 7 19t20 5q30 0 60 -0.5t60 -0.5q34 0 68 2t68 2q10 0 19.5 -6t9.5 -17z" />
    <glyph glyph-name="Checy" unicode="&#x427;" 
d="M852 31q0 -19 -13.5 -22t-27.5 -3q-28 0 -57 1.5t-58 1.5q-35 0 -70.5 -2t-70.5 -2q-11 0 -19.5 4t-8.5 17q0 21 15.5 21.5t29.5 0.5q34 0 45.5 24.5t11.5 52.5v226q-41 -39 -95.5 -55t-110.5 -16q-85 0 -128 26.5t-57.5 79t-14.5 129.5v157q0 16 -7 27.5t-24 11.5
q-8 0 -16.5 -0.5t-16.5 -0.5t-18 5t-10 15q0 14 11 19.5t23 5.5q29 0 57.5 -1.5t56.5 -1.5q34 0 67 1.5t67 1.5q21 0 21 -18q0 -21 -14.5 -22.5t-29.5 -1.5q-24 0 -34 -11t-10 -34v-222q0 -52 24.5 -83.5t79.5 -31.5q29 0 60 11.5t59 30.5t45 41q3 5 9 13.5t6 12.5v229
q0 24 -5 32t-16.5 8h-31.5q-10 0 -24.5 3t-14.5 18q0 14 11 19.5t23 5.5q29 0 57.5 -1.5t56.5 -1.5q34 0 67 1.5t67 1.5q21 0 21 -18q0 -21 -14.5 -22.5t-29.5 -1.5q-27 0 -40 -25q-3 -6 -3 -11q0 -75 -0.5 -149.5t-0.5 -149.5v-277q0 -19 7 -34.5t30 -15.5q9 0 17.5 0.5
t17.5 0.5q8 0 18 -5.5t10 -15.5z" />
    <glyph glyph-name="Shacy" unicode="&#x428;" 
d="M990 30q0 -7 -1 -10t-7 -8q-3 -3 -23.5 -4t-47.5 -1h-49.5h-29.5h-621q-40 0 -79.5 -2t-79.5 -2q-9 0 -20 5t-11 16q0 14 7.5 18t18 3t19.5 -1q32 0 42.5 24t10.5 50q0 136 -0.5 271.5t-0.5 271.5q0 18 -5 33.5t-28 15.5q-8 0 -17 -0.5t-17 -0.5t-18 5t-10 15
q0 14 7 19.5t20 5.5q31 0 61.5 -1.5t61.5 -1.5t61.5 1.5t61.5 1.5q11 0 19.5 -3.5t8.5 -17.5q0 -20 -14.5 -20.5t-28.5 -0.5q-21 0 -30 -11t-11 -27t-2 -32q0 -63 0.5 -126t0.5 -126q0 -75 -1 -150.5t-1 -150.5q0 -16 5.5 -28.5t24.5 -12.5h174q0 151 -0.5 302.5t-0.5 302.5
q0 20 -5 37.5t-31 17.5q-8 0 -17 -0.5t-17 -0.5t-17.5 5t-9.5 15q0 14 7 19t20 5q32 0 62.5 -1.5t61.5 -1.5q33 0 66.5 2t66.5 2q11 0 18 -3.5t7 -16.5q0 -6 -8.5 -13.5t-14.5 -7.5q-43 0 -56 -17.5t-13 -58.5v-587h169q18 0 26 11t9.5 27t1.5 29v544q0 18 -6 34.5t-29 16.5
q-8 0 -17 -0.5t-17 -0.5t-18 5t-10 15q0 14 7.5 19.5t20.5 5.5q31 0 62 -1.5t62 -1.5q33 0 65.5 1.5t65.5 1.5q11 0 19.5 -3.5t8.5 -16.5q0 -5 -9 -13t-14 -8q-43 0 -56.5 -17t-13.5 -59v-526q0 -7 -0.5 -14.5t-0.5 -15.5q0 -31 30 -31q11 0 23 1t23 1q9 0 18.5 -5.5
t9.5 -16.5z" />
    <glyph glyph-name="Shchacy" unicode="&#x429;" 
d="M979 735q0 -6 -8.5 -13.5t-14.5 -7.5q-43 0 -56 -17t-13 -58q0 -133 -0.5 -266.5t-0.5 -267.5q0 -13 2.5 -27.5t15.5 -22.5h13.5h12.5q9 0 16 -1t14 -7q5 -3 7.5 -21.5t4 -42.5t1.5 -44v-28v-12q0 -10 -10.5 -16.5t-18.5 -6.5q-21 0 -30.5 13.5t-18 33t-25 39t-49 33
t-91.5 13.5h-564q-25 0 -49 -0.5t-48 -2.5q-4 0 -8.5 -0.5t-9.5 -0.5q-9 0 -19.5 5t-10.5 16q0 14 7.5 18t17.5 3.5t19 -0.5q32 0 42.5 23.5t10.5 49.5q0 136 -0.5 271.5t-0.5 271.5q0 18 -5 33.5t-28 15.5q-8 0 -17 -0.5t-17 -0.5t-18 5t-10 15q0 14 7 19.5t20 5.5
q31 0 61.5 -1.5t61.5 -1.5t61.5 1.5t61.5 1.5q11 0 19.5 -3.5t8.5 -17.5q0 -20 -14 -20.5t-28 -0.5q-22 0 -31 -10.5t-11 -26.5t-2 -33q0 -63 0.5 -126t0.5 -126q0 -75 -1 -150.5t-1 -150.5q0 -16 5.5 -28.5t24.5 -12.5h174l-1 591q0 14 -0.5 30t-7 27.5t-26.5 11.5
q-8 0 -17 -0.5t-17 -0.5t-18 5t-10 15q0 14 7.5 19t20.5 5q31 0 61 -0.5t61 -0.5q33 0 66 1t66 1q11 0 17.5 -4t6.5 -16q0 -5 -9 -13t-14 -8q-43 0 -55 -17.5t-12 -57.5q0 -147 0.5 -294t0.5 -294q42 0 84.5 1t84.5 1q18 0 25.5 11t9 26t1.5 28v531q0 12 -1.5 27t-8.5 26
t-23 11q-8 0 -17 -0.5t-17 -0.5q-7 0 -17 5.5t-10 14.5q0 14 7 19.5t20 5.5q29 0 58 -1.5t58 -1.5q35 0 70.5 1.5t70.5 1.5q11 0 17.5 -4t6.5 -16z" />
    <glyph glyph-name="Hardsigncy" unicode="&#x42a;" 
d="M802 216q0 74 -35 118t-113 44q-13 0 -26.5 0.5t-27.5 0.5q-19 0 -38 -1t-39 -2v-301q0 -18 14.5 -25t33 -8.5t30.5 -1.5q40 0 79 14q59 20 90.5 59.5t31.5 102.5zM937 231q0 -74 -39.5 -126.5t-107.5 -79.5q-37 -14 -76.5 -16.5t-78.5 -2.5q-46 0 -92.5 1.5t-93.5 1.5
q-30 0 -60.5 -2t-60.5 -2q-8 0 -19 5t-11 15q0 5 9 12t14 7h11q32 -1 48 6t20 43q2 12 2 24.5v25.5q0 134 -0.5 269t-0.5 269q0 23 -14.5 28t-32.5 5q-40 0 -75 -4t-69 -29q-18 -13 -26 -25t-13.5 -25.5t-15.5 -31.5q-12 -21 -37 -21q-11 0 -19 3.5t-8 16.5q0 20 4 47.5
t10.5 55.5t11.5 47q7 6 21 6h149q75 0 150.5 2t150.5 2q8 0 18 -5t10 -15q0 -15 -9 -19.5t-21.5 -4.5h-22.5q-24 0 -32 -12t-8 -34v-251q29 1 58 1.5t58 0.5q34 0 68 -1t68 -9q44 -10 81 -33.5t59 -59.5t22 -85z" />
    <glyph glyph-name="Yerucy" unicode="&#x42b;" 
d="M526 216q0 74 -34.5 118.5t-113.5 44.5q-13 0 -26.5 0.5t-27.5 0.5q-19 0 -38 -1.5t-39 -2.5v-301q0 -22 12.5 -28.5t31.5 -6.5q45 0 87 8t75.5 27.5t53 54t19.5 86.5zM661 231q0 -74 -37 -124.5t-105 -77.5q-45 -17 -99 -20t-102 -3q-36 0 -72.5 1t-72.5 1
q-30 0 -60.5 -1.5t-60.5 -1.5q-8 0 -18.5 5t-10.5 15q0 11 12.5 15t21.5 4q32 0 47.5 6.5t19.5 42.5q2 14 2 29v30v514q0 26 -10.5 35t-27 9.5t-35.5 0.5q-8 0 -17.5 5t-9.5 15q0 18 10.5 21.5t24.5 3.5q18 0 35.5 -1t35.5 -1q33 0 66 0.5t66 0.5q12 0 24.5 1t24.5 1
q6 0 15.5 -5.5t9.5 -12.5q0 -14 -10 -18.5t-22.5 -4t-22.5 0.5h-5t-5 -1q-16 -6 -20.5 -17.5t-4.5 -28.5q0 -63 -0.5 -126t-0.5 -126q28 1 56 1.5t56 0.5q35 0 71 -1.5t70 -9.5q44 -11 80.5 -34t58.5 -59t22 -85zM947 25q0 -21 -23 -21q-33 0 -66.5 1.5t-66.5 1.5
q-31 0 -61 -2t-61 -2q-10 0 -19 3.5t-9 16.5q0 20 14 21t28 1q22 0 31.5 11.5t12 29t2.5 33.5v540q0 18 -6 35t-29 17q-8 0 -17 -1t-17 -1q-9 0 -19 5t-10 15q0 16 8.5 20.5t22.5 4.5q29 0 58 -1t58 -1q35 0 69.5 1t68.5 1q9 0 18.5 -5t9.5 -16q0 -13 -8 -17.5t-19.5 -4.5
h-20.5q-21 0 -31.5 -11.5t-13.5 -28.5t-3 -34q0 -133 0.5 -266.5t0.5 -267.5q0 -19 5 -37t30 -18q8 0 17 0.5t17 0.5t18.5 -7.5t10.5 -16.5z" />
    <glyph glyph-name="Softsigncy" unicode="&#x42c;" 
d="M684 216q0 74 -35 118t-113 44q-13 0 -26.5 0.5t-27.5 0.5q-19 0 -38 -1t-39 -2v-301q0 -22 12.5 -28.5t31.5 -6.5q44 0 86 8t75.5 27.5t53.5 54t20 86.5zM819 231q0 -74 -37 -124.5t-105 -77.5q-45 -17 -99 -20t-102 -3q-36 0 -72.5 1t-72.5 1q-30 0 -60.5 -1.5
t-60.5 -1.5q-8 0 -19 5t-11 15q0 5 9 12t14 7h11q32 -1 48 6t20 43q2 13 2 26.5v26.5q0 130 -0.5 260t-0.5 260q0 15 -5 27t-21 17q-11 3 -23 2t-23 -1q-8 0 -18 5t-10 15q0 18 10.5 21.5t24.5 3.5q18 0 36 -1t36 -1q33 0 66 0.5t66 0.5q12 0 24 1t24 1q6 0 15.5 -5t9.5 -13
q0 -14 -8.5 -18.5t-20 -4t-21.5 0.5q-24 0 -32 -12.5t-8 -34.5v-251q28 0 56 0.5t56 0.5q35 0 70.5 -1.5t69.5 -9.5q44 -10 81 -33.5t59 -59.5t22 -85z" />
    <glyph glyph-name="Ereversedcy" unicode="&#x42d;" 
d="M835 386q0 -114 -45.5 -200t-129.5 -134.5t-200 -48.5q-73 0 -133 14t-109.5 50t-89.5 100q-3 6 -7 13.5t-4 14.5q0 8 12.5 15t19.5 7q13 0 23 -6q2 -1 4 -4t3 -5q45 -70 110.5 -109t150.5 -39q65 0 113 27.5t80 73t49 102t19 113.5q-28 1 -55 1.5t-55 0.5
q-40 0 -80.5 -1t-81.5 -1q-24 0 -47.5 -2.5t-47.5 -7.5q-16 -4 -33 -8t-35 -4q-7 0 -14.5 3t-7.5 13q0 7 9 24t21 32t19 15q14 0 28.5 -2t29.5 -4q38 -4 76.5 -5t77.5 -1h96.5t97.5 3q-4 47 -17 95.5t-37.5 90.5t-64.5 71q-24 17 -58 29.5t-63 12.5q-61 0 -114 -27.5
t-76 -88.5q-6 -16 -9 -33.5t-10 -33.5q-7 -17 -16.5 -24.5t-28.5 -7.5q-12 0 -24.5 6t-12.5 21q0 14 2.5 27t4.5 26q6 33 12 66.5t12 66.5q15 -1 30 -2.5t30 -1.5q14 0 33 6t39 13t34 11q48 14 97 14q179 0 276 -99.5t97 -277.5z" />
    <glyph glyph-name="Iucy" unicode="&#x42e;" 
d="M850 377q0 35 -7 78.5t-22.5 88t-39.5 81.5t-57.5 60t-77.5 23t-77.5 -22.5t-57.5 -60t-39 -81.5t-22 -88t-7 -79q0 -36 7 -79t21.5 -85.5t38 -78t57.5 -57t79 -21.5t79 21.5t58 56.5t38.5 77.5t21.5 86t7 79.5zM979 384q0 -80 -19 -149t-59 -121t-102.5 -81.5
t-149.5 -29.5q-133 0 -206 63.5t-107 188.5q-8 29 -12 59.5t-3 61.5h-97v-279q0 -18 5 -33.5t28 -15.5q8 0 17 0.5t17 0.5q11 0 19.5 -3t8.5 -16q0 -16 -10.5 -19.5t-23.5 -3.5q-10 0 -20.5 0.5t-21.5 0.5q-25 0 -50 -0.5t-50 -0.5q-28 0 -56.5 -1.5t-57.5 -1.5
q-10 0 -19.5 5t-9.5 17q0 7 9 14t16 7q43 0 61 14t18 58q0 132 -0.5 263.5t-0.5 263.5q0 21 -6 41.5t-33 20.5q-7 0 -13.5 -1t-13.5 -1q-8 0 -18.5 5t-10.5 15q0 26 26 26q29 0 58 -1.5t58 -1.5q35 0 69 2.5t68 2.5q10 0 20 -5.5t10 -17.5q0 -13 -8 -17.5t-19.5 -4.5h-20.5
q-21 0 -30.5 -11t-12.5 -27.5t-3 -32.5q0 -52 0.5 -104t0.5 -105h99q13 93 51 167.5t106 118t169 43.5q112 0 185 -50t109 -135t36 -189z" />
    <glyph glyph-name="Iacy" unicode="&#x42f;" 
d="M557 684q0 15 -17 21t-37 7t-30 1q-53 0 -94.5 -13t-64.5 -46.5t-23 -93.5q0 -42 24 -80q21 -33 52 -48.5t67.5 -19.5t71.5 -4q13 0 25.5 1t25.5 4v271zM780 729q0 -10 -14 -17.5t-23 -7.5h-45q-15 0 -19 -5t-4 -19v-563q0 -35 10.5 -50t25.5 -18.5t30 -3t25.5 -2.5
t10.5 -17q0 -12 -10 -18t-21 -6q-13 0 -26.5 0.5t-27.5 0.5q-52 0 -105 -1t-106 -1q-10 0 -17 4.5t-7 16.5q0 14 9.5 18t22.5 3.5t21 -0.5q20 0 30 11.5t13.5 28t3.5 31.5v258l-75 -2q-47 -82 -92.5 -164t-98.5 -161q-19 -28 -34 -35.5t-49 -7.5h-116q-14 0 -30 0.5
t-16 16.5q0 12 8 15.5t19 3t18 -0.5q18 0 42 20.5t51.5 53.5t55 72.5t52 78t43.5 70t29 47.5q-55 12 -101 35.5t-73.5 64.5t-27.5 103q0 50 27 86.5t72 57.5q40 18 83 22t86 4h19.5t19.5 -1q40 -2 79 -3t79 -1q31 0 61.5 2.5t61.5 2.5q13 0 21.5 -3.5t8.5 -19.5z" />
    <glyph glyph-name="acy" unicode="&#x430;" 
d="M586 172v20.5t-1 33t-1.5 31.5t-2.5 16q-5 8 -10.5 9.5t-14.5 1.5q-28 0 -61 -10t-63 -29t-49.5 -45t-19.5 -58q0 -40 24.5 -63.5t63.5 -23.5q29 0 60 12.5t51 33.5q8 8 16 20t8 23v28zM799 48q0 -5 -4 -9q-17 -24 -43 -33t-55 -9q-39 0 -62.5 14t-36.5 52
q-40 -31 -87 -48.5t-97 -17.5q-44 0 -81.5 11t-60 39.5t-22.5 79.5q0 46 23 77.5t60.5 52t82 32.5t88 19t77.5 12q0 25 -3 55t-12 58t-28.5 46t-52.5 18q-40 0 -66 -28.5t-36 -65.5q-1 -4 -2 -9.5t-4 -10.5q-6 -8 -14.5 -11.5t-18.5 -3.5q-16 0 -36.5 13t-20.5 32
q0 25 15 45q21 30 54 44.5t70 19t70 4.5q31 0 63 -5.5t60.5 -20t46.5 -43.5q19 -29 23 -63.5t5 -68.5q1 -35 1 -70t1 -70q0 -10 0.5 -30.5t2.5 -44t5.5 -42t9.5 -24.5q4 -3 13 -3q21 0 32.5 11.5t24.5 11.5q5 0 10 -5.5t5 -10.5z" />
    <glyph glyph-name="becy" unicode="&#x431;" 
d="M632 253q0 31 -7.5 68.5t-24 71.5t-43 56t-64.5 22t-64.5 -22t-43.5 -56.5t-24.5 -72t-7.5 -67.5q0 -31 7.5 -69t24 -72.5t43 -57t65.5 -22.5t66 22t43 57t23 73t7 69zM755 253q0 -78 -30.5 -136t-87 -90t-135.5 -32q-78 0 -129 25.5t-80.5 70.5t-41.5 104.5t-12 127.5
q0 77 19.5 149t63.5 130t117 94q41 20 85.5 23.5t89.5 9.5q20 3 42.5 8.5t39.5 16.5q8 6 13.5 11t17.5 5q5 0 12 -3.5t7 -8.5q0 -41 -17 -61.5t-45 -27.5t-62 -11q-40 -4 -80 -11t-76 -26q-34 -18 -59.5 -47t-44.5 -63q-25 -43 -39 -94q5 8 11 14.5t12 13.5q29 29 76 47.5
t87 18.5q79 0 134 -32.5t83.5 -90.5t28.5 -135z" />
    <glyph glyph-name="vecy" unicode="&#x432;" 
d="M655 148q0 40 -18.5 61.5t-48 30.5t-63.5 9h-48h-44t-44 -1v-188q0 -15 16 -18t26 -3q29 0 66.5 2.5t74 12.5t60 32t23.5 62zM614 384q0 30 -14.5 46.5t-37.5 23t-48.5 8t-47.5 1.5q-9 0 -27 -1t-33.5 -6.5t-15.5 -18.5v-153q14 0 27 -0.5t26 -0.5q29 0 64.5 3.5
t60.5 19.5q18 12 32 34t14 44zM786 151q0 -55 -24.5 -85.5t-63.5 -43.5t-84 -15.5t-86 -2.5q-52 0 -105 1t-106 1q-25 0 -50 -2t-50 -2q-8 0 -19.5 5t-11.5 15q0 12 7.5 16t17.5 4q6 0 11.5 -0.5t10.5 -0.5q29 0 34.5 16.5t5.5 39.5q0 84 -0.5 168t-0.5 168q0 17 -9 22.5
t-22 6t-25 0.5q-10 0 -19 6.5t-9 17.5t11.5 13.5t18.5 2.5q32 0 62.5 -1t61.5 -1q44 0 87.5 2.5t86.5 2.5q29 0 67 -2.5t73.5 -13t59 -33.5t23.5 -64q0 -36 -19.5 -61t-49 -39.5t-61.5 -20.5q26 -3 56 -10t58 -20.5t45.5 -35t17.5 -54.5z" />
    <glyph glyph-name="gecy" unicode="&#x433;" 
d="M701 380q0 -12 -12.5 -17t-22.5 -5q-6 0 -12.5 1.5t-10.5 5.5q-2 2 -2.5 4.5t-1.5 4.5q-5 19 -12.5 40.5t-21.5 36.5t-39 15q-15 0 -30 -0.5t-30 -0.5q-12 0 -26 -8t-14 -22v-337q0 -31 8.5 -46t42.5 -15q11 0 20 -2t9 -16t-7 -17.5t-19 -3.5q-25 0 -50 2.5t-50 2.5
q-34 0 -67.5 -2.5t-67.5 -2.5q-17 0 -17 19q0 17 13 18q10 2 20.5 2h20.5t14.5 3t8.5 11q3 5 4.5 29.5t2 56t0.5 57.5v35v78v78q0 12 -0.5 24t-2.5 23q-3 14 -15 18.5t-27 6.5t-26 6.5t-11 19.5q0 14 10.5 16.5t20.5 2.5q30 0 60 -1t60 -1q60 0 120.5 3t120.5 3q16 0 23 -12
q2 -4 5 -20t5.5 -35.5t4 -36t1.5 -22.5z" />
    <glyph glyph-name="decy" unicode="&#x434;" 
d="M561 220q0 52 -0.5 104.5t-0.5 104.5q0 5 -1 19t-9 14h-88q-1 -10 -2 -19.5t-2 -19.5q-9 -97 -29 -193t-52 -188h123h29h29q3 89 3 178zM773 -53q0 -16 -4.5 -27.5t-24.5 -11.5q-18 0 -27.5 13t-18 30t-23.5 29q-17 13 -45 20t-49 7h-191q-23 0 -47 -1t-47 -8
q-26 -8 -36.5 -22.5t-15.5 -29.5t-12.5 -25.5t-28.5 -10.5q-7 0 -16.5 4t-9.5 13q0 23 2.5 48t9.5 47q3 9 7 14t14 7q9 3 18 2.5t19 -0.5q25 0 39 9t23 32q32 86 49 178t17 184q0 15 -16 15q-9 0 -18 -0.5t-18 -0.5q-10 0 -18.5 4t-8.5 17q0 17 8.5 20.5t22.5 3.5
q45 0 90 -1.5t90 -1.5q49 0 97 2t97 2q9 0 20.5 -6.5t11.5 -17.5q0 -13 -7 -17.5t-19 -4.5q-6 0 -12 0.5t-12 0.5q-15 0 -15 -14q0 -79 -2 -158t-2 -159v-43.5t1 -43.5q18 0 35.5 0.5t35.5 0.5q6 0 12.5 -0.5t12.5 -3.5q7 -3 9 -23t2.5 -41.5t0.5 -30.5z" />
    <glyph glyph-name="iecy" unicode="&#x435;" 
d="M612 339q-1 31 -9.5 66t-29 60t-59.5 25q-40 0 -67.5 -24t-43.5 -59t-24 -69q17 -1 34 -1h33h56q28 0 55 0.5t55 1.5zM757 120q0 -10 -6 -19q-11 -16 -35 -36.5t-41 -31.5q-35 -22 -77.5 -31.5t-84.5 -9.5q-79 0 -139.5 30t-95 87t-34.5 138t35 142.5t97.5 95.5t142.5 34
q64 0 113 -21t77 -64.5t28 -111.5q0 -15 -7 -19.5t-21 -4.5q-28 0 -56.5 0.5t-57.5 0.5q-55 0 -111 -0.5t-112 -0.5q-3 -27 -3 -53q0 -34 8.5 -70t27 -67t47 -50.5t68.5 -19.5q112 0 181 87l10 10t13 5t20.5 -5.5t12.5 -14.5z" />
    <glyph glyph-name="zhecy" unicode="&#x436;" 
d="M882 20q0 -5 -0.5 -7.5t-5.5 -6.5q-2 -2 -21 -3t-39 -1h-26q-14 0 -33 1t-31 10q-10 8 -22 25.5t-23 37t-19 31.5l-95 139l-21 -17v-146q0 -16 5 -31.5t23 -18.5q5 -1 11 0t12 1q8 0 15 -2t7 -13t-6 -15t-16 -4q-23 0 -46.5 1t-46.5 1q-26 0 -53 -1.5t-53 -1.5
q-7 0 -16.5 4.5t-9.5 13.5q0 12 10 13t18 1q29 0 38 14t9 40v147l-14 11l-93 -142l-13 -19.5t-19 -29t-19 -27.5t-14 -15q-12 -8 -32 -9.5t-34 -1.5h-24.5t-35.5 1.5t-20 3.5q-4 4 -4 9q0 3 0.5 7t1.5 5q3 2 23.5 6t34.5 17q12 11 21 23l18 24q38 50 74.5 101.5t73.5 103.5
l-144 144q-10 11 -23 17t-27 9q-1 1 -8 2.5t-7 2.5q-4 5 -4 11q0 11 6.5 14t15.5 3q18 0 36 -0.5t36 -0.5q8 0 16.5 -5t12.5 -10q4 -4 7 -9.5t7 -10.5q34 -46 72.5 -89.5t78.5 -84.5q0 33 -0.5 65.5t-0.5 65.5q0 8 -3 24t-8 21q-3 3 -9 3q-7 0 -13 -0.5t-13 -0.5
q-6 0 -16.5 5t-10.5 12q0 17 18 17q23 0 46.5 -0.5t47.5 -0.5q28 0 55 1.5t54 1.5q9 0 17 -3t8 -14q0 -10 -5.5 -13t-14.5 -3q-7 0 -13.5 0.5t-14.5 0.5q-15 0 -20.5 -7.5t-5.5 -21.5q0 -39 0.5 -78t0.5 -78q38 40 73.5 81.5t68.5 84.5q5 7 9.5 13.5t8.5 13.5q5 6 15 13.5
t18 7.5q18 0 36 0.5t35 0.5q8 0 15.5 -2t7.5 -12q0 -11 -8 -15.5t-18 -5.5t-18 -4t-14.5 -8.5t-11.5 -11.5l-128 -135q36 -53 71.5 -106t73.5 -105q9 -12 18 -25t21 -24q14 -12 24 -14.5t18 -2.5t16 -6q5 -2 5 -8z" />
    <glyph glyph-name="zecy" unicode="&#x437;" 
d="M753 154q0 -45 -25.5 -75t-64.5 -47.5t-82 -25t-79 -7.5q-35 0 -76.5 6.5t-79.5 21.5t-64 40q-6 6 -6 18q0 8 10.5 12.5t17.5 4.5q11 0 28 -10q11 -5 24 -13t22 -13q24 -13 55 -21t58 -8q7 0 10 1q38 4 69.5 16.5t50.5 38t19 68.5q0 29 -16 46t-40.5 24.5t-51 9.5
t-47.5 2q-14 0 -28 -2t-28 -2q-5 0 -11.5 2t-6.5 9q0 31 29 31q16 0 31 -1.5t31 -1.5q30 0 53 16t35.5 41.5t12.5 53.5q0 27 -18 47t-44 31t-50 11q-33 0 -69.5 -19.5t-53.5 -48.5q-4 -7 -9.5 -24.5t-10.5 -33t-8 -18.5q-6 -4 -13 -5.5t-14 -1.5t-17 1.5t-10 11.5
q0 5 2.5 26.5t6 47t6 45t3.5 20.5q8 8 12.5 9.5t14.5 1.5q5 0 10 -1t10 -1q8 0 16.5 2.5t15.5 4.5q30 8 60 13t61 5q26 0 62.5 -5t71.5 -17t58.5 -34t23.5 -57q0 -45 -26 -68.5t-61 -43.5q-3 -2 -9.5 -5.5t-6.5 -8.5q0 -4 8.5 -7.5t11.5 -4.5q27 -10 53.5 -22t44.5 -32
t18 -54z" />
    </font>
</defs>
</svg>
